<?xml version="1.0" standalone="no"?>
<!DOCTYPE svg PUBLIC "-//W3C//DTD SVG 1.1//EN" "http://www.w3.org/Graphics/SVG/1.1/DTD/svg11.dtd" >
<svg xmlns="http://www.w3.org/2000/svg">
<metadata></metadata>
<defs>
<font id="alegreya_sansblack" horiz-adv-x="653" >
<font-face units-per-em="1000" ascent="800" descent="-200" />
<missing-glyph horiz-adv-x="135" />
<glyph unicode="&#xa8;I" horiz-adv-x="327" d="M-14 802q0 42 24 66t65 24q38 0 59.5 -21.5t21.5 -60.5q0 -42 -23.5 -66.5t-64.5 -24.5q-40 0 -61 21.5t-21 61.5zM60 0l10 190l-10 457h204l-11 -437l8 -210h-201zM169 802q0 42 24 66t65 24q38 0 59.5 -21.5t21.5 -60.5q0 -42 -23.5 -66.5t-64.5 -24.5q-40 0 -61 21.5 t-21 61.5z" />
<glyph unicode="&#xa8;O" d="M17 312q0 166 84.5 256.5t239.5 90.5q141 0 218 -83.5t77 -235.5q0 -168 -84.5 -260t-239.5 -92q-141 0 -218 84.5t-77 239.5zM146 802q0 42 24 66t65 24q38 0 59.5 -21.5t21.5 -60.5q0 -42 -23.5 -66.5t-64.5 -24.5q-40 0 -61 21.5t-21 61.5zM227 339q0 -121 21 -162 t82 -41q57 0 76.5 32.5t19.5 128.5q0 120 -21 161t-82 41q-56 0 -76 -32.5t-20 -127.5zM339 802q0 42 24 66t65 24q38 0 59.5 -21.5t21.5 -60.5q0 -42 -23.5 -66.5t-64.5 -24.5q-40 0 -61 21.5t-21 61.5z" />
<glyph unicode="&#xb4;Y" horiz-adv-x="594" d="M-8 647h210q11 -39 26 -80.5t34 -90.5t29 -78h12l84 188l23 61h204l-230 -439l-2 -38l8 -170h-200l10 170l-1 31zM168 795q118 60 225 123l17 -4l49 -117l-6 -16q-132 -42 -238 -69l-17 4z" />
<glyph unicode="&#xa8;i" horiz-adv-x="272" d="M-37 627q0 42 24 66t65 24q38 0 59.5 -21.5t21.5 -60.5q0 -42 -23.5 -66.5t-64.5 -24.5q-40 0 -61 21.5t-21 61.5zM38 0l9 190l-7 271l194 13l-9 -264l8 -210h-195zM146 627q0 42 24 66t65 24q38 0 59.5 -21.5t21.5 -60.5q0 -42 -23.5 -66.5t-64.5 -24.5q-40 0 -61 21.5 t-21 61.5z" />
<glyph unicode="&#xa8;o" horiz-adv-x="497" d="M14 223q0 129 61.5 195t181.5 66q112 0 169 -60t57 -177q0 -128 -61.5 -193.5t-181.5 -65.5q-226 0 -226 235zM70 627q0 42 24 66t65 24q38 0 59.5 -21.5t21.5 -60.5q0 -42 -23.5 -66.5t-64.5 -24.5q-40 0 -61 21.5t-21 61.5zM196 257q0 -88 11 -115.5t47 -27.5 q28 0 37 18.5t9 78.5q0 87 -11 114.5t-46 27.5q-29 0 -38 -18.5t-9 -77.5zM263 627q0 42 24 66t65 24q38 0 59.5 -21.5t21.5 -60.5q0 -42 -23.5 -66.5t-64.5 -24.5q-40 0 -61 21.5t-21 61.5z" />
<glyph unicode="&#xb4;y" horiz-adv-x="471" d="M-18 -76l7 17q92 14 170 59l-171 469l186 7l16 -90l51 -197h10l47 179l19 104h164l-138 -423q-34 -102 -91 -155t-172 -88l-13 2q-50 47 -85 116zM118 594q102 76 201 161l17 -1l69 -107l-3 -17q-142 -72 -223 -109l-17 1z" />
<glyph unicode="&#xfb01;" horiz-adv-x="647" d="M15 364l8 103h66v10q0 117 63 173t192 56q55 0 141 -15l-21 -147l-17 -9q-85 36 -125 36q-44 0 -47 -50v-54h225l103 14l10 -9l-9 -262l8 -210h-195l9 190l-4 164h-149l-2 -144l8 -210h-195l9 190l-2 164h-71z" />
<glyph unicode="&#xfb02;" horiz-adv-x="660" d="M15 364l8 103h65v30q0 102 63.5 157t180.5 55q61 0 127 -18l158 11l-9 -492l8 -210h-195l9 190l-5 358q-62 26 -101 26q-47 0 -48 -48l-1 -59h105l5 -10l-8 -103h-104l-2 -144l8 -210h-195l9 190l-3 164h-70z" />
<glyph horiz-adv-x="1000" />
<glyph horiz-adv-x="1000" />
<glyph unicode="&#xd;" horiz-adv-x="1000" />
<glyph unicode=" "  horiz-adv-x="135" />
<glyph unicode="&#x09;" horiz-adv-x="135" />
<glyph unicode="&#xa0;" horiz-adv-x="135" />
<glyph unicode="!" horiz-adv-x="274" d="M27 86q0 48 27.5 76t74.5 28q44 0 68.5 -25t24.5 -70q0 -48 -27 -76t-74 -28q-46 0 -70 24.5t-24 70.5zM51 639l17 22l157 11l23 -23l-52 -390l-109 -16l-19 18z" />
<glyph unicode="&#x22;" horiz-adv-x="443" d="M53 637l151 9l10 -12l-48 -262l-88 -14l-15 11zM246 637l151 9l10 -12l-48 -262l-88 -14l-15 11z" />
<glyph unicode="#" horiz-adv-x="587" d="M20 159l8 97h91l14 90h-72l-11 12l8 97h92l19 117h108l12 -13l-17 -104h91l19 117h108l12 -13l-17 -104h71l11 -12l-8 -97h-91l-14 -90h72l11 -12l-8 -97h-93l-18 -116h-111l-9 12l17 104h-92l-18 -116h-111l-9 12l17 104h-71zM241 256h91l14 90h-91z" />
<glyph unicode="$" horiz-adv-x="469" d="M24 16l27 161l17 13q39 -31 85 -51t76 -20q24 0 24 16q0 13 -22 24t-53.5 22t-63 28t-53.5 50.5t-22 80.5q0 62 38 108.5t107 64.5l7 134h112l17 -15l-6 -111q56 -5 113 -25l-27 -154l-26 -7q-35 23 -72.5 37t-58.5 14t-21 -13q0 -14 22 -25t53.5 -22t63 -27.5 t53.5 -49.5t22 -79q0 -60 -37 -108t-113 -66l-8 -138h-115l-14 15l7 117q-67 7 -132 26z" />
<glyph unicode="%" horiz-adv-x="889" d="M20 459q0 94 46 145t132 51q76 0 116.5 -46t40.5 -132q0 -94 -45.5 -145t-130.5 -51q-77 0 -118 46t-41 132zM135 468q0 -41 11.5 -58.5t40.5 -17.5q30 0 42 16t12 53q0 40 -12.5 57t-42.5 17q-28 0 -39.5 -15t-11.5 -52zM153 -27l464 721l76 -47l10 -24l-462 -717 l-82 50zM533 170q0 95 46.5 146t131.5 51q76 0 116.5 -46t40.5 -133q0 -94 -45.5 -144.5t-130.5 -50.5q-77 0 -118 46t-41 131zM648 179q0 -41 11.5 -58.5t40.5 -17.5q30 0 42 16.5t12 53.5q0 40 -12.5 57t-42.5 17q-28 0 -39.5 -15t-11.5 -53z" />
<glyph unicode="&#x26;" horiz-adv-x="730" d="M21 177q0 107 112 159l1 12q-60 68 -60 139q0 77 60.5 122.5t170.5 45.5q90 0 170 -24l-44 -143h-23q-58 33 -110 33q-54 0 -54 -45q0 -16 9 -30.5t37 -39.5l179 -163q5 23 5 45q0 25 -3 43h-51l-8 11l12 125h293l11 -13l-12 -123h-113l-5 -11q2 -20 2 -57 q0 -66 -24 -117l129 -118v-12q-46 -52 -104 -87h-12l-115 105q-80 -46 -194 -46q-121 0 -190 50.5t-69 138.5zM188 209q0 -88 111 -88q39 0 68 10l-155 141q-24 -28 -24 -63z" />
<glyph unicode="'" horiz-adv-x="250" d="M53 637l151 9l10 -12l-48 -262l-88 -14l-15 11z" />
<glyph unicode="(" horiz-adv-x="302" d="M56 250q0 150 38.5 249t119.5 160h17l69 -57v-15q-88 -97 -88 -336q0 -219 88 -316v-15l-69 -57h-17q-81 60 -119.5 154t-38.5 233z" />
<glyph unicode=")" horiz-adv-x="302" d="M2 -65q88 97 88 336q0 219 -88 316v15l69 57h17q81 -60 119.5 -154t38.5 -233q0 -150 -38.5 -249t-119.5 -160h-17l-69 57v15z" />
<glyph unicode="*" horiz-adv-x="394" d="M16 579q-1 44 13 97l12 3l109 -74l-9 -51l-11 -5zM31 440l1 12l104 81l46 -24l2 -11l-64 -100q-38 11 -89 42zM156 734q43 15 97 17l5 -10l-36 -127l-51 -6l-9 8zM201 499l37 35l12 -1l75 -93q-24 -33 -69 -70l-10 4zM231 595l5 11l112 42q27 -39 45 -87l-7 -8l-132 -4z " />
<glyph unicode="+" horiz-adv-x="480" d="M15 203l9 117h152v152l117 9l13 -12v-149h148l12 -13l-9 -117h-151v-152l-117 -9l-13 12v149h-149z" />
<glyph unicode="," horiz-adv-x="228" d="M-6 -75q56 49 56 109q0 42 -33 75l1 16q72 40 143 58q48 -45 48 -106q0 -114 -152 -219l-61 53z" />
<glyph unicode="-" horiz-adv-x="299" d="M25 182v120l234 38l14 -14l1 -120l-235 -38z" />
<glyph unicode="." horiz-adv-x="228" d="M16 86q0 48 27.5 76t74.5 28q44 0 68.5 -25t24.5 -70q0 -48 -27 -76t-74 -28q-46 0 -70 24.5t-24 70.5z" />
<glyph unicode="/" horiz-adv-x="280" d="M-28 -103l208 786h131l15 -16l-208 -785h-135z" />
<glyph unicode="0" horiz-adv-x="513" d="M29 243q0 132 63.5 206.5t177.5 74.5q101 0 157.5 -66.5t56.5 -187.5q0 -134 -63 -208t-176 -74q-102 0 -159 67t-57 188zM180 256q0 -52 17 -74.5t59 -22.5t60 20.5t18 67.5q0 52 -18.5 73.5t-60.5 21.5q-41 0 -58 -19t-17 -67z" />
<glyph unicode="1" horiz-adv-x="379" d="M5 288v158l270 76l28 -20l-10 -292l8 -210h-198l8 190v109l-94 -20z" />
<glyph unicode="2" horiz-adv-x="490" d="M26 459q124 63 228 63q80 0 131 -35.5t51 -99.5q0 -83 -107 -190l-44 -44l3 -5h77l97 10l10 -12l-22 -154l-144 8h-230l-36 -3l-9 7v118l128 110q82 72 82 102q0 23 -35 23q-58 0 -126 -50h-21z" />
<glyph unicode="3" horiz-adv-x="453" d="M15 469q97 55 204 55q90 0 145 -41t55 -108q0 -89 -89 -140v-6q94 -34 94 -135q0 -84 -77 -135.5t-202 -51.5q-61 0 -118 11l-10 144l13 12q69 -20 121 -20q85 0 85 47q0 33 -46 33h-84l-8 12l5 134l45 2q31 2 51 15t20 36q0 33 -46 33q-39 0 -110 -32h-20z" />
<glyph unicode="4" horiz-adv-x="529" d="M15 44v123l236 347h180l-4 -333h69l11 -17l-8 -136l-68 2l6 -103l-10 -13l-153 -9l-10 12l4 115h-129l-112 -4zM180 181h92l-1 119h-11z" />
<glyph unicode="5" horiz-adv-x="448" d="M4 59l13 13q64 -19 128 -19q86 0 86 51q0 20 -14 31.5t-45 16.5l-109 18l-11 14l5 314l19 20l63 -4h161l117 8l11 -12l-21 -148l-13 -14l-111 15h-79l-2 -61l60 -13q80 -17 117.5 -56.5t37.5 -106.5q0 -100 -75.5 -160.5t-199.5 -60.5q-62 0 -129 14z" />
<glyph unicode="6" horiz-adv-x="498" d="M18 220q0 115 74.5 213.5t210.5 164.5h9l124 -86v-19q-85 -34 -132.5 -61.5t-71.5 -60.5l4 -5q35 10 67 10q81 0 127.5 -54t46.5 -127q0 -83 -60 -145t-172 -62q-106 0 -166.5 62.5t-60.5 169.5zM195 223q0 -59 10 -84.5t45 -25.5q51 0 51 63q0 65 -57 65q-22 0 -49 -9 v-9z" />
<glyph unicode="7" horiz-adv-x="450" d="M8 356l12 163l139 -5h210l57 2v-142l-131 -285l-70 -186l-156 43l-12 30l180 377h-109l-111 -12z" />
<glyph unicode="8" horiz-adv-x="515" d="M33 141q0 89 103 131v8q-88 48 -88 139q0 83 61 131t164 48q90 0 141 -41.5t51 -111.5q0 -76 -80 -128v-8q94 -48 94 -135t-64.5 -136.5t-172.5 -49.5q-101 0 -155 42.5t-54 110.5zM193 169q0 -25 16.5 -39t48.5 -14q31 0 47 12.5t16 30.5q0 22 -19.5 36.5t-58.5 29.5 q-27 -10 -38.5 -22.5t-11.5 -33.5zM206 426q0 -22 18.5 -37t53.5 -29q35 30 35 62q0 20 -14.5 32t-39.5 12q-53 0 -53 -40z" />
<glyph unicode="9" horiz-adv-x="498" d="M21 318q0 83 60 145t172 62q106 0 166.5 -62.5t60.5 -169.5q0 -115 -74.5 -213.5t-210.5 -164.5h-9l-124 86v19q85 34 132.5 61.5t71.5 60.5l-4 5q-35 -10 -67 -10q-81 0 -127.5 54t-46.5 127zM197 337q0 -65 57 -65q22 0 49 9v9q0 59 -10 84.5t-45 25.5q-51 0 -51 -63z " />
<glyph unicode=":" horiz-adv-x="228" d="M11 86q0 48 27.5 76t74.5 28q44 0 68.5 -25t24.5 -70q0 -48 -27 -76t-74 -28q-46 0 -70 24.5t-24 70.5zM11 341q0 48 27.5 76t74.5 28q44 0 68.5 -25t24.5 -70q0 -48 -27 -76t-74 -28q-46 0 -70 24.5t-24 70.5z" />
<glyph unicode=";" horiz-adv-x="228" d="M-11 -75q56 49 56 109q0 42 -33 75l1 16q72 40 143 58q48 -45 48 -106q0 -114 -152 -219l-61 53zM11 341q0 48 27.5 76t74.5 28q44 0 68.5 -25t24.5 -70q0 -48 -27 -76t-74 -28q-46 0 -70 24.5t-24 70.5z" />
<glyph unicode="&#x3c;" horiz-adv-x="480" d="M31 177v156l12 17l365 130l40 -111l-7 -13l-277 -92v-9l276 -91l-26 -108l-16 -13z" />
<glyph unicode="=" horiz-adv-x="480" d="M15 96l9 117h430l12 -13l-9 -117h-430zM15 309l9 117h430l12 -13l-9 -117h-430z" />
<glyph unicode="&#x3e;" horiz-adv-x="480" d="M32 369l40 111l365 -130l12 -17v-156l-367 -134l-16 13l-26 108l276 91v9l-277 92z" />
<glyph unicode="?" horiz-adv-x="351" d="M31 560l35 108l17 9q145 -6 223 -49t78 -118q0 -90 -99 -143l-58 -30l-3 -6l7 -71l-136 -20l-13 12l-13 126l6 11l84 33q48 20 48 58q0 28 -35 42t-127 20zM69 86q0 48 27.5 76t74.5 28q44 0 68.5 -25t24.5 -70q0 -48 -27 -76t-74 -28q-46 0 -70 24.5t-24 70.5z" />
<glyph unicode="@" horiz-adv-x="866" d="M19 183q0 204 130.5 340t341.5 136q166 0 265.5 -88.5t99.5 -243.5q0 -157 -109 -241t-311 -84l14 103h-15q-34 -66 -70 -110h-22q-74 18 -102 57t-28 102q0 94 58 179.5t169 122.5h6l92 -15l103 21l11 -8l-43 -321q56 14 89 65.5t33 122.5q0 105 -72 164.5t-192 54.5 q-145 -6 -233 -100t-88 -236q0 -152 103 -237.5t275 -85.5l7 -17l-50 -89q-213 0 -337.5 106.5t-124.5 301.5zM369 224q0 -74 20 -74q26 0 86 146l3 21l-64 16q-45 0 -45 -109z" />
<glyph unicode="A" horiz-adv-x="627" d="M2 0l196 647h242l177 -647h-203l-18 107l-1 3l-98 2l-82 -4l-17 -108h-196zM253 256l56 -1l56 1l-44 212h-12z" />
<glyph unicode="B" horiz-adv-x="629" d="M60 0l10 190l-10 457l289 1q110 0 172 -42.5t62 -123.5q0 -103 -99 -149q63 -18 91.5 -53.5t28.5 -92.5q0 -101 -82.5 -147.5t-246.5 -46.5q-91 0 -215 7zM246 210l3 -81q50 -4 64 -4q41 0 64.5 18t23.5 52q0 23 -13.5 37t-43.5 24l-97 -2zM250 383l75 -3q54 18 54 73 q0 35 -24.5 48.5t-91.5 13.5h-9z" />
<glyph unicode="C" horiz-adv-x="514" d="M17 318q0 162 87.5 251t247.5 89q86 0 162 -27l-34 -159l-13 -8q-57 31 -123 31q-61 0 -88 -35.5t-27 -118.5q0 -97 31 -141.5t97 -44.5q65 0 123 21l16 -10l-16 -158q-60 -19 -139 -19q-161 0 -242.5 84t-81.5 245z" />
<glyph unicode="D" horiz-adv-x="665" d="M60 0l10 190l-10 457l292 4q143 0 219.5 -77.5t76.5 -223.5q0 -173 -89 -266t-255 -93q-104 0 -244 9zM253 210l2 -62q60 -8 87 -8q96 0 96 161q0 108 -23 151t-80 43q-38 0 -75 -4z" />
<glyph unicode="E" horiz-adv-x="541" d="M60 0l10 190l-10 457h464l11 -14l-13 -146l-159 6h-103l-2 -91h99l104 3l11 -14l-12 -146l-116 3h-90l-1 -38l2 -56h96l166 6l11 -14l-12 -146h-456z" />
<glyph unicode="F" horiz-adv-x="481" d="M60 0l10 190l-10 457h432l11 -14l-13 -146l-160 6h-70l-3 -116h68l116 3l11 -14l-12 -146l-129 3h-58v-13l8 -210h-201z" />
<glyph unicode="G" horiz-adv-x="596" d="M17 310q0 170 94.5 259t270.5 89q108 0 187 -30l-43 -177h-16q-94 47 -166 47q-67 0 -92 -36.5t-25 -141.5q0 -107 26 -144t99 -37q14 0 36 4v32l-3 109l183 13l-3 -88v-177q-116 -44 -231 -44q-157 0 -237 83.5t-80 238.5z" />
<glyph unicode="H" horiz-adv-x="711" d="M60 0l10 190l-10 457h204l-6 -245l101 -2l92 2l-5 245h204l-11 -437l8 -210h-201l10 190l-1 50l-108 2l-93 -3l-1 -29l8 -210h-201z" />
<glyph unicode="I" horiz-adv-x="327" d="M60 0l10 190l-10 457h204l-11 -437l8 -210h-201z" />
<glyph unicode="J" horiz-adv-x="362" d="M7 516l8 131h289l-11 -434l2 -89q0 -94 -49 -146.5t-176 -89.5l-52 103v16q51 25 71.5 52t20.5 71v63l-7 313l-85 -3z" />
<glyph unicode="K" horiz-adv-x="628" d="M60 0l10 190l-10 457h204l-7 -270l124 200l34 70h212l-190 -306q92 -144 210 -299l-3 -22q-105 -23 -200 -32l-22 12q-102 175 -167 297l-2 -87l8 -210h-201z" />
<glyph unicode="L" horiz-adv-x="452" d="M55 0l10 190l-10 457h204l-11 -437l2 -46h191l11 -14l-12 -150h-385z" />
<glyph unicode="M" horiz-adv-x="806" d="M26 0l63 647h231q10 -50 22 -103.5t29 -122.5t25 -101h12l63 228l23 99h228l52 -647h-176l-5 196l-11 163h-12l-104 -298h-151l-86 298h-12l-14 -144l-10 -215h-167z" />
<glyph unicode="N" horiz-adv-x="710" d="M60 0l10 190l-10 457h218l182 -346h12l-6 339l184 11l-11 -440l8 -211h-218l-182 346h-12l-1 -112l8 -234h-182z" />
<glyph unicode="O" d="M17 312q0 166 84.5 256.5t239.5 90.5q141 0 218 -83.5t77 -235.5q0 -168 -84.5 -260t-239.5 -92q-141 0 -218 84.5t-77 239.5zM227 339q0 -121 21 -162t82 -41q57 0 76.5 32.5t19.5 128.5q0 120 -21 161t-82 41q-56 0 -76 -32.5t-20 -127.5z" />
<glyph unicode="P" horiz-adv-x="593" d="M60 0l10 190l-10 457l307 1q109 0 167.5 -53.5t58.5 -152.5q0 -116 -80 -187.5t-210 -71.5h-49l7 -183h-201zM256 327l75 -4q52 29 52 99q0 44 -21 64.5t-66 22.5l-36 -3z" />
<glyph unicode="Q" horiz-adv-x="661" d="M17 312q0 166 84.5 256.5t239.5 90.5q141 0 218 -83.5t77 -235.5q0 -213 -133 -301q117 -61 230 -99l8 -18q-39 -77 -96 -127l-14 -7q-172 87 -303 200h-16q-141 0 -218 84.5t-77 239.5zM227 339q0 -121 21 -162t82 -41q57 0 76.5 32.5t19.5 128.5q0 120 -21 161t-82 41 q-56 0 -76 -32.5t-20 -127.5z" />
<glyph unicode="R" horiz-adv-x="631" d="M60 0l10 190l-10 457l307 1q109 0 168 -51.5t59 -148.5q0 -117 -108 -193q72 -112 144 -208l-3 -22q-102 -31 -201 -37l-19 16q-64 137 -86 189h-67l7 -193h-201zM256 339l73 -4q54 24 54 93q0 40 -20.5 59.5t-66.5 21.5l-36 -3z" />
<glyph unicode="S" horiz-adv-x="528" d="M18 26l29 174l20 12q46 -35 98.5 -55.5t87.5 -20.5q53 0 53 33q0 21 -27.5 39t-67 34.5t-79.5 38t-67.5 62t-27.5 94.5q0 96 75 159t193 63q95 0 188 -35l-32 -163l-28 -12q-91 56 -149 56q-23 0 -36.5 -9t-13.5 -24q0 -20 28 -37.5t67.5 -34t79.5 -38.5t68 -62.5 t28 -93.5q0 -93 -75 -155.5t-198 -62.5q-102 0 -214 38z" />
<glyph unicode="T" horiz-adv-x="519" d="M8 501l11 146h483l11 -14l-11 -146l-132 6h-12l-5 -283l8 -210h-200l10 190l-5 303h-13l-133 -6z" />
<glyph unicode="U" d="M46 647h201l-9 -404q-1 -51 19.5 -74t66.5 -23q47 0 68 23t20 74l-9 404h204l-7 -328l-1 -103q-1 -110 -74 -169t-209 -59q-131 0 -200.5 59t-66.5 169l3 103z" />
<glyph unicode="V" horiz-adv-x="615" d="M4 647h203q11 -72 26.5 -150t36 -172t30.5 -146h12l92 349l19 119h196l-196 -647h-242z" />
<glyph unicode="W" horiz-adv-x="914" d="M17 647h194l10 -100l63 -346h12l75 295l-34 151h202l14 -120l68 -326h12l79 334l18 112h184l-191 -647h-212l-61 234h-12l-56 -234h-213z" />
<glyph unicode="X" horiz-adv-x="635" d="M-4 647h240l35 -81l57 -102l65 113l30 70h209l-185 -305l195 -342h-239l-34 79l-58 105l-74 -115l-32 -69h-203l192 311z" />
<glyph unicode="Y" horiz-adv-x="594" d="M-8 647h210q11 -39 26 -80.5t34 -90.5t29 -78h12l84 188l23 61h204l-230 -439l-2 -38l8 -170h-200l10 170l-1 31z" />
<glyph unicode="Z" horiz-adv-x="570" d="M24 497l14 153l150 -3h274l76 1v-144l-275 -356h161l123 9l6 -9l-16 -153l-178 5h-230l-101 -6v143l280 362h-157l-120 -10z" />
<glyph unicode="[" horiz-adv-x="302" d="M59 -113l11 376l-11 376l245 10l7 -9v-86l-94 -15v-552l94 -15v-86l-7 -9z" />
<glyph unicode="\" horiz-adv-x="280" d="M-28 667l15 16h131l208 -786l-11 -15h-135z" />
<glyph unicode="]" horiz-adv-x="302" d="M-9 -28l94 15v552l-94 15v86l7 9l245 -10l-11 -376l11 -376l-245 -10l-7 9v86z" />
<glyph unicode="^" horiz-adv-x="460" d="M12 151l130 340l17 11h156l134 -341l-13 -16l-108 -26l-91 251h-9l-92 -252l-13 -7z" />
<glyph unicode="_" horiz-adv-x="438" d="M-15 -198l9 107h447l12 -13l-9 -107h-447z" />
<glyph unicode="`" horiz-adv-x="388" d="M51 647l69 107l17 1q99 -85 201 -161l-44 -72l-17 -1q-81 37 -223 109z" />
<glyph unicode="a" horiz-adv-x="503" d="M15 145q0 111 115 127l142 19v12q0 26 -10.5 37t-36.5 11q-56 0 -145 -48l-12 8l-21 123q97 50 211 50q92 0 142 -37.5t50 -107.5q0 -17 -4 -98t-4 -93q0 -21 14 -21q6 0 17 3l12 -10l-17 -100q-37 -26 -93 -30q-61 5 -86 71h-7q-44 -51 -100 -72q-76 1 -121.5 42.5 t-45.5 113.5zM188 162q0 -40 37 -40q24 0 47 16v68l-57 -8q-27 -4 -27 -36z" />
<glyph unicode="b" horiz-adv-x="534" d="M43 7l8 183l-7 499l194 13l-6 -298h5q42 50 96 75q88 0 137.5 -61.5t49.5 -169.5q0 -126 -65 -193t-178 -67q-63 0 -135 25l-82 -25zM229 215l1 -101q20 -6 36 -6q35 0 53 24.5t18 84.5q0 108 -68 108q-20 0 -38 -11z" />
<glyph unicode="c" horiz-adv-x="384" d="M14 228q0 122 64.5 189t181.5 67q68 0 122 -24l-31 -148l-14 -7q-52 21 -76 21q-61 0 -61 -77q0 -57 17.5 -83t55.5 -26q31 0 85 15l13 -11l-20 -143q-52 -13 -125 -13q-101 0 -156.5 62.5t-55.5 177.5z" />
<glyph unicode="d" horiz-adv-x="535" d="M14 229q0 123 66 187.5t181 64.5q15 0 37 -3l-3 211l194 13l-9 -492l1 -61q0 -22 13 -22q6 0 17 3l12 -10l-17 -100q-37 -26 -93 -30q-67 5 -95 70h-7q-40 -43 -94 -69q-95 0 -149 64t-54 174zM196 265q0 -69 14 -99.5t44 -30.5q25 0 47 20l1 36l-2 151q-23 10 -45 10 q-33 0 -46 -18t-13 -69z" />
<glyph unicode="e" horiz-adv-x="493" d="M14 236q0 116 66.5 181.5t180.5 65.5q101 0 154.5 -52t53.5 -144q0 -33 -6 -65l-21 -25l-248 -2q8 -36 33.5 -52t73.5 -16q62 0 134 24l14 -10l-30 -132q-68 -21 -141 -21q-125 0 -194.5 65t-69.5 183zM192 287l110 6l2 13q0 53 -45 53q-55 0 -67 -72z" />
<glyph unicode="f" horiz-adv-x="360" d="M15 364l8 103h66v25q0 102 65.5 157t185.5 55q47 0 96 -9l-11 -141l-13 -9q-61 24 -93 24q-41 0 -42 -42l-1 -60h106l5 -10l-8 -103h-105l-3 -144l8 -210h-195l9 190l-2 164h-71z" />
<glyph unicode="g" horiz-adv-x="516" d="M35 -60q35 36 78 63v6q-69 28 -69 103q35 34 76 61v6q-82 39 -82 132q0 80 60.5 125.5t166.5 45.5q62 0 111 -20q72 16 146 48l13 -11v-117q-26 -4 -62 -6l-2 -4q9 -22 9 -48q0 -78 -61 -124t-166 -46q-27 0 -53 3q-3 -7 -3 -12q0 -16 30.5 -22t74 -9.5t87 -12.5 t74 -39.5t30.5 -81.5q0 -80 -66.5 -128.5t-178.5 -48.5q-103 0 -158 36.5t-55 100.5zM186 -47q0 -48 79 -48q35 0 51.5 9t16.5 32q0 7 -3.5 13t-11 9.5t-15.5 6.5t-21.5 5t-23.5 3t-28 3t-28 3q-16 -16 -16 -36zM204 320q0 -31 12 -43.5t41 -12.5q30 0 44 12.5t14 40.5 t-12.5 39t-40.5 11q-33 0 -45.5 -10.5t-12.5 -36.5z" />
<glyph unicode="h" horiz-adv-x="544" d="M43 0l9 190l-7 499l194 13l-5 -298h5q53 52 117 74q75 0 114.5 -34t37.5 -98l-4 -136l7 -210h-195l10 264q0 61 -47 61q-23 0 -47 -14l-2 -101l8 -210h-195z" />
<glyph unicode="i" horiz-adv-x="272" d="M38 0l9 190l-7 271l194 13l-9 -264l8 -210h-195zM41 624q0 48 27.5 76t74.5 28q44 0 68.5 -25t24.5 -70q0 -48 -27 -76t-74 -28q-46 0 -70 24.5t-24 70.5z" />
<glyph unicode="j" horiz-adv-x="306" d="M-2 365l8 102h71l181 9l5 -4l-9 -262l7 -175q0 -80 -46 -136.5t-143 -95.5l-65 86v16q69 37 69 126v159l-4 164h-64zM57 624q0 48 27.5 76t74.5 28q44 0 68.5 -25t24.5 -70q0 -48 -27 -76t-74 -28q-46 0 -70 24.5t-24 70.5z" />
<glyph unicode="k" horiz-adv-x="540" d="M43 0l9 190l-7 499l194 13l-8 -428l76 142l21 56h199l-120 -209q47 -96 127 -231l-1 -20q-65 -13 -183 -24l-20 10q-59 108 -100 223v-11l8 -210h-195z" />
<glyph unicode="l" horiz-adv-x="282" d="M43 0l9 190l-7 499l194 13l-9 -492l8 -210h-195z" />
<glyph unicode="m" horiz-adv-x="812" d="M38 0l9 190l-7 271l183 13v-70h7q52 52 117 74q113 0 142 -74h5q52 51 126 74q74 0 113 -34t38 -98l-4 -136l7 -210h-193l10 265q0 61 -47 61q-22 0 -47 -13l-3 -103l8 -210h-193l10 265q0 61 -48 61q-23 0 -48 -14v-102l8 -210h-193z" />
<glyph unicode="n" horiz-adv-x="542" d="M38 0l9 190l-7 271l185 13v-70h7q52 52 117 74q75 0 114.5 -34t37.5 -98l-4 -136l7 -210h-195l10 264q0 61 -47 61q-23 0 -47 -14v-101l8 -210h-195z" />
<glyph unicode="o" horiz-adv-x="497" d="M14 223q0 129 61.5 195t181.5 66q112 0 169 -60t57 -177q0 -128 -61.5 -193.5t-181.5 -65.5q-226 0 -226 235zM196 257q0 -88 11 -115.5t47 -27.5q28 0 37 18.5t9 78.5q0 87 -11 114.5t-46 27.5q-29 0 -38 -18.5t-9 -77.5z" />
<glyph unicode="p" horiz-adv-x="526" d="M37 -185l8 375l-7 271l185 13v-70h7q42 50 96 75q89 0 137.5 -61t48.5 -170q0 -126 -64.5 -193t-177.5 -67q-20 0 -43 3l4 -176h-194zM223 210l2 -97q20 -5 34 -5q35 0 52.5 24.5t17.5 84.5q0 55 -15.5 81.5t-51.5 26.5q-22 0 -39 -12v-103z" />
<glyph unicode="q" horiz-adv-x="525" d="M14 228q0 122 65.5 187.5t169.5 65.5q51 0 121 -27l103 30l16 -9l-9 -265l7 -395h-194l9 198v33h-7q-36 -36 -78 -55q-96 0 -149.5 64t-53.5 173zM196 259q0 -124 58 -124q25 0 47 20l1 33l-3 154q-23 10 -46 10q-33 0 -45 -19.5t-12 -73.5z" />
<glyph unicode="r" horiz-adv-x="374" d="M38 0l9 190l-7 271l185 13v-88h9q43 87 115 87q13 0 23 -2v-175l-19 -6q-13 8 -36 8q-48 0 -92 -38v-50l8 -210h-195z" />
<glyph unicode="s" horiz-adv-x="402" d="M7 14l23 143l16 12q37 -29 80.5 -46t72.5 -17q28 0 28 19q0 14 -21 25t-51.5 21.5t-61 25.5t-51.5 45.5t-21 73.5q0 73 56.5 120t154.5 47q73 0 148 -25l-25 -135l-22 -7q-75 46 -124 46q-26 0 -26 -18q0 -14 21 -25t51.5 -21.5t60.5 -25.5t51 -45t21 -73 q0 -69 -53 -117.5t-160 -48.5q-82 0 -168 26z" />
<glyph unicode="t" horiz-adv-x="361" d="M-3 364l8 103h59l-1 85l181 48l12 -11l-5 -122h98l5 -10l-8 -103h-99l-6 -169q0 -24 8.5 -33.5t30.5 -9.5q26 0 60 12l12 -15l-18 -108q-47 -28 -106 -38q-79 0 -124 36t-45 96l6 104l-1 125h-62z" />
<glyph unicode="u" horiz-adv-x="535" d="M38 461l185 13v-271q0 -55 41 -55q23 0 43 15v298l185 13l-11 -326q0 -21 14 -21q7 0 17 3l12 -10l-17 -100q-37 -26 -93 -30q-65 6 -91 84h-12q-55 -61 -115 -80q-74 0 -114.5 34t-40.5 98l3 103z" />
<glyph unicode="v" horiz-adv-x="467" d="M5 469l182 7l13 -95l35 -202h10l45 190l18 103h168l-140 -472h-212z" />
<glyph unicode="w" horiz-adv-x="725" d="M5 469l176 7l10 -89l27 -196h10l38 185l17 96h188l9 -85l31 -195h10q43 226 53 280h160l-137 -472h-183l-43 234h-12l-50 -234h-191z" />
<glyph unicode="x" horiz-adv-x="490" d="M0 468l209 7l22 -68l29 -63q40 80 63 127h167l-125 -233l125 -233l-205 -13l-25 72l-28 64l-38 -73l-24 -55h-168l123 234z" />
<glyph unicode="y" horiz-adv-x="471" d="M-18 -76l7 17q92 14 170 59l-171 469l186 7l16 -90l51 -197h10l47 179l19 104h164l-138 -423q-34 -102 -91 -155t-172 -88l-13 2q-50 47 -85 116z" />
<glyph unicode="z" horiz-adv-x="438" d="M17 357l12 118l119 -3h199l66 1v-114l-189 -239h96l95 7l10 -12l-12 -118l-142 3h-166l-85 -5v114l192 243h-90l-95 -7z" />
<glyph unicode="{" horiz-adv-x="302" d="M26 234v87q55 23 55 70q0 17 -11 65t-11 79q0 59 41 91.5t118 32.5q41 0 80 -12l7 -13l-15 -96q-18 5 -33 5q-46 0 -46 -48q0 -17 13 -54.5t13 -56.5q0 -70 -70 -103v-7q34 -16 52 -43t18 -58q0 -21 -13 -58.5t-13 -54.5q0 -48 46 -48q15 0 33 5l15 -96l-7 -13 q-39 -12 -80 -12q-77 0 -118 32.5t-41 91.5q0 31 11 79t11 65q0 47 -55 70z" />
<glyph unicode="|" horiz-adv-x="300" d="M75 -240q1 346 2 1039l135 11l14 -13l-5 -503l1 -539l-132 -11z" />
<glyph unicode="}" horiz-adv-x="302" d="M-3 -79l15 96q18 -5 33 -5q46 0 46 48q0 17 -13 54.5t-13 56.5q0 70 70 103v7q-34 16 -52 43t-18 58q0 21 13 58.5t13 54.5q0 48 -46 48q-15 0 -33 -5l-15 96l7 13q39 12 80 12q77 0 118 -32.5t41 -91.5q0 -31 -11 -79t-11 -65q0 -47 55 -70v-87q-55 -23 -55 -70 q0 -17 11 -65t11 -79q0 -59 -41 -91.5t-118 -32.5q-41 0 -80 12z" />
<glyph unicode="~" horiz-adv-x="480" d="M6 214v16l92 115l16 7q27 -5 113 -31t104 -26q5 0 10.5 1.5t11.5 5.5t10 7t11 10t10.5 11t12 13t11.5 13h16l50 -63v-16l-91 -115l-16 -6q-29 4 -114 30t-102 26q-6 0 -11.5 -1.5t-11.5 -5.5t-10 -7t-11.5 -10.5t-10.5 -11t-12 -13t-11 -12.5h-16z" />
<glyph unicode="&#xa1;" horiz-adv-x="274" d="M37 -174l52 390l109 16l19 -18l17 -378l-17 -22l-157 -11zM63 380q0 48 27 76t74 28q46 0 70 -24.5t24 -70.5q0 -48 -27.5 -76t-74.5 -28q-44 0 -68.5 25t-24.5 70z" />
<glyph unicode="&#xa2;" horiz-adv-x="382" d="M14 267q0 96 40.5 158.5t115.5 85.5l7 151h131l19 -16l-7 -128q38 -8 62 -19l-31 -148l-14 -7q-52 21 -76 21q-61 0 -61 -77q0 -57 17.5 -83t55.5 -26q31 0 85 15l13 -11l-20 -143q-36 -8 -55 -10l-8 -159h-135l-14 15l8 153q-133 45 -133 228z" />
<glyph unicode="&#xa3;" horiz-adv-x="481" d="M11 9l8 108q40 10 56.5 31.5t16.5 59.5v41h-75l-6 9l8 95h71v39q-1 99 64 152t184 53q60 0 122 -13l-11 -135l-12 -8q-72 32 -117 32q-58 0 -58 -50l-1 -70h127l5 -9l-7 -95h-127v-32q0 -33 -8 -51t-28 -34v-5h122l111 8l5 -8l-13 -132l-157 5h-274z" />
<glyph unicode="&#xa4;" horiz-adv-x="434" d="M-2 479l84 89l16 -1l60 -71q35 16 72 16q32 0 65 -13l57 72l17 3l89 -84v-16l-72 -61q17 -36 17 -74q0 -33 -13 -65l72 -55l3 -17l-84 -89h-16l-59 71q-34 -18 -76 -18q-34 0 -67 14l-54 -70l-17 -3l-89 84l1 16l70 59q-17 34 -17 73q0 35 14 68l-70 55zM158 339 q0 -34 19 -53t53 -19t53 19t19 53t-19 53t-53 19t-53 -19t-19 -53z" />
<glyph unicode="&#xa5;" horiz-adv-x="579" d="M23 511h178l15 -45l71 -144h10l81 138l20 51h174l-106 -185h81l8 -7l-6 -79h-132l-32 -55h162l8 -7l-6 -79h-183l5 -99h-170l6 99h-166l-6 9l5 77h148l-27 55h-120l-6 9l5 77h77z" />
<glyph unicode="&#xa6;" horiz-adv-x="300" d="M75 -240l1 386l130 15l15 -16l1 -390l-132 -11zM76 376l1 423l135 11l14 -13l-4 -415l-133 -17z" />
<glyph unicode="&#xa7;" horiz-adv-x="445" d="M13 231q0 46 24.5 87t67.5 68q-54 38 -54 99q0 72 62 123t155 51q77 0 144 -25l-23 -138l-22 -8q-75 47 -124 47q-28 0 -28 -17q0 -12 23 -22t55.5 -20.5t65.5 -26t56 -46.5t23 -73q0 -46 -25.5 -87.5t-69.5 -67.5q57 -38 57 -100q0 -70 -61 -120t-154 -50q-87 0 -171 27 l24 145l16 11q38 -29 79.5 -46t71.5 -17t30 16q0 12 -23 21.5t-55.5 20.5t-65 26.5t-55.5 47t-23 74.5zM177 283q0 -33 58 -58q38 20 38 52q0 33 -59 59q-37 -22 -37 -53z" />
<glyph unicode="&#xa8;" horiz-adv-x="388" d="M13 627q0 42 24 66t65 24q38 0 59.5 -21.5t21.5 -60.5q0 -42 -23.5 -66.5t-64.5 -24.5q-40 0 -61 21.5t-21 61.5zM206 627q0 42 24 66t65 24q38 0 59.5 -21.5t21.5 -60.5q0 -42 -23.5 -66.5t-64.5 -24.5q-40 0 -61 21.5t-21 61.5z" />
<glyph unicode="&#xa9;" horiz-adv-x="689" d="M40 293q0 137 83.5 221t220.5 84t221 -84t84 -221t-84 -221t-221 -84t-220.5 84t-83.5 221zM102 293q0 -109 67 -176.5t175 -67.5q109 0 176 67.5t67 176.5t-67 176.5t-176 67.5q-108 0 -175 -67.5t-67 -176.5zM189 292q0 81 48.5 126.5t136.5 45.5q37 0 84 -9l-22 -100 l-7 -5q-27 11 -60 11q-26 0 -36 -11t-10 -43q0 -40 12.5 -57.5t42.5 -17.5q24 0 58 4l10 -6l-10 -99q-12 -2 -68 -2q-179 0 -179 163z" />
<glyph unicode="&#xaa;" horiz-adv-x="364" d="M15 423q0 77 81 89l99 12l1 5q0 17 -7.5 24t-24.5 7q-40 0 -103 -32l-8 5l-15 89q69 33 149 33q66 0 101 -26t35 -74q0 -12 -2.5 -65t-2.5 -61q0 -16 9 -16q8 0 12 2l9 -8l-13 -71q-27 -20 -59 -20q-30 0 -44.5 10.5t-23.5 37.5h-5q-29 -34 -70 -49q-54 0 -86 29t-32 79z M139 436q0 -27 25 -27q16 0 31 9v45l-37 -4q-19 -5 -19 -23z" />
<glyph unicode="&#xab;" horiz-adv-x="466" d="M17 214v27l125 184l91 -47l4 -17l-80 -131l80 -130l-4 -17l-91 -47zM223 214v27l125 184l91 -47l4 -17l-80 -131l80 -130l-4 -17l-91 -47z" />
<glyph unicode="&#xac;" horiz-adv-x="480" d="M15 203l9 117h410l6 -9v-273l-117 -9l-13 12v149h-283z" />
<glyph unicode="&#xad;" horiz-adv-x="299" d="M25 182v120l234 38l14 -14l1 -120l-235 -38z" />
<glyph unicode="&#xae;" horiz-adv-x="454" d="M35 511q0 86 53 139t139 53t139 -53t53 -139t-53 -139t-139 -53t-139 53t-53 139zM77 511q0 -67 41.5 -108.5t108.5 -41.5t108.5 41.5t41.5 108.5t-41.5 108.5t-108.5 41.5t-108.5 -41.5t-41.5 -108.5zM146 419l3 56l-3 140l100 1q35 0 54.5 -16.5t19.5 -46.5 q0 -36 -36 -58q25 -35 48 -62l-1 -7q-19 -7 -62 -11l-8 5q-17 30 -29 56h-25l3 -57h-64zM208 521l27 -2q18 11 18 29q0 21 -30 22l-13 -1z" />
<glyph unicode="&#xaf;" horiz-adv-x="388" d="M46 584l9 107h276l12 -13l-9 -107h-276z" />
<glyph unicode="&#xb0;" horiz-adv-x="292" d="M11 524q0 56 39.5 95.5t95.5 39.5t95.5 -39.5t39.5 -95.5t-39.5 -95.5t-95.5 -39.5t-95.5 39.5t-39.5 95.5zM90 524q0 -26 15 -41t41 -15q25 0 40.5 15.5t15.5 40.5t-15.5 40.5t-40.5 15.5t-40.5 -15.5t-15.5 -40.5z" />
<glyph unicode="&#xb1;" horiz-adv-x="480" d="M15 -132l9 117h430l12 -13l-9 -117h-430zM15 203l9 117h152v152l117 9l13 -12v-149h148l12 -13l-9 -117h-151v-152l-117 -9l-13 12v149h-149z" />
<glyph unicode="&#xb2;" horiz-adv-x="375" d="M22 657q92 50 170 50q59 0 97.5 -27t38.5 -76q0 -56 -77 -145l-35 -40l2 -3h56l72 7l7 -9l-16 -113l-108 6h-170l-26 -2l-7 5v84l90 89q24 24 34.5 35t20 26t9.5 25q0 20 -26 20q-43 0 -91 -40h-16z" />
<glyph unicode="&#xb3;" horiz-adv-x="337" d="M12 672q70 36 149 36q67 0 107.5 -28t40.5 -73q0 -58 -61 -91v-4q68 -22 68 -90q0 -56 -55.5 -89.5t-146.5 -33.5q-44 0 -86 8l-9 102l10 9q46 -14 88 -14q57 0 57 24q0 17 -28 17h-62l-7 8l2 95l33 2q47 2 47 28q0 18 -31 18q-26 0 -78 -19h-15z" />
<glyph unicode="&#xb4;" horiz-adv-x="388" d="M51 594q102 76 201 161l17 -1l69 -107l-3 -17q-142 -72 -223 -109l-17 1z" />
<glyph unicode="&#xb5;" horiz-adv-x="535" d="M38 461l185 13v-271q0 -55 41 -55q23 0 43 15v298l185 13l-11 -323q0 -23 16 -23q5 0 16 3l12 -10l-19 -101q-40 -29 -87 -29q-40 0 -65 18t-42 59h-7q-41 -56 -82 -73v-180h-184l6 375z" />
<glyph unicode="&#xb6;" horiz-adv-x="564" d="M10 418q0 110 71 169.5t203 59.5h261l11 -13l-12 -135h-60l-7 -286l2 -69q0 -89 -50.5 -143t-180.5 -96l-50 89v16q53 26 74.5 54t21.5 73v56l-7 307h-31q-36 -17 -36 -88q0 -65 47 -125l-69 -97q-91 25 -139.5 84t-48.5 144z" />
<glyph unicode="&#xb7;" horiz-adv-x="228" d="M16 256q0 48 27.5 76t74.5 28q44 0 68.5 -25t24.5 -70q0 -48 -27 -76t-74 -28q-46 0 -70 24.5t-24 70.5z" />
<glyph unicode="&#xb8;" horiz-adv-x="388" d="M98 -185l11 75l8 3q33 -28 60 -28q16 0 16 14q0 9 -12 15l-50 27l22 112h83l-14 -76l34 -19q44 -23 44 -63q0 -37 -29.5 -60.5t-80.5 -23.5q-49 0 -92 24z" />
<glyph unicode="&#xb9;" horiz-adv-x="296" d="M4 541v113l213 52l21 -14l-7 -244l6 -141h-150l6 127v113l-80 -12z" />
<glyph unicode="&#xba;" horiz-adv-x="356" d="M14 477q0 178 171 178q157 0 157 -163q0 -178 -171 -178q-157 0 -157 163zM144 494q0 -56 7 -73.5t29 -17.5q20 0 26.5 14t6.5 58q0 53 -7 70t-30 17q-20 0 -26 -13t-6 -55z" />
<glyph unicode="&#xbb;" horiz-adv-x="466" d="M17 103l80 131l-80 130l4 17l91 47l125 -178v-27l-125 -184l-91 47zM223 103l80 131l-80 130l4 17l91 47l125 -178v-27l-125 -184l-91 47z" />
<glyph unicode="&#xbc;" horiz-adv-x="798" d="M4 488v113l213 52l21 -14l-7 -244l6 -141h-150l6 127v113l-80 -12zM83 -27l464 721l76 -47l10 -24l-462 -717l-82 50zM426 80v88l166 225h136l-3 -215h47l8 -12l-6 -97l-46 1l5 -61l-8 -9l-115 -6l-8 8l3 70h-87l-83 -3zM550 178h58l-1 64h-8z" />
<glyph unicode="&#xbd;" horiz-adv-x="838" d="M4 488v113l213 52l21 -14l-7 -244l6 -141h-150l6 127v113l-80 -12zM83 -27l464 721l76 -47l10 -24l-462 -717l-82 50zM485 350q92 50 170 50q59 0 97.5 -27t38.5 -76q0 -56 -77 -145l-35 -40l2 -3h56l72 7l7 -9l-16 -113l-108 6h-170l-26 -2l-7 5v84l90 89q24 24 34.5 35 t20 26t9.5 25q0 20 -26 20q-43 0 -91 -40h-16z" />
<glyph unicode="&#xbe;" horiz-adv-x="839" d="M12 619q70 36 149 36q67 0 107.5 -28t40.5 -73q0 -58 -61 -91v-4q68 -22 68 -90q0 -56 -55.5 -89.5t-146.5 -33.5q-44 0 -86 8l-9 102l10 9q46 -14 88 -14q57 0 57 24q0 17 -28 17h-62l-7 8l2 95l33 2q47 2 47 28q0 18 -31 18q-26 0 -78 -19h-15zM124 -27l464 721l76 -47 l10 -24l-462 -717l-82 50zM467 80v88l166 225h136l-3 -215h47l8 -12l-6 -97l-46 1l5 -61l-8 -9l-115 -6l-8 8l3 70h-87l-83 -3zM591 178h58l-1 64h-8z" />
<glyph unicode="&#xbf;" horiz-adv-x="351" d="M-28 -35q0 90 99 143l58 30l3 6l-7 71l136 20l13 -12l13 -126l-6 -11l-84 -33q-48 -20 -48 -58q0 -28 35 -42t127 -20l14 -18l-35 -108l-17 -9q-145 6 -223 49t-78 118zM92 380q0 48 27 76t74 28q46 0 70 -24.5t24 -70.5q0 -48 -27.5 -76t-74.5 -28q-44 0 -68.5 25 t-24.5 70z" />
<glyph unicode="&#xc0;" horiz-adv-x="627" d="M2 0l196 647h242l177 -647h-203l-18 107l-1 3l-98 2l-82 -4l-17 -108h-196zM173 797l49 117l17 4q107 -63 225 -123l-30 -79l-17 -4q-106 27 -238 69zM253 256l56 -1l56 1l-44 212h-12z" />
<glyph unicode="&#xc1;" horiz-adv-x="627" d="M2 0l196 647h242l177 -647h-203l-18 107l-1 3l-98 2l-82 -4l-17 -108h-196zM186 795q118 60 225 123l17 -4l49 -117l-6 -16q-132 -42 -238 -69l-17 4zM253 256l56 -1l56 1l-44 212h-12z" />
<glyph unicode="&#xc2;" horiz-adv-x="627" d="M2 0l196 647h242l177 -647h-203l-18 107l-1 3l-98 2l-82 -4l-17 -108h-196zM145 797q90 62 153 119h34q63 -57 153 -119l-34 -76h-18l-118 60q-19 -10 -59 -30t-59 -30h-18zM253 256l56 -1l56 1l-44 212h-12z" />
<glyph unicode="&#xc3;" horiz-adv-x="627" d="M2 0l196 647h242l177 -647h-203l-18 107l-1 3l-98 2l-82 -4l-17 -108h-196zM118 757v16l81 113l16 6q26 -3 83 -18.5t70 -15.5q4 0 8 1t8.5 3t8 4t8 6.5l7 7t7.5 8.5t7 9t7.5 9.5t7.5 9.5h16l57 -55v-16l-81 -113l-16 -6q-26 3 -83 18.5t-70 15.5q-4 0 -8 -1t-8.5 -3 t-8 -4t-8 -6.5l-7 -7t-7.5 -8.5t-7 -9t-7.5 -9.5t-7.5 -9.5h-16zM253 256l56 -1l56 1l-44 212h-12z" />
<glyph unicode="&#xc4;" horiz-adv-x="627" d="M2 0l196 647h242l177 -647h-203l-18 107l-1 3l-98 2l-82 -4l-17 -108h-196zM134 802q0 42 24 66t65 24q38 0 59.5 -21.5t21.5 -60.5q0 -42 -23.5 -66.5t-64.5 -24.5q-40 0 -61 21.5t-21 61.5zM253 256l56 -1l56 1l-44 212h-12zM327 802q0 42 24 66t65 24q38 0 59.5 -21.5 t21.5 -60.5q0 -42 -23.5 -66.5t-64.5 -24.5q-40 0 -61 21.5t-21 61.5z" />
<glyph unicode="&#xc5;" horiz-adv-x="627" d="M2 0l196 647h242l177 -647h-203l-18 107l-1 3l-98 2l-82 -4l-17 -108h-196zM205 820q0 111 114 111q106 0 106 -104q0 -55 -29 -84.5t-85 -29.5q-106 0 -106 107zM253 256l56 -1l56 1l-44 212h-12zM280 823q0 -19 8 -26.5t28 -7.5q19 0 26.5 7t7.5 24q0 18 -8 25.5 t-28 7.5q-19 0 -26.5 -6.5t-7.5 -23.5z" />
<glyph unicode="&#xc6;" horiz-adv-x="840" d="M-20 0l276 647h520l11 -14l-13 -146l-149 6h-76l8 -114l169 54l14 -11l18 -138l-190 -55l5 -75h91l165 6l11 -14l-12 -146h-436l-5 107l-5 66l-171 -52q-7 -23 -19.5 -66.5t-15.5 -54.5h-196zM278 294l91 28l-12 146h-12z" />
<glyph unicode="&#xc7;" horiz-adv-x="514" d="M17 318q0 162 87.5 251t247.5 89q86 0 162 -27l-34 -159l-13 -8q-57 31 -123 31q-61 0 -88 -35.5t-27 -118.5q0 -97 31 -141.5t97 -44.5q65 0 123 21l16 -10l-16 -158q-54 -17 -123 -19l-6 -31l34 -19q44 -23 44 -63q0 -37 -29.5 -60.5t-80.5 -23.5q-49 0 -92 24l11 75 l8 3q33 -28 60 -28q16 0 16 14q0 9 -12 15l-50 27l14 71q-257 33 -257 325z" />
<glyph unicode="&#xc8;" horiz-adv-x="541" d="M60 0l10 190l-10 457h464l11 -14l-13 -146l-159 6h-103l-2 -91h99l104 3l11 -14l-12 -146l-116 3h-90l-1 -38l2 -56h96l166 6l11 -14l-12 -146h-456zM150 797l49 117l17 4q107 -63 225 -123l-30 -79l-17 -4q-106 27 -238 69z" />
<glyph unicode="&#xc9;" horiz-adv-x="541" d="M60 0l10 190l-10 457h464l11 -14l-13 -146l-159 6h-103l-2 -91h99l104 3l11 -14l-12 -146l-116 3h-90l-1 -38l2 -56h96l166 6l11 -14l-12 -146h-456zM163 795q118 60 225 123l17 -4l49 -117l-6 -16q-132 -42 -238 -69l-17 4z" />
<glyph unicode="&#xca;" horiz-adv-x="541" d="M60 0l10 190l-10 457h464l11 -14l-13 -146l-159 6h-103l-2 -91h99l104 3l11 -14l-12 -146l-116 3h-90l-1 -38l2 -56h96l166 6l11 -14l-12 -146h-456zM122 797q90 62 153 119h34q63 -57 153 -119l-34 -76h-18l-118 60q-20 -10 -59 -30t-59 -30h-18z" />
<glyph unicode="&#xcb;" horiz-adv-x="541" d="M60 0l10 190l-10 457h464l11 -14l-13 -146l-159 6h-103l-2 -91h99l104 3l11 -14l-12 -146l-116 3h-90l-1 -38l2 -56h96l166 6l11 -14l-12 -146h-456zM111 802q0 42 24 66t65 24q38 0 59.5 -21.5t21.5 -60.5q0 -42 -23.5 -66.5t-64.5 -24.5q-40 0 -61 21.5t-21 61.5z M304 802q0 42 24 66t65 24q38 0 59.5 -21.5t21.5 -60.5q0 -42 -23.5 -66.5t-64.5 -24.5q-40 0 -61 21.5t-21 61.5z" />
<glyph unicode="&#xcc;" horiz-adv-x="327" d="M19 797l49 117l17 4q107 -63 225 -123l-30 -79l-17 -4q-106 27 -238 69zM60 0l10 190l-10 457h204l-11 -437l8 -210h-201z" />
<glyph unicode="&#xcd;" horiz-adv-x="327" d="M33 795q118 60 225 123l17 -4l49 -117l-6 -16q-132 -42 -238 -69l-17 4zM60 0l10 190l-10 457h204l-11 -437l8 -210h-201z" />
<glyph unicode="&#xce;" horiz-adv-x="327" d="M-8 797q90 62 153 119h34q63 -57 153 -119l-34 -76h-18l-118 60q-19 -10 -59 -30t-59 -30h-18zM60 0l10 190l-10 457h204l-11 -437l8 -210h-201z" />
<glyph unicode="&#xd0;" horiz-adv-x="695" d="M19 263l7 117h70l-6 267l292 4q143 0 219.5 -77.5t76.5 -223.5q0 -173 -89 -266t-255 -93q-104 0 -244 9l10 190l-1 60h-71zM283 210l2 -62q60 -8 87 -8q96 0 96 161q0 108 -23 151t-80 43q-38 0 -75 -4l-3 -111h84l9 -13l-7 -117h-89z" />
<glyph unicode="&#xd1;" horiz-adv-x="710" d="M60 0l10 190l-10 457h218l182 -346h12l-6 339l184 11l-11 -440l8 -211h-218l-182 346h-12l-1 -112l8 -234h-182zM158 757v16l81 113l16 6q26 -3 83 -18.5t70 -15.5q4 0 8 1t8.5 3t8 4t8 6.5l7 7t7.5 8.5t7 9t7.5 9.5t7.5 9.5h16l57 -55v-16l-81 -113l-16 -6 q-26 3 -83 18.5t-70 15.5q-4 0 -8 -1t-8.5 -3t-8 -4t-8 -6.5l-7 -7t-7.5 -8.5t-7 -9t-7.5 -9.5t-7.5 -9.5h-16z" />
<glyph unicode="&#xd2;" d="M17 312q0 166 84.5 256.5t239.5 90.5q141 0 218 -83.5t77 -235.5q0 -168 -84.5 -260t-239.5 -92q-141 0 -218 84.5t-77 239.5zM185 797l49 117l17 4q107 -63 225 -123l-30 -79l-17 -4q-106 27 -238 69zM227 339q0 -121 21 -162t82 -41q57 0 76.5 32.5t19.5 128.5 q0 120 -21 161t-82 41q-56 0 -76 -32.5t-20 -127.5z" />
<glyph unicode="&#xd3;" d="M17 312q0 166 84.5 256.5t239.5 90.5q141 0 218 -83.5t77 -235.5q0 -168 -84.5 -260t-239.5 -92q-141 0 -218 84.5t-77 239.5zM198 795q118 60 225 123l17 -4l49 -117l-6 -16q-132 -42 -238 -69l-17 4zM227 339q0 -121 21 -162t82 -41q57 0 76.5 32.5t19.5 128.5 q0 120 -21 161t-82 41q-56 0 -76 -32.5t-20 -127.5z" />
<glyph unicode="&#xd4;" d="M17 312q0 166 84.5 256.5t239.5 90.5q141 0 218 -83.5t77 -235.5q0 -168 -84.5 -260t-239.5 -92q-141 0 -218 84.5t-77 239.5zM157 797q90 62 153 119h34q63 -57 153 -119l-34 -76h-18l-118 60q-20 -10 -59 -30t-59 -30h-18zM227 339q0 -121 21 -162t82 -41 q57 0 76.5 32.5t19.5 128.5q0 120 -21 161t-82 41q-56 0 -76 -32.5t-20 -127.5z" />
<glyph unicode="&#xd5;" d="M17 312q0 166 84.5 256.5t239.5 90.5q141 0 218 -83.5t77 -235.5q0 -168 -84.5 -260t-239.5 -92q-141 0 -218 84.5t-77 239.5zM130 757v16l81 113l16 6q26 -3 83 -18.5t70 -15.5q4 0 8 1t8.5 3t8 4t8 6.5l7 7t7.5 8.5t7 9t7.5 9.5t7.5 9.5h16l57 -55v-16l-81 -113l-16 -6 q-26 3 -83 18.5t-70 15.5q-4 0 -8 -1t-8.5 -3t-8 -4t-8 -6.5l-7 -7t-7.5 -8.5t-7 -9t-7.5 -9.5t-7.5 -9.5h-16zM227 339q0 -121 21 -162t82 -41q57 0 76.5 32.5t19.5 128.5q0 120 -21 161t-82 41q-56 0 -76 -32.5t-20 -127.5z" />
<glyph unicode="&#xd7;" horiz-adv-x="480" d="M44 132v17l105 106l-105 105v18l89 76l108 -107l107 107l89 -76l1 -18l-105 -105l104 -105v-18l-89 -76l-107 107l-108 -108z" />
<glyph unicode="&#xd8;" d="M17 312q0 166 84.5 256.5t239.5 90.5q37 0 72 -6l62 126l120 -46l12 -19l-62 -124q91 -85 91 -250q0 -168 -84.5 -260t-239.5 -92q-29 0 -61 5l-64 -132l-124 47l-8 17l62 126q-100 85 -100 261zM227 339q0 -121 21 -162t82 -41q57 0 76.5 32.5t19.5 128.5q0 120 -21 161 t-82 41q-56 0 -76 -32.5t-20 -127.5z" />
<glyph unicode="&#xd9;" d="M46 647h201l-9 -404q-1 -51 19.5 -74t66.5 -23q47 0 68 23t20 74l-9 404h204l-7 -328l-1 -103q-1 -110 -74 -169t-209 -59q-131 0 -200.5 59t-66.5 169l3 103zM185 797l49 117l17 4q107 -63 225 -123l-30 -79l-17 -4q-106 27 -238 69z" />
<glyph unicode="&#xda;" d="M46 647h201l-9 -404q-1 -51 19.5 -74t66.5 -23q47 0 68 23t20 74l-9 404h204l-7 -328l-1 -103q-1 -110 -74 -169t-209 -59q-131 0 -200.5 59t-66.5 169l3 103zM198 795q118 60 225 123l17 -4l49 -117l-6 -16q-132 -42 -238 -69l-17 4z" />
<glyph unicode="&#xdb;" d="M46 647h201l-9 -404q-1 -51 19.5 -74t66.5 -23q47 0 68 23t20 74l-9 404h204l-7 -328l-1 -103q-1 -110 -74 -169t-209 -59q-131 0 -200.5 59t-66.5 169l3 103zM157 797q90 62 153 119h34q63 -57 153 -119l-34 -76h-18l-118 60q-20 -10 -59 -30t-59 -30h-18z" />
<glyph unicode="&#xdc;" d="M46 647h201l-9 -404q-1 -51 19.5 -74t66.5 -23q47 0 68 23t20 74l-9 404h204l-7 -328l-1 -103q-1 -110 -74 -169t-209 -59q-131 0 -200.5 59t-66.5 169l3 103zM146 802q0 42 24 66t65 24q38 0 59.5 -21.5t21.5 -60.5q0 -42 -23.5 -66.5t-64.5 -24.5q-40 0 -61 21.5 t-21 61.5zM339 802q0 42 24 66t65 24q38 0 59.5 -21.5t21.5 -60.5q0 -42 -23.5 -66.5t-64.5 -24.5q-40 0 -61 21.5t-21 61.5z" />
<glyph unicode="&#xde;" horiz-adv-x="602" d="M60 0l10 190l-8 364l-2 3h2l-2 90h206l-2 -89h109q112 0 170.5 -52t58.5 -156q0 -119 -76.5 -184.5t-217.5 -65.5l-49 -1l4 -99h-203zM256 244l80 -4q27 15 40 36t13 58q0 44 -20.5 63t-67.5 21l-41 -3z" />
<glyph unicode="&#xdf;" horiz-adv-x="659" d="M15 364l8 103h62v5q0 109 75 170.5t197 61.5q105 0 158.5 -44t53.5 -111q0 -32 -12.5 -59t-28 -42.5t-28 -33.5t-12.5 -35q0 -21 18 -37.5t44 -31t52.5 -32t44.5 -48.5t18 -73q0 -71 -51 -120t-155 -49q-77 0 -156 26l23 143l16 12q33 -29 72 -46t65 -17q24 0 24 16 q0 12 -13 24t-33 22t-42.5 25.5t-42.5 34t-33 48.5t-13 66q0 35 12.5 61.5t28 39.5t28 32t12.5 42q0 52 -62 52q-71 0 -72 -72l-5 -287l8 -210h-195l9 190l-3 164h-67z" />
<glyph unicode="&#xe0;" horiz-adv-x="503" d="M15 145q0 111 115 127l142 19v12q0 26 -10.5 37t-36.5 11q-56 0 -145 -48l-12 8l-21 123q97 50 211 50q92 0 142 -37.5t50 -107.5q0 -17 -4 -98t-4 -93q0 -21 14 -21q6 0 17 3l12 -10l-17 -100q-37 -26 -93 -30q-61 5 -86 71h-7q-44 -51 -100 -72q-76 1 -121.5 42.5 t-45.5 113.5zM103 647l69 107l17 1q99 -85 201 -161l-44 -72l-17 -1q-81 37 -223 109zM188 162q0 -40 37 -40q24 0 47 16v68l-57 -8q-27 -4 -27 -36z" />
<glyph unicode="&#xe1;" horiz-adv-x="503" d="M15 145q0 111 115 127l142 19v12q0 26 -10.5 37t-36.5 11q-56 0 -145 -48l-12 8l-21 123q97 50 211 50q92 0 142 -37.5t50 -107.5q0 -17 -4 -98t-4 -93q0 -21 14 -21q6 0 17 3l12 -10l-17 -100q-37 -26 -93 -30q-61 5 -86 71h-7q-44 -51 -100 -72q-76 1 -121.5 42.5 t-45.5 113.5zM122 594q102 76 201 161l17 -1l69 -107l-3 -17q-142 -72 -223 -109l-17 1zM188 162q0 -40 37 -40q24 0 47 16v68l-57 -8q-27 -4 -27 -36z" />
<glyph unicode="&#xe2;" horiz-adv-x="503" d="M15 145q0 111 115 127l142 19v12q0 26 -10.5 37t-36.5 11q-56 0 -145 -48l-12 8l-21 123q97 50 211 50q92 0 142 -37.5t50 -107.5q0 -17 -4 -98t-4 -93q0 -21 14 -21q6 0 17 3l12 -10l-17 -100q-37 -26 -93 -30q-61 5 -86 71h-7q-44 -51 -100 -72q-76 1 -121.5 42.5 t-45.5 113.5zM66 602q69 58 163 150h34q70 -70 163 -150l-47 -72h-18q-76 48 -115 78q-39 -30 -115 -78h-18zM188 162q0 -40 37 -40q24 0 47 16v68l-57 -8q-27 -4 -27 -36z" />
<glyph unicode="&#xe3;" horiz-adv-x="503" d="M15 145q0 111 115 127l142 19v12q0 26 -10.5 37t-36.5 11q-56 0 -145 -48l-12 8l-21 123q97 50 211 50q92 0 142 -37.5t50 -107.5q0 -17 -4 -98t-4 -93q0 -21 14 -21q6 0 17 3l12 -10l-17 -100q-37 -26 -93 -30q-61 5 -86 71h-7q-44 -51 -100 -72q-76 1 -121.5 42.5 t-45.5 113.5zM49 582v16l81 113l16 6q26 -3 83 -18.5t70 -15.5q4 0 8 1t8.5 3t8 4t8 6.5l7 7t7.5 8.5t7 9t7.5 9.5t7.5 9.5h16l57 -55v-16l-81 -113l-16 -6q-26 3 -83 18.5t-70 15.5q-4 0 -8 -1t-8.5 -3t-8 -4t-8 -6.5l-7 -7t-7.5 -8.5t-7 -9t-7.5 -9.5t-7.5 -9.5h-16z M188 162q0 -40 37 -40q24 0 47 16v68l-57 -8q-27 -4 -27 -36z" />
<glyph unicode="&#xe4;" horiz-adv-x="503" d="M15 145q0 111 115 127l142 19v12q0 26 -10.5 37t-36.5 11q-56 0 -145 -48l-12 8l-21 123q97 50 211 50q92 0 142 -37.5t50 -107.5q0 -17 -4 -98t-4 -93q0 -21 14 -21q6 0 17 3l12 -10l-17 -100q-37 -26 -93 -30q-61 5 -86 71h-7q-44 -51 -100 -72q-76 1 -121.5 42.5 t-45.5 113.5zM65 627q0 42 24 66t65 24q38 0 59.5 -21.5t21.5 -60.5q0 -42 -23.5 -66.5t-64.5 -24.5q-40 0 -61 21.5t-21 61.5zM188 162q0 -40 37 -40q24 0 47 16v68l-57 -8q-27 -4 -27 -36zM258 627q0 42 24 66t65 24q38 0 59.5 -21.5t21.5 -60.5q0 -42 -23.5 -66.5 t-64.5 -24.5q-40 0 -61 21.5t-21 61.5z" />
<glyph unicode="&#xe5;" horiz-adv-x="503" d="M15 145q0 111 115 127l142 19v12q0 26 -10.5 37t-36.5 11q-56 0 -145 -48l-12 8l-21 123q97 50 211 50q92 0 142 -37.5t50 -107.5q0 -17 -4 -98t-4 -93q0 -21 14 -21q6 0 17 3l12 -10l-17 -100q-37 -26 -93 -30q-61 5 -86 71h-7q-44 -51 -100 -72q-76 1 -121.5 42.5 t-45.5 113.5zM136 645q0 111 114 111q106 0 106 -104q0 -55 -29 -84.5t-85 -29.5q-106 0 -106 107zM188 162q0 -40 37 -40q24 0 47 16v68l-57 -8q-27 -4 -27 -36zM211 648q0 -19 8 -26.5t28 -7.5q19 0 26.5 7t7.5 24q0 18 -8 25.5t-28 7.5q-19 0 -26.5 -6.5t-7.5 -23.5z" />
<glyph unicode="&#xe6;" horiz-adv-x="712" d="M15 139q0 53 29.5 89.5t85.5 40.5l137 8v26q0 26 -10 36.5t-36 10.5q-55 0 -144 -48l-12 8l-21 125q93 49 202 49q82 0 124 -35q54 34 126 34q100 0 151.5 -64.5t40.5 -177.5l-17 -22l-245 -14q5 -41 27.5 -58.5t70.5 -17.5q62 0 134 24l14 -10l-30 -134 q-68 -21 -136 -21q-125 0 -185 72q-53 -46 -112 -71q-88 1 -141 40t-53 110zM190 158q0 -35 34 -35q22 0 54 21q-6 23 -9 49l-53 -5q-26 -3 -26 -30zM423 288l97 9q4 33 -5 47t-33 13q-25 -1 -41.5 -19.5t-17.5 -49.5z" />
<glyph unicode="&#xe7;" horiz-adv-x="384" d="M14 228q0 122 64.5 189t181.5 67q68 0 122 -24l-31 -148l-14 -7q-52 21 -76 21q-61 0 -61 -77q0 -57 17.5 -83t55.5 -26q31 0 85 15l13 -11l-20 -143q-38 -10 -94 -12l-6 -31l34 -19q44 -23 44 -63q0 -37 -29.5 -60.5t-80.5 -23.5q-49 0 -92 24l11 75l8 3q33 -28 60 -28 q16 0 16 14q0 9 -12 15l-50 27l14 71q-77 15 -118.5 75.5t-41.5 159.5z" />
<glyph unicode="&#xe8;" horiz-adv-x="493" d="M14 236q0 116 66.5 181.5t180.5 65.5q101 0 154.5 -52t53.5 -144q0 -33 -6 -65l-21 -25l-248 -2q8 -36 33.5 -52t73.5 -16q62 0 134 24l14 -10l-30 -132q-68 -21 -141 -21q-125 0 -194.5 65t-69.5 183zM109 646l69 107l17 1q99 -85 201 -161l-44 -72l-17 -1 q-81 37 -223 109zM192 287l110 6l2 13q0 53 -45 53q-55 0 -67 -72z" />
<glyph unicode="&#xe9;" horiz-adv-x="493" d="M14 236q0 116 66.5 181.5t180.5 65.5q101 0 154.5 -52t53.5 -144q0 -33 -6 -65l-21 -25l-248 -2q8 -36 33.5 -52t73.5 -16q62 0 134 24l14 -10l-30 -132q-68 -21 -141 -21q-125 0 -194.5 65t-69.5 183zM128 593q102 76 201 161l17 -1l69 -107l-3 -17q-142 -72 -223 -109 l-17 1zM192 287l110 6l2 13q0 53 -45 53q-55 0 -67 -72z" />
<glyph unicode="&#xea;" horiz-adv-x="493" d="M14 236q0 116 66.5 181.5t180.5 65.5q101 0 154.5 -52t53.5 -144q0 -33 -6 -65l-21 -25l-248 -2q8 -36 33.5 -52t73.5 -16q62 0 134 24l14 -10l-30 -132q-68 -21 -141 -21q-125 0 -194.5 65t-69.5 183zM72 601q69 58 163 150h34q70 -70 163 -150l-47 -72h-18 q-76 48 -115 78q-39 -30 -115 -78h-18zM192 287l110 6l2 13q0 53 -45 53q-55 0 -67 -72z" />
<glyph unicode="&#xeb;" horiz-adv-x="493" d="M14 236q0 116 66.5 181.5t180.5 65.5q101 0 154.5 -52t53.5 -144q0 -33 -6 -65l-21 -25l-248 -2q8 -36 33.5 -52t73.5 -16q62 0 134 24l14 -10l-30 -132q-68 -21 -141 -21q-125 0 -194.5 65t-69.5 183zM71 626q0 42 24 66t65 24q38 0 59.5 -21.5t21.5 -60.5 q0 -42 -23.5 -66.5t-64.5 -24.5q-40 0 -61 21.5t-21 61.5zM192 287l110 6l2 13q0 53 -45 53q-55 0 -67 -72zM264 626q0 42 24 66t65 24q38 0 59.5 -21.5t21.5 -60.5q0 -42 -23.5 -66.5t-64.5 -24.5q-40 0 -61 21.5t-21 61.5z" />
<glyph unicode="&#xec;" horiz-adv-x="272" d="M-5 647l69 107l17 1q99 -85 201 -161l-44 -72l-17 -1q-81 37 -223 109zM38 0l9 190l-7 271l194 13l-9 -264l8 -210h-195z" />
<glyph unicode="&#xed;" horiz-adv-x="272" d="M15 594q102 76 201 161l17 -1l69 -107l-3 -17q-142 -72 -223 -109l-17 1zM38 0l9 190l-7 271l194 13l-9 -264l8 -210h-195z" />
<glyph unicode="&#xee;" horiz-adv-x="272" d="M-41 602q69 58 163 150h34q70 -70 163 -150l-47 -72h-18q-76 48 -115 78q-39 -30 -115 -78h-18zM38 0l9 190l-7 271l194 13l-9 -264l8 -210h-195z" />
<glyph unicode="&#xf0;" horiz-adv-x="507" d="M21 223q0 116 56 176t166 60h2q-23 28 -56 52l-111 -72l-15 5l-39 70l78 50q-20 11 -69 34v22l127 92h11q43 -24 81 -51l100 64l16 -4l38 -71l-79 -51q157 -147 157 -349q0 -127 -62.5 -194.5t-178.5 -67.5q-107 0 -164.5 59t-57.5 176zM200 225q0 -68 12 -90.5t44 -22.5 q30 0 39.5 22.5t9.5 92.5q0 53 -4 88q-19 11 -46 11q-33 0 -44 -19t-11 -82z" />
<glyph unicode="&#xf1;" horiz-adv-x="542" d="M38 0l9 190l-7 271l185 13v-70h7q52 52 117 74q75 0 114.5 -34t37.5 -98l-4 -136l7 -210h-195l10 264q0 61 -47 61q-23 0 -47 -14v-101l8 -210h-195zM93 582v16l81 113l16 6q26 -3 83 -18.5t70 -15.5q4 0 8 1t8.5 3t8 4t8 6.5l7 7t7.5 8.5t7 9t7.5 9.5t7.5 9.5h16l57 -55 v-16l-81 -113l-16 -6q-26 3 -83 18.5t-70 15.5q-4 0 -8 -1t-8.5 -3t-8 -4t-8 -6.5l-7 -7t-7.5 -8.5t-7 -9t-7.5 -9.5t-7.5 -9.5h-16z" />
<glyph unicode="&#xf2;" horiz-adv-x="497" d="M14 223q0 129 61.5 195t181.5 66q112 0 169 -60t57 -177q0 -128 -61.5 -193.5t-181.5 -65.5q-226 0 -226 235zM108 647l69 107l17 1q99 -85 201 -161l-44 -72l-17 -1q-81 37 -223 109zM196 257q0 -88 11 -115.5t47 -27.5q28 0 37 18.5t9 78.5q0 87 -11 114.5t-46 27.5 q-29 0 -38 -18.5t-9 -77.5z" />
<glyph unicode="&#xf3;" horiz-adv-x="497" d="M14 223q0 129 61.5 195t181.5 66q112 0 169 -60t57 -177q0 -128 -61.5 -193.5t-181.5 -65.5q-226 0 -226 235zM127 594q102 76 201 161l17 -1l69 -107l-3 -17q-142 -72 -223 -109l-17 1zM196 257q0 -88 11 -115.5t47 -27.5q28 0 37 18.5t9 78.5q0 87 -11 114.5t-46 27.5 q-29 0 -38 -18.5t-9 -77.5z" />
<glyph unicode="&#xf4;" horiz-adv-x="497" d="M14 223q0 129 61.5 195t181.5 66q112 0 169 -60t57 -177q0 -128 -61.5 -193.5t-181.5 -65.5q-226 0 -226 235zM71 602q69 58 163 150h34q70 -70 163 -150l-47 -72h-18q-76 48 -115 78q-39 -30 -115 -78h-18zM196 257q0 -88 11 -115.5t47 -27.5q28 0 37 18.5t9 78.5 q0 87 -11 114.5t-46 27.5q-29 0 -38 -18.5t-9 -77.5z" />
<glyph unicode="&#xf5;" horiz-adv-x="497" d="M14 223q0 129 61.5 195t181.5 66q112 0 169 -60t57 -177q0 -128 -61.5 -193.5t-181.5 -65.5q-226 0 -226 235zM54 582v16l81 113l16 6q26 -3 83 -18.5t70 -15.5q4 0 8 1t8.5 3t8 4t8 6.5l7 7t7.5 8.5t7 9t7.5 9.5t7.5 9.5h16l57 -55v-16l-81 -113l-16 -6q-26 3 -83 18.5 t-70 15.5q-4 0 -8 -1t-8.5 -3t-8 -4t-8 -6.5l-7 -7t-7.5 -8.5t-7 -9t-7.5 -9.5t-7.5 -9.5h-16zM196 257q0 -88 11 -115.5t47 -27.5q28 0 37 18.5t9 78.5q0 87 -11 114.5t-46 27.5q-29 0 -38 -18.5t-9 -77.5z" />
<glyph unicode="&#xf7;" horiz-adv-x="480" d="M15 203l9 117h430l12 -13l-9 -117h-430zM170 87q0 40 22.5 62.5t61.5 22.5q36 0 56 -20t20 -57q0 -40 -22.5 -62.5t-60.5 -22.5q-77 0 -77 77zM170 412q0 40 22.5 62.5t61.5 22.5q36 0 56 -20t20 -57q0 -40 -22.5 -62.5t-60.5 -22.5q-77 0 -77 77z" />
<glyph unicode="&#xf8;" horiz-adv-x="497" d="M-13 -63l74 122q-47 59 -47 164q0 129 61.5 195t181.5 66q30 0 60 -5l71 115l105 -55l9 -17l-67 -109q48 -58 48 -166q0 -128 -61.5 -193.5t-181.5 -65.5q-29 0 -61 5l-78 -128l-110 56zM196 257q0 -88 11 -115.5t47 -27.5q28 0 37 18.5t9 78.5q0 87 -11 114.5t-46 27.5 q-29 0 -38 -18.5t-9 -77.5z" />
<glyph unicode="&#xf9;" horiz-adv-x="535" d="M38 461l185 13v-271q0 -55 41 -55q23 0 43 15v298l185 13l-11 -326q0 -21 14 -21q7 0 17 3l12 -10l-17 -100q-37 -26 -93 -30q-65 6 -91 84h-12q-55 -61 -115 -80q-74 0 -114.5 34t-40.5 98l3 103zM120 647l69 107l17 1q99 -85 201 -161l-44 -72l-17 -1q-81 37 -223 109z " />
<glyph unicode="&#xfa;" horiz-adv-x="535" d="M38 461l185 13v-271q0 -55 41 -55q23 0 43 15v298l185 13l-11 -326q0 -21 14 -21q7 0 17 3l12 -10l-17 -100q-37 -26 -93 -30q-65 6 -91 84h-12q-55 -61 -115 -80q-74 0 -114.5 34t-40.5 98l3 103zM139 594q102 76 201 161l17 -1l69 -107l-3 -17q-142 -72 -223 -109 l-17 1z" />
<glyph unicode="&#xfb;" horiz-adv-x="535" d="M38 461l185 13v-271q0 -55 41 -55q23 0 43 15v298l185 13l-11 -326q0 -21 14 -21q7 0 17 3l12 -10l-17 -100q-37 -26 -93 -30q-65 6 -91 84h-12q-55 -61 -115 -80q-74 0 -114.5 34t-40.5 98l3 103zM83 602q69 58 163 150h34q70 -70 163 -150l-47 -72h-18q-76 48 -115 78 q-39 -30 -115 -78h-18z" />
<glyph unicode="&#xfc;" horiz-adv-x="535" d="M38 461l185 13v-271q0 -55 41 -55q23 0 43 15v298l185 13l-11 -326q0 -21 14 -21q7 0 17 3l12 -10l-17 -100q-37 -26 -93 -30q-65 6 -91 84h-12q-55 -61 -115 -80q-74 0 -114.5 34t-40.5 98l3 103zM82 627q0 42 24 66t65 24q38 0 59.5 -21.5t21.5 -60.5 q0 -42 -23.5 -66.5t-64.5 -24.5q-40 0 -61 21.5t-21 61.5zM275 627q0 42 24 66t65 24q38 0 59.5 -21.5t21.5 -60.5q0 -42 -23.5 -66.5t-64.5 -24.5q-40 0 -61 21.5t-21 61.5z" />
<glyph unicode="&#xfe;" horiz-adv-x="533" d="M43 689l194 13l-6 -298h5q42 50 96 75q88 0 137.5 -61.5t49.5 -169.5q0 -126 -65 -193t-178 -67q-21 0 -45 3l3 -176h-190l6 375zM228 215l2 -102q20 -5 33 -5q36 0 54.5 25.5t18.5 88.5q0 103 -66 103q-19 0 -40 -12z" />
<glyph unicode="&#xff;" horiz-adv-x="471" d="M-18 -76l7 17q92 14 170 59l-171 469l186 7l16 -90l51 -197h10l47 179l19 104h164l-138 -423q-34 -102 -91 -155t-172 -88l-13 2q-50 47 -85 116zM61 627q0 42 24 66t65 24q38 0 59.5 -21.5t21.5 -60.5q0 -42 -23.5 -66.5t-64.5 -24.5q-40 0 -61 21.5t-21 61.5zM254 627 q0 42 24 66t65 24q38 0 59.5 -21.5t21.5 -60.5q0 -42 -23.5 -66.5t-64.5 -24.5q-40 0 -61 21.5t-21 61.5z" />
<glyph unicode="&#x152;" horiz-adv-x="889" d="M17 313q0 164 87.5 255t243.5 91q42 0 108.5 -6t93.5 -6h322l11 -14l-13 -146l-159 6h-103l-2 -91h99l104 3l11 -14l-12 -146l-116 3h-91v-38l2 -56h96l166 6l11 -14l-12 -146h-314q-33 2 -110.5 -5t-117.5 -7q-146 0 -225.5 85t-79.5 240zM227 330q0 -108 24 -151 t87 -43q50 0 65.5 12.5t13.5 56.5l-5 229q-1 38 -11 49q-15 16 -70 16q-62 0 -83 -35.5t-21 -133.5z" />
<glyph unicode="&#x153;" horiz-adv-x="764" d="M14 228q0 125 61 190t174 65q90 0 138 -52q55 52 144 52q101 0 154.5 -52t53.5 -144q0 -33 -6 -65l-21 -25l-248 -2q8 -36 33.5 -52t73.5 -16q62 0 134 24l14 -10l-30 -132q-68 -21 -141 -21q-103 0 -164 59q-53 -59 -150 -59q-108 0 -164 60.5t-56 179.5zM196 257 q0 -88 11 -115.5t47 -27.5q28 0 37 18.5t9 78.5q0 87 -11 114.5t-46 27.5q-29 0 -38 -18.5t-9 -77.5zM462 285l110 6l2 15q0 53 -45 53q-55 0 -67 -74z" />
<glyph unicode="&#x178;" horiz-adv-x="594" d="M-8 647h210q11 -39 26 -80.5t34 -90.5t29 -78h12l84 188l23 61h204l-230 -439l-2 -38l8 -170h-200l10 170l-1 31zM116 802q0 42 24 66t65 24q38 0 59.5 -21.5t21.5 -60.5q0 -42 -23.5 -66.5t-64.5 -24.5q-40 0 -61 21.5t-21 61.5zM309 802q0 42 24 66t65 24 q38 0 59.5 -21.5t21.5 -60.5q0 -42 -23.5 -66.5t-64.5 -24.5q-40 0 -61 21.5t-21 61.5z" />
<glyph unicode="&#x2c6;" horiz-adv-x="388" d="M13 602q69 58 163 150h34q70 -70 163 -150l-47 -72h-18q-76 48 -115 78q-39 -30 -115 -78h-18z" />
<glyph unicode="&#x2dc;" horiz-adv-x="388" d="M-3 582v16l81 113l16 6q26 -3 83 -18.5t70 -15.5q4 0 8 1t8.5 3t8 4t8 6.5l7 7t7.5 8.5t7 9t7.5 9.5t7.5 9.5h16l57 -55v-16l-81 -113l-16 -6q-26 3 -83 18.5t-70 15.5q-4 0 -8 -1t-8.5 -3t-8 -4t-8 -6.5l-7 -7t-7.5 -8.5t-7 -9t-7.5 -9.5t-7.5 -9.5h-16z" />
<glyph unicode="&#x2000;" horiz-adv-x="465" />
<glyph unicode="&#x2001;" horiz-adv-x="931" />
<glyph unicode="&#x2002;" horiz-adv-x="465" />
<glyph unicode="&#x2003;" horiz-adv-x="931" />
<glyph unicode="&#x2004;" horiz-adv-x="310" />
<glyph unicode="&#x2005;" horiz-adv-x="232" />
<glyph unicode="&#x2006;" horiz-adv-x="155" />
<glyph unicode="&#x2007;" horiz-adv-x="155" />
<glyph unicode="&#x2008;" horiz-adv-x="116" />
<glyph unicode="&#x2009;" horiz-adv-x="186" />
<glyph unicode="&#x200a;" horiz-adv-x="51" />
<glyph unicode="&#x2010;" horiz-adv-x="299" d="M25 182v120l234 38l14 -14l1 -120l-235 -38z" />
<glyph unicode="&#x2011;" horiz-adv-x="299" d="M25 182v120l234 38l14 -14l1 -120l-235 -38z" />
<glyph unicode="&#x2012;" horiz-adv-x="299" d="M25 182v120l234 38l14 -14l1 -120l-235 -38z" />
<glyph unicode="&#x2013;" horiz-adv-x="451" d="M-15 208l9 117h460l12 -13l-9 -117h-460z" />
<glyph unicode="&#x2014;" horiz-adv-x="841" d="M-19 208l9 117h858l12 -13l-9 -117h-858z" />
<glyph unicode="&#x2018;" horiz-adv-x="253" d="M35 458q0 95 114 200l65 -42l3 -12q-39 -44 -39 -88q0 -56 42 -88v-15q-66 -49 -125 -71q-60 40 -60 116z" />
<glyph unicode="&#x2019;" horiz-adv-x="253" d="M34 573v15q66 49 125 71q60 -40 60 -116q0 -95 -114 -200l-65 42l-3 12q39 43 39 88q0 57 -42 88z" />
<glyph unicode="&#x201a;" horiz-adv-x="228" d="M-11 -75q56 49 56 109q0 42 -33 75l1 16q72 40 143 58q48 -45 48 -106q0 -114 -152 -219l-61 53z" />
<glyph unicode="&#x201c;" horiz-adv-x="458" d="M35 458q0 95 114 200l65 -42l3 -12q-39 -44 -39 -88q0 -56 42 -88v-15q-66 -49 -125 -71q-60 40 -60 116zM240 458q0 95 114 200l65 -42l3 -12q-39 -44 -39 -88q0 -56 42 -88v-15q-66 -49 -125 -71q-60 40 -60 116z" />
<glyph unicode="&#x201d;" horiz-adv-x="448" d="M34 573v15q66 49 125 71q60 -40 60 -116q0 -95 -114 -200l-65 42l-3 12q39 43 39 88q0 57 -42 88zM229 573v15q66 49 125 71q60 -40 60 -116q0 -95 -114 -200l-65 42l-3 12q39 43 39 88q0 57 -42 88z" />
<glyph unicode="&#x201e;" horiz-adv-x="433" d="M-11 -75q56 49 56 109q0 42 -33 75l1 16q72 40 143 58q48 -45 48 -106q0 -114 -152 -219l-61 53zM194 -75q56 49 56 109q0 42 -33 75l1 16q72 40 143 58q48 -45 48 -106q0 -114 -152 -219l-61 53z" />
<glyph unicode="&#x2022;" horiz-adv-x="302" d="M16 254q0 66 38 104.5t103 38.5q61 0 94.5 -34.5t33.5 -96.5q0 -66 -37.5 -104.5t-101.5 -38.5q-63 0 -96.5 33.5t-33.5 97.5z" />
<glyph unicode="&#x2026;" horiz-adv-x="688" d="M11 86q0 48 27.5 76t74.5 28q44 0 68.5 -25t24.5 -70q0 -48 -27 -76t-74 -28q-46 0 -70 24.5t-24 70.5zM241 86q0 48 27.5 76t74.5 28q44 0 68.5 -25t24.5 -70q0 -48 -27 -76t-74 -28q-46 0 -70 24.5t-24 70.5zM471 86q0 48 27.5 76t74.5 28q44 0 68.5 -25t24.5 -70 q0 -48 -27 -76t-74 -28q-46 0 -70 24.5t-24 70.5z" />
<glyph unicode="&#x202f;" horiz-adv-x="186" />
<glyph unicode="&#x2039;" horiz-adv-x="260" d="M23 214v27l125 184l91 -47l4 -17l-80 -131l80 -130l-4 -17l-91 -47z" />
<glyph unicode="&#x203a;" horiz-adv-x="260" d="M22 103l80 131l-80 130l4 17l91 47l125 -178v-27l-125 -184l-91 47z" />
<glyph unicode="&#x205f;" horiz-adv-x="232" />
<glyph unicode="&#x20ac;" horiz-adv-x="447" d="M-4 171l5 74h358l7 -9l-5 -73h-91q19 -25 60 -25q43 0 91 13l14 -9l-14 -143q-36 -8 -102 -8q-217 0 -257 172h-60zM-4 279l5 72h68q25 82 91 126.5t166 44.5q62 0 125 -17l-30 -144l-11 -8q-45 21 -91 21q-38 0 -54 -23h94l7 -7l-5 -75h-359z" />
<glyph unicode="&#x2122;" horiz-adv-x="598" d="M20 578l5 67h199l5 -6l-5 -68l-55 3l-2 -91l4 -79h-93l5 70l-2 100l-55 -3zM249 404l25 241h109q3 -19 19 -99h6l15 61l8 38h108l19 -241h-83l-1 73l-2 34h-5l-33 -87h-70l-25 87h-5l-3 -25l-3 -82h-79z" />
<glyph unicode="&#x25fc;" horiz-adv-x="475" d="M0 0v475h475v-475h-475z" />
</font>
</defs>
</svg>
