<?xml version="1.0" standalone="no"?>
<!DOCTYPE svg PUBLIC "-//W3C//DTD SVG 1.1//EN" "http://www.w3.org/Graphics/SVG/1.1/DTD/svg11.dtd" >
<svg xmlns="http://www.w3.org/2000/svg">
<metadata></metadata>
<defs>
<font id="alegreya_sanslight" horiz-adv-x="480" >
<font-face units-per-em="1000" ascent="800" descent="-200" />
<missing-glyph horiz-adv-x="172" />
<glyph unicode="&#xa8;I" horiz-adv-x="255" d="M37 784q0 34 34 34q32 0 32 -32q0 -34 -34 -34q-32 0 -32 32zM101 0l3 194l-3 445h53l-3 -442l2 -197h-52zM152 784q0 34 34 34q32 0 32 -32q0 -34 -34 -34q-32 0 -32 32z" />
<glyph unicode="&#xa8;O" horiz-adv-x="631" d="M43 316q0 158 72.5 243.5t207.5 85.5q128 0 197 -81.5t69 -232.5q0 -163 -72.5 -250t-207.5 -87q-128 0 -197 83.5t-69 238.5zM95 321q0 -139 55 -211t161 -72q110 0 167 72.5t57 213.5q0 136 -55 206t-162 70q-110 0 -166.5 -71t-56.5 -208zM209 784q0 34 34 34 q32 0 32 -32q0 -34 -34 -34q-32 0 -32 32zM358 784q0 34 34 34q32 0 32 -32q0 -34 -34 -34q-32 0 -32 32z" />
<glyph unicode="&#xb4;Y" horiz-adv-x="512" d="M20 639h58l12 -31l155 -310h7l170 309l12 32h58l-220 -404l-1 -44l2 -191h-52l3 191l-1 45zM175 752q109 53 185 99l7 -2l14 -30l-2 -7q-85 -44 -185 -89l-8 3z" />
<glyph unicode="&#xa8;i" horiz-adv-x="231" d="M26 600q0 34 34 34q32 0 32 -32q0 -34 -34 -34q-32 0 -32 32zM89 0l3 195l-3 256l52 6l-4 -259l3 -198h-51zM141 600q0 34 34 34q32 0 32 -32q0 -34 -34 -34q-32 0 -32 32z" />
<glyph unicode="&#xa8;o" horiz-adv-x="489" d="M49 222q0 113 53 176.5t147 63.5q89 0 139.5 -60.5t50.5 -168.5q0 -113 -53 -176t-147 -63q-90 0 -140 60.5t-50 167.5zM98 232q0 -96 37.5 -147.5t106.5 -51.5q71 0 109.5 49.5t38.5 140.5q0 96 -38 148t-106 52q-70 0 -109 -50t-39 -141zM137 600q0 34 34 34 q32 0 32 -32q0 -34 -34 -34q-32 0 -32 32zM286 600q0 34 34 34q32 0 32 -32q0 -34 -34 -34q-32 0 -32 32z" />
<glyph unicode="&#xb4;y" horiz-adv-x="416" d="M-19 -158l1 8q82 16 125 47.5t75 102.5l-167 453l50 5l15 -53l124 -341h6l127 337l15 54h50l-170 -446q-35 -93 -83 -136t-138 -63h-7q-14 14 -23 32zM149 543q77 63 156 141l6 -1l21 -27l-1 -7q-48 -41 -158 -131l-7 1z" />
<glyph unicode="&#xfb01;" horiz-adv-x="532" d="M41 422l4 32h67v75q0 91 42 133.5t132 42.5q61 0 126 -22l-8 -44l-8 -2q-57 27 -115 27q-62 0 -90.5 -30.5t-28.5 -96.5l-1 -83h254l30 5l5 -3l-3 -264l3 -192h-52l3 189l-2 228h-238l-2 -224l3 -193h-51l3 189l-1 228h-68z" />
<glyph unicode="&#xfb02;" horiz-adv-x="541" d="M41 422l4 32h68l-1 89q-1 83 44.5 126t131.5 43q52 0 117 -14l43 4l-4 -504l3 -198h-51l3 195l-3 457q-60 19 -109 19q-125 0 -126 -122l-1 -95h124l3 -5l-4 -32h-123l-1 -222l3 -195h-51l3 192l-1 225h-68z" />
<glyph horiz-adv-x="1000" />
<glyph horiz-adv-x="1000" />
<glyph unicode="&#xd;" horiz-adv-x="1000" />
<glyph unicode=" "  horiz-adv-x="172" />
<glyph unicode="&#x09;" horiz-adv-x="172" />
<glyph unicode="&#xa0;" horiz-adv-x="172" />
<glyph unicode="!" horiz-adv-x="252" d="M83 30q0 16 9 25.5t25 9.5q33 0 33 -33q0 -35 -34 -35q-33 0 -33 33zM106 213l4 436l5 6l39 2l7 -6l-16 -442l-33 -3z" />
<glyph unicode="&#x22;" horiz-adv-x="253" d="M50 468l8 165l40 4l5 -6l-19 -164l-29 -4zM156 468l8 165l40 4l5 -6l-18 -164l-30 -4z" />
<glyph unicode="#" horiz-adv-x="499" d="M20 216l3 31h114l28 122h-104l-4 5l3 31h114l40 170h32l4 -7l-39 -163h114l40 170h32l4 -7l-39 -163h112l5 -5l-4 -31h-121l-29 -122h113l4 -5l-3 -30h-122l-43 -180h-32l-4 5l41 175h-113l-43 -180h-33l-3 5l41 175h-104zM174 247h114l28 122h-113z" />
<glyph unicode="$" horiz-adv-x="426" d="M54 31l5 45l7 3q48 -41 114 -46l17 200q-31 14 -48.5 23.5t-39.5 26t-32 37.5t-10 47q0 53 42 90t110 40l11 144h29l6 -6l-11 -139q44 -3 89 -22l-8 -42l-9 -2q-37 23 -75 29l-16 -194q59 -26 91.5 -54.5t32.5 -77.5q0 -52 -40 -91t-107 -45l-11 -124h-28l-5 6l9 117 q-66 3 -123 35zM110 370q0 -30 23.5 -50t67.5 -40l15 181q-48 -3 -77 -30.5t-29 -60.5zM215 33q45 6 72.5 33t27.5 60q0 31 -22 52t-62 40z" />
<glyph unicode="%" horiz-adv-x="809" d="M45 465q0 86 37 131.5t108 45.5q67 0 102.5 -44t35.5 -126q0 -87 -37 -132.5t-107 -45.5q-67 0 -103 44.5t-36 126.5zM83 469q0 -137 105 -137q50 0 76.5 34.5t26.5 99.5q0 137 -105 137q-50 0 -76.5 -34.5t-26.5 -99.5zM133 -67l478 741l23 -13l5 -11l-478 -740l-23 12z M480 168q0 85 37.5 130.5t107.5 45.5q67 0 103 -44t36 -126q0 -86 -37.5 -132t-107.5 -46q-67 0 -103 44.5t-36 127.5zM518 171q0 -137 105 -137q50 0 76.5 34.5t26.5 99.5q0 137 -105 137q-50 0 -76.5 -34.5t-26.5 -99.5z" />
<glyph unicode="&#x26;" horiz-adv-x="686" d="M69 167q0 111 115 172v4q-72 66 -72 147q0 72 47 113.5t134 41.5q82 0 155 -38l-12 -40h-10q-60 38 -133 38q-66 0 -100.5 -31t-34.5 -87q0 -68 69 -125l248 -220q17 40 17 89q0 72 -34 133h-74l-4 5l5 35h284l5 -5l-6 -35h-163l-1 -5q26 -69 26 -132q0 -64 -24 -112 l133 -118v-4q-16 -16 -31 -24l-4 1l-121 107q-63 -82 -195 -82q-98 0 -158.5 46t-60.5 126zM114 174q0 -64 49.5 -102t128.5 -38q108 0 161 70l-240 214q-99 -51 -99 -144z" />
<glyph unicode="'" horiz-adv-x="147" d="M50 468l8 165l40 4l5 -6l-19 -164l-29 -4z" />
<glyph unicode="(" horiz-adv-x="285" d="M88 258q1 154 39 247t127 158h6l19 -20v-6q-79 -60 -112.5 -146.5t-34.5 -231.5q1 -144 34.5 -230t112.5 -146v-6l-19 -19h-6q-89 64 -127 156t-39 244z" />
<glyph unicode=")" horiz-adv-x="285" d="M6 -117q79 60 112.5 146.5t34.5 232.5q-1 144 -34.5 229.5t-112.5 145.5v6l19 20h6q89 -65 127 -156.5t39 -244.5q-1 -155 -39 -247.5t-127 -156.5h-6l-19 19v6z" />
<glyph unicode="*" horiz-adv-x="369" d="M38 599q0 23 6 42l5 2l101 -54l-4 -24l-6 -2zM69 456l80 84l21 -11v-8l-62 -89q-11 3 -38 19zM167 607l2 111q18 7 41 7l3 -5l-17 -116l-24 -3zM194 525l17 16l8 -1l61 -91q-8 -13 -29 -30l-6 1zM213 586l3 6l102 33q13 -18 19 -38l-3 -3l-111 -20z" />
<glyph unicode="+" d="M35 252l3 35h182v182l35 4l5 -5v-181h180l5 -5l-3 -34h-182v-183l-35 -3l-5 5v181h-181z" />
<glyph unicode="," horiz-adv-x="230" d="M60 -84q55 41 55 83q0 24 -31 41v6q16 13 36 20q40 -24 40 -59q0 -53 -81 -114l-19 18v5z" />
<glyph unicode="-" horiz-adv-x="309" d="M30 223v35l243 33l6 -5v-35l-243 -34z" />
<glyph unicode="." horiz-adv-x="230" d="M81 30q0 16 9 25.5t25 9.5q33 0 33 -33q0 -35 -34 -35q-33 0 -33 33z" />
<glyph unicode="/" horiz-adv-x="289" d="M34 -106l204 782h37l5 -6l-205 -781h-37z" />
<glyph unicode="0" horiz-adv-x="531" d="M51 241q0 125 56.5 192t161.5 67q102 0 157 -65.5t55 -186.5q0 -122 -56.5 -187.5t-161.5 -65.5q-102 0 -157 64t-55 182zM93 245q0 -100 44.5 -152t129.5 -52q83 0 127 51.5t44 149.5q0 103 -44.5 156.5t-128.5 53.5q-83 0 -127.5 -53t-44.5 -154z" />
<glyph unicode="1" horiz-adv-x="337" d="M13 400v41l185 57l9 -7l-3 -285l2 -206h-52l3 199l-1 238l-136 -41z" />
<glyph unicode="2" horiz-adv-x="448" d="M51 1v34l139 161q109 126 109 185q0 31 -22.5 51t-62.5 20q-77 0 -139 -72h-6l-9 40q72 77 163 77q56 0 91.5 -29.5t35.5 -75.5q0 -74 -119 -214l-113 -132l2 -4h209l82 4l4 -5l-7 -43l-93 2h-223l-38 -1z" />
<glyph unicode="3" horiz-adv-x="403" d="M35 434q71 64 149 64q63 0 102.5 -34t39.5 -89q0 -44 -27 -84.5t-76 -64.5v-4q129 -30 129 -140q0 -80 -60 -130t-157 -50q-48 0 -93 8l-4 44l4 5q45 -15 95 -15q75 0 120.5 36.5t45.5 96.5q0 54 -38.5 85t-110.5 34h-53l-4 4l1 37l44 1q46 0 89 37.5t43 89.5 q0 40 -26.5 64.5t-70.5 24.5q-62 0 -128 -61h-6z" />
<glyph unicode="4" horiz-adv-x="470" d="M29 92v35l256 368h48l-1 -365h99l5 -6l-5 -38l-82 1h-17l2 -176l-4 -5l-39 -4l-4 5l2 180h-201l-54 -1zM78 130h211v295h-6z" />
<glyph unicode="5" horiz-adv-x="411" d="M37 -45l5 5q51 -16 93 -16q79 0 127 40.5t48 107.5q0 48 -35 78t-112 47l-80 16l-5 6l5 247l11 10l51 -1h136l79 2l3 -4l-5 -42l-5 -4l-58 4h-170l-5 -180l64 -14q93 -20 134 -58.5t41 -99.5q0 -88 -64.5 -143t-168.5 -55q-40 0 -84 9z" />
<glyph unicode="6" horiz-adv-x="463" d="M53 208q0 131 77.5 231.5t219.5 153.5h5l37 -24v-6q-239 -85 -283 -267l5 -5q65 51 144 51q74 0 115.5 -44t41.5 -121q0 -85 -49 -134.5t-137 -49.5q-86 0 -131 55.5t-45 159.5zM100 209q0 -178 133 -178q64 0 99.5 36.5t35.5 103.5q0 63 -32 97t-90 34q-77 0 -145 -60 q-1 -10 -1 -33z" />
<glyph unicode="7" horiz-adv-x="410" d="M25 453l4 44l78 -2h233l40 1l1 -39l-208 -457l-40 -104l-43 13l-3 9l244 532h-234l-67 -4z" />
<glyph unicode="8" horiz-adv-x="465" d="M51 144q0 101 128 156v4q-47 23 -75 55t-28 84q0 68 45.5 107.5t117.5 39.5q69 0 108.5 -36t39.5 -100q0 -94 -109 -146v-4q29 -13 47 -23t39 -27.5t31.5 -42t10.5 -56.5q0 -73 -50 -116.5t-134 -43.5q-79 0 -125 41t-46 108zM97 147q0 -51 35 -82t94 -31q62 0 98.5 32.5 t36.5 84.5q0 23 -9 41.5t-18 29.5t-33.5 25t-34.5 18t-42 18q-59 -22 -93 -52t-34 -84zM121 444q0 -47 28.5 -72.5t82.5 -47.5q51 19 81.5 48t30.5 79q0 46 -28.5 73t-78.5 27q-52 0 -84 -29t-32 -78z" />
<glyph unicode="9" horiz-adv-x="463" d="M48 319q0 85 49 134.5t137 49.5q86 0 131 -55.5t45 -159.5q0 -131 -77.5 -231.5t-219.5 -153.5h-5l-37 24v6q239 85 283 267l-5 5q-65 -51 -144 -51q-74 0 -115.5 44t-41.5 121zM95 325q0 -63 32 -97t90 -34q76 0 145 59q1 11 1 34q0 178 -133 178q-64 0 -99.5 -36.5 t-35.5 -103.5z" />
<glyph unicode=":" horiz-adv-x="230" d="M77 30q0 16 9 25.5t25 9.5q33 0 33 -33q0 -35 -34 -35q-33 0 -33 33zM77 303q0 16 9 25.5t25 9.5q33 0 33 -33q0 -35 -34 -35q-33 0 -33 33z" />
<glyph unicode=";" horiz-adv-x="230" d="M56 -84q55 41 55 83q0 24 -31 41v6q16 13 36 20q40 -24 40 -59q0 -53 -81 -114l-19 18v5zM77 303q0 16 9 25.5t25 9.5q33 0 33 -33q0 -35 -34 -35q-33 0 -33 33z" />
<glyph unicode="&#x3c;" d="M38 244v45l5 7l385 163l12 -31l-3 -6l-354 -151v-5l357 -142l-9 -32l-7 -4z" />
<glyph unicode="=" d="M35 174l3 34h402l5 -4l-3 -34h-403zM35 330l3 35h402l5 -5l-3 -34h-403z" />
<glyph unicode="&#x3e;" d="M40 124l357 142v5l-354 151l-3 6l12 31l385 -163l5 -7v-45l-386 -156l-7 4z" />
<glyph unicode="?" horiz-adv-x="327" d="M67 624l11 30l8 4q115 -8 176.5 -48.5t61.5 -107.5q0 -79 -81 -131l-89 -60l-1 -3l5 -102l-38 -4l-5 6l-6 112l5 10l98 62q65 41 65 103q0 54 -52.5 85.5t-153.5 37.5zM107 30q0 16 9 25.5t25 9.5q15 0 24 -9t9 -24q0 -35 -34 -35q-33 0 -33 33z" />
<glyph unicode="@" horiz-adv-x="816" d="M40 189q0 185 113 300t297 115q150 0 239.5 -86t89.5 -226q0 -137 -82.5 -212.5t-237.5 -83.5l33 239h-9q-83 -151 -180 -241h-13q-65 42 -65 150q0 78 25.5 146t79.5 115.5t128 55.5h4l64 -16l32 17l7 -4l-48 -350l-4 -72q110 12 169 77.5t59 176.5q0 126 -80 201.5 t-216 74.5q-164 -1 -265.5 -104t-101.5 -266q0 -164 104.5 -258.5t280.5 -94.5l2 -6l-19 -29q-184 3 -295 105.5t-111 275.5zM270 156q0 -37 6.5 -62.5t14 -34t14.5 -8.5q10 0 39.5 31.5t75.5 102.5t87 158l2 17l3 45l-61 15q-82 -1 -131.5 -78t-49.5 -186z" />
<glyph unicode="A" horiz-adv-x="567" d="M16 0l244 639h59l223 -639h-54l-14 54l-48 138l-152 2l-137 -2l-52 -136l-15 -56h-54zM155 238l125 -1l130 1l-119 341h-6z" />
<glyph unicode="B" horiz-adv-x="516" d="M101 0l3 194l-3 445l152 1q84 0 130 -39t46 -112q0 -116 -96 -155q141 -24 141 -157q0 -87 -63 -133.5t-183 -46.5q-70 0 -127 3zM151 197l2 -153q39 -3 79 -3q91 0 140.5 36t49.5 103q0 113 -140 127l-130 -1zM152 352l120 -2q104 22 104 134t-128 112h-94z" />
<glyph unicode="C" horiz-adv-x="522" d="M43 316q0 157 71.5 242.5t203.5 85.5q100 0 175 -53l-11 -47l-8 -1q-70 56 -158 56q-107 0 -163.5 -72t-56.5 -208t55 -207.5t158 -71.5q95 0 175 63l8 -3l-4 -49q-86 -57 -182 -57q-126 0 -194.5 83.5t-68.5 238.5z" />
<glyph unicode="D" horiz-adv-x="642" d="M101 0l3 194l-3 445l217 4q136 0 208.5 -78t72.5 -224q0 -167 -77 -256.5t-221 -89.5q-75 0 -200 5zM151 197l2 -152q92 -6 155 -6q115 0 176.5 75t61.5 218q0 132 -59 199.5t-172 67.5q-59 0 -161 -5z" />
<glyph unicode="E" horiz-adv-x="469" d="M101 0l3 194l-3 445h336l4 -6l-6 -41l-149 2l-132 -1l-2 -241l125 -1l107 1l4 -5l-5 -41l-231 1l-1 -110l2 -152l129 -1l157 3l4 -6l-5 -41h-337z" />
<glyph unicode="F" horiz-adv-x="423" d="M101 0l3 194l-3 445h320l5 -6l-6 -42l-143 3l-123 -1l-2 -253l117 -1l102 2l5 -6l-6 -40l-218 1l-1 -99l2 -197h-52z" />
<glyph unicode="G" horiz-adv-x="602" d="M43 310q0 161 79 247.5t225 86.5q94 0 184 -50l-12 -48l-8 -1q-90 54 -170 54q-120 0 -182.5 -72.5t-62.5 -214.5q0 -272 222 -272q66 0 158 26l1 93l-1 85l50 4l-1 -83l2 -135q-122 -35 -210 -36q-135 0 -204.5 82t-69.5 234z" />
<glyph unicode="H" horiz-adv-x="677" d="M101 0l3 194l-3 445h53l-2 -292l184 -1l189 1l-2 292h53l-2 -442l1 -197h-52l3 194l-1 107l-194 1l-179 -1l-1 -104l2 -197h-52z" />
<glyph unicode="I" horiz-adv-x="255" d="M101 0l3 194l-3 445h53l-3 -442l2 -197h-52z" />
<glyph unicode="J" horiz-adv-x="290" d="M7 600l4 39h179l-2 -427l1 -96q0 -73 -34 -121.5t-117 -94.5l-21 29v8q67 40 95 79.5t28 98.5v91l-2 389h-125z" />
<glyph unicode="K" horiz-adv-x="528" d="M100 0l3 194l-3 445h53l-2 -442l2 -197h-53zM172 337v4l231 247l41 51h63l-277 -299q143 -179 294 -329l-1 -7q-15 -6 -47 -12l-7 3q-174 184 -297 342z" />
<glyph unicode="L" horiz-adv-x="408" d="M99 0l3 194l-3 445h53l-3 -442l2 -152h248l5 -6l-6 -39h-299z" />
<glyph unicode="M" horiz-adv-x="785" d="M67 0l69 639h59q36 -100 110.5 -286.5t82.5 -206.5h5l166 403l34 90h59l65 -639h-48l-17 195l-39 354h-6l-195 -472h-47l-188 472h-6l-39 -351l-19 -198h-46z" />
<glyph unicode="N" horiz-adv-x="677" d="M101 0l3 190l-2 449h54l365 -552h5l1 549l49 4l-3 -458v-182h-53l-365 552h-6l-1 -347l2 -205h-49z" />
<glyph unicode="O" horiz-adv-x="631" d="M43 316q0 158 72.5 243.5t206.5 85.5q129 0 198 -81.5t69 -232.5q0 -162 -73 -249.5t-207 -87.5q-128 0 -197 83.5t-69 238.5zM95 321q0 -139 55 -211t162 -72q109 0 166.5 73t57.5 213q0 136 -55.5 206t-162.5 70q-110 0 -166.5 -71t-56.5 -208z" />
<glyph unicode="P" horiz-adv-x="503" d="M101 0l3 194l-3 445l170 1q91 0 140 -47.5t49 -135.5q0 -104 -59.5 -162.5t-167.5 -58.5h-82v-39l2 -197h-52zM152 282l111 -2q70 9 107 54t37 119q0 138 -142 143l-111 -2z" />
<glyph unicode="Q" horiz-adv-x="634" d="M43 316q0 158 72.5 243.5t206.5 85.5q129 0 198 -81.5t69 -234.5q0 -136 -52.5 -220t-150.5 -107q152 -117 343 -147l2 -8q-13 -24 -23 -33l-6 -1q-203 39 -367 182l-25 -1q-129 0 -198 83.5t-69 238.5zM95 319q0 -138 55.5 -209.5t162.5 -71.5q108 0 165.5 73.5 t57.5 214.5q0 135 -55.5 204.5t-162.5 69.5q-110 0 -166.5 -71t-56.5 -210z" />
<glyph unicode="R" horiz-adv-x="538" d="M101 0l3 194l-3 445l170 1q91 0 140 -46t49 -133q0 -70 -36 -121.5t-103 -77.5q75 -121 173 -250v-7q-16 -8 -45 -13l-8 4q-97 139 -164 254h-126v-53l2 -197h-52zM152 296l130 -2q125 34 125 164q0 133 -142 138l-111 -2z" />
<glyph unicode="S" horiz-adv-x="459" d="M47 40l6 53l7 3q67 -58 153 -58q65 0 105.5 38t40.5 88q0 41 -30.5 71t-74 50.5t-87.5 42.5t-74.5 59t-30.5 88q0 71 54.5 119.5t140.5 48.5q66 0 133 -30l-9 -48l-10 -3q-58 37 -120 37q-63 0 -100.5 -37t-37.5 -83q0 -39 30.5 -68t74.5 -49.5t88 -43t74.5 -60 t30.5 -88.5q0 -73 -57 -124t-145 -51q-90 0 -162 45z" />
<glyph unicode="T" horiz-adv-x="483" d="M25 599l5 40h424l5 -6l-5 -40l-107 3h-78l-3 -399l2 -197h-52l3 194l-3 402h-78l-109 -3z" />
<glyph unicode="U" horiz-adv-x="619" d="M80 232v407h51l-2 -402q-1 -96 45 -146t135 -50t135.5 49t45.5 142l-2 407h52l-1 -326v-77q2 -115 -59 -178t-174 -63q-110 0 -168.5 61t-57.5 176z" />
<glyph unicode="V" horiz-adv-x="552" d="M17 639h54l14 -55l184 -525h5l200 523l15 57h54l-244 -639h-59z" />
<glyph unicode="W" horiz-adv-x="889" d="M22 639h53l12 -53l178 -523h5l153 412l-57 164h54l14 -57l178 -519h6l195 521l14 55h51l-239 -639h-53l-140 403h-5l-150 -403h-53z" />
<glyph unicode="X" horiz-adv-x="578" d="M28 0l223 327l-212 312h64l25 -43l157 -229l155 227l25 45h59l-208 -307l225 -332h-64l-26 45l-169 246l-172 -249l-24 -42h-58z" />
<glyph unicode="Y" horiz-adv-x="512" d="M20 639h58l12 -31l156 -310h6l170 309l13 32h57l-220 -404l-1 -44l2 -191h-52l3 191l-1 45z" />
<glyph unicode="Z" horiz-adv-x="518" d="M32 -2v40l379 557h-282l-78 -5l-4 6l5 44l89 -1h289l44 1v-40l-379 -556h296l83 4l4 -5l-5 -44l-96 1h-298z" />
<glyph unicode="[" horiz-adv-x="285" d="M107 -121l2 379l-2 378l163 10l5 -4v-28l-124 -10v-693l124 -10v-28l-5 -4z" />
<glyph unicode="\" horiz-adv-x="289" d="M13 670l5 6h36l204 -782l-4 -5h-37z" />
<glyph unicode="]" horiz-adv-x="285" d="M10 -99l124 10v693l-124 10v28l5 4l163 -10l-2 -379l2 -378l-163 -10l-5 5v27z" />
<glyph unicode="^" horiz-adv-x="416" d="M23 125l163 360l7 4h45l156 -361l-4 -6l-32 -9l-142 333h-5l-151 -330l-7 -3z" />
<glyph unicode="_" horiz-adv-x="452" d="M-15 -119l3 32h475l4 -4l-3 -33h-475z" />
<glyph unicode="`" horiz-adv-x="390" d="M103 656l21 27l7 1q71 -71 156 -141l-17 -24l-7 -1q-88 70 -158 131z" />
<glyph unicode="a" horiz-adv-x="453" d="M49 113q0 81 88 101l166 39l2 81q0 43 -23 65.5t-65 22.5q-64 0 -140 -65l-6 3l-8 37q82 65 161 65q61 0 95 -31t34 -86q0 -15 -5.5 -129t-5.5 -129q0 -26 7.5 -36.5t25.5 -10.5t38 10l7 -5l-6 -33q-24 -15 -51 -16q-60 2 -63 75h-5q-57 -65 -118 -77q-60 0 -94 31.5 t-34 87.5zM96 119q0 -38 21 -59.5t58 -21.5q61 0 123 81l4 97l-155 -37q-51 -12 -51 -60z" />
<glyph unicode="b" horiz-adv-x="507" d="M93 0l4 193l-3 504l51 5l-2 -312h5q61 60 137 70q83 0 128 -58t45 -162q0 -117 -57 -182t-159 -65q-50 0 -102 19l-37 -18zM142 198l2 -137q55 -28 102 -28q78 0 121 52.5t42 150.5q-1 86 -34 133t-94 47q-74 0 -138 -77z" />
<glyph unicode="c" horiz-adv-x="386" d="M49 224q0 109 51 173.5t139 64.5q70 0 126 -34l-10 -45l-8 -1q-52 36 -109 36q-65 0 -102.5 -51.5t-37.5 -140.5q0 -87 38 -138t104 -51q64 0 120 38l7 -4l-5 -44q-61 -33 -127 -33q-86 0 -136 62t-50 168z" />
<glyph unicode="d" horiz-adv-x="512" d="M48 223q0 114 57 176.5t160 62.5q43 0 98 -13l-1 248l51 5l-3 -504l1 -111q0 -25 7.5 -36t24.5 -11t37 10l7 -5l-6 -33q-24 -15 -51 -16q-57 2 -62 71h-5q-58 -60 -125 -72q-90 0 -140 60t-50 168zM97 227q1 -89 38.5 -138t100.5 -49q69 0 127 73l1 81l-1 207 q-55 22 -103 22q-77 0 -120.5 -51t-42.5 -145z" />
<glyph unicode="e" horiz-adv-x="443" d="M49 223q0 110 54.5 174t146.5 64q72 0 112.5 -44.5t40.5 -121.5q0 -18 -2 -38l-12 -10l-291 -5v-16q0 -88 38.5 -138.5t110.5 -50.5q71 0 128 45l8 -3l-6 -45q-62 -40 -134 -40q-91 0 -142.5 61.5t-51.5 167.5zM102 280l252 7l2 13q0 59 -29.5 90.5t-80.5 31.5 q-57 0 -95 -37.5t-49 -104.5z" />
<glyph unicode="f" horiz-adv-x="290" d="M41 422l4 32h68l-1 94q0 76 37.5 116t106.5 40q34 0 74 -9l-4 -42l-5 -3q-34 14 -68 14q-91 0 -91 -110l-1 -100h122l3 -5l-4 -32h-121l-2 -220l3 -197h-51l3 192l-1 225h-68z" />
<glyph unicode="g" d="M57 -69q19 56 95 100v5q-81 21 -81 75q13 29 60 60v3q-64 40 -64 128q0 74 45.5 116t123.5 42q54 0 92 -21q84 16 137 31l6 -4v-38q-46 -12 -100 -22l-1 -3q29 -38 29 -96q0 -72 -45.5 -114.5t-123.5 -42.5q-37 0 -70 11q-39 -30 -39 -48q0 -21 31.5 -32t77 -17t90.5 -15 t76.5 -33t31.5 -64q0 -59 -61 -101.5t-147 -42.5q-76 0 -119.5 34.5t-43.5 88.5zM104 -76q0 -33 32 -55.5t89 -22.5q65 0 110.5 29.5t45.5 69.5q0 13 -5 23.5t-17 18t-22 12.5t-31 9.5t-33 7t-38 6t-36 5.5q-95 -53 -95 -103zM114 304q0 -54 31 -85t87 -31t88 31.5t32 87.5 q0 55 -30.5 85t-86.5 30q-57 0 -89 -31t-32 -87z" />
<glyph unicode="h" horiz-adv-x="513" d="M94 0l3 195l-3 502l52 5l-3 -318h6q71 69 140 77q70 0 107 -35.5t36 -100.5l-2 -128l2 -197h-52l4 315q0 48 -24.5 74.5t-69.5 26.5q-73 0 -147 -83l-1 -135l3 -198h-51z" />
<glyph unicode="i" horiz-adv-x="231" d="M82 613q0 16 9 25.5t25 9.5q33 0 33 -33q0 -35 -34 -35q-33 0 -33 33zM89 0l3 195l-3 256l52 6l-4 -259l3 -198h-51z" />
<glyph unicode="j" horiz-adv-x="245" d="M12 423l4 31h89l49 3l2 -2l-3 -257l2 -182q0 -78 -25.5 -123t-91.5 -86l-21 24v7q51 34 70 71.5t19 102.5l1 183l-2 222h-88zM82 613q0 16 9 25.5t25 9.5q33 0 33 -33q0 -35 -34 -35q-33 0 -33 33z" />
<glyph unicode="k" horiz-adv-x="438" d="M94 0l3 195l-3 502l52 5l-4 -504l3 -198h-51zM167 239v6l159 173l28 37h62l-195 -210q93 -114 209 -235v-7q-9 -4 -45 -11l-7 2q-124 134 -211 245z" />
<glyph unicode="l" horiz-adv-x="239" d="M94 0l3 195l-3 502l52 5l-4 -504l3 -198h-51z" />
<glyph unicode="m" horiz-adv-x="793" d="M89 0l3 195l-2 256l49 6v-73h6q71 69 140 77q106 0 134 -81h5q73 71 147 81q69 0 105.5 -35.5t36.5 -100.5l-1 -128l1 -197h-52l4 315q1 47 -23.5 74t-69.5 27q-72 0 -145 -79v-12l-1 -128l1 -197h-52l4 315q0 48 -24 74.5t-69 26.5q-73 0 -147 -83v-135l2 -198h-52z" />
<glyph unicode="n" horiz-adv-x="509" d="M89 0l3 195l-2 256l49 6v-73h5q71 69 141 77q69 0 106 -35.5t36 -100.5l-1 -128l2 -197h-52l3 315q1 48 -23.5 74.5t-69.5 26.5q-75 0 -147 -83l-1 -135l3 -198h-52z" />
<glyph unicode="o" horiz-adv-x="489" d="M49 222q0 113 52.5 176.5t146.5 63.5q90 0 140.5 -60.5t50.5 -168.5q0 -113 -53 -176t-147 -63q-90 0 -140 60.5t-50 167.5zM98 232q0 -96 37.5 -147.5t105.5 -51.5q71 0 110 49.5t39 140.5q0 96 -38 148t-106 52q-70 0 -109 -50t-39 -141z" />
<glyph unicode="p" horiz-adv-x="502" d="M89 -185l3 380l-3 256l50 6v-66h5q62 60 136 69q84 0 129 -57.5t45 -162.5q0 -118 -57 -182t-161 -64q-49 0 -97 9l1 -188h-51zM138 198l1 -142q57 -23 102 -23q78 0 121.5 52.5t42.5 150.5q-1 86 -34.5 133t-94.5 47q-73 0 -137 -76z" />
<glyph unicode="q" horiz-adv-x="502" d="M48 222q0 115 57 177.5t158 62.5q49 0 115 -17l29 15l6 -4l-3 -267l2 -374h-50l1 225v21h-5q-55 -55 -123 -66q-88 0 -137.5 60t-49.5 167zM97 225q1 -87 38 -136t99 -49q70 0 129 73l1 70l-1 217q-57 22 -104 22q-76 0 -119.5 -51t-42.5 -146z" />
<glyph unicode="r" horiz-adv-x="311" d="M89 0l3 195l-2 256l49 6v-102h5q57 101 132 101q12 0 26 -2v-50l-7 -2q-18 3 -32 3q-66 0 -125 -121v-86l3 -198h-52z" />
<glyph unicode="s" horiz-adv-x="364" d="M38 27l7 45l7 4q52 -43 114 -43q46 0 74 25t28 59q0 28 -22 48.5t-53.5 34.5t-63.5 29.5t-54 43t-22 65.5q0 53 40 87.5t106 34.5q53 0 103 -21l-8 -43l-9 -2q-47 27 -91 27q-41 0 -67 -23t-26 -56q0 -28 22 -48.5t53.5 -34t63.5 -29t54 -42t22 -63.5q0 -55 -42 -93 t-111 -38q-67 0 -125 33z" />
<glyph unicode="t" horiz-adv-x="309" d="M32 422l4 32h62v91l44 18l6 -5l-1 -104h145l4 -5l-4 -32h-145l-3 -293q0 -84 69 -84q35 0 75 23l6 -5l-5 -36q-50 -26 -90 -27q-102 12 -102 124l2 90l-1 208h-62z" />
<glyph unicode="u" horiz-adv-x="508" d="M81 451l52 6l-3 -316q-1 -48 22 -74.5t66 -26.5q71 0 141 75v336l50 6l-3 -368q0 -49 33 -49q17 0 37 10l7 -5l-6 -33q-24 -15 -51 -16q-58 2 -62 75h-6q-68 -68 -141 -76q-66 0 -101 35.5t-34 100.5l1 109z" />
<glyph unicode="v" horiz-adv-x="415" d="M25 453l49 5l13 -54l113 -347h5l133 345l15 53h49l-174 -455h-56z" />
<glyph unicode="w" horiz-adv-x="665" d="M25 453l48 5q19 -80 60 -223.5t49 -174.5h5l111 343l15 52h52l11 -50l97 -345h5l112 343l14 52h48l-154 -455h-51l-108 384h-6l-125 -384h-52z" />
<glyph unicode="x" horiz-adv-x="423" d="M25 0l155 233l-149 219l57 6l19 -38l107 -156l102 154l22 37h52l-148 -223l156 -229l-56 -6l-22 41l-112 163l-111 -166l-20 -35h-52z" />
<glyph unicode="y" horiz-adv-x="416" d="M-20 -158l2 8q81 16 124 47.5t75 102.5l-167 453l51 5l14 -53l124 -341h6l127 337l15 54h50l-169 -446q-36 -94 -84.5 -136.5t-137.5 -62.5h-6q-15 13 -24 32z" />
<glyph unicode="z" horiz-adv-x="406" d="M35 32l273 385h-198l-60 -5l-5 6l6 39l68 -2h213l33 1l1 -33l-273 -384h208l65 4l4 -5l-6 -39l-76 1h-215l-37 -1z" />
<glyph unicode="{" horiz-adv-x="285" d="M49 242v30q87 14 87 91q0 21 -9.5 85.5t-9.5 95.5q0 110 105 110q17 0 45 -6l3 -5l-6 -31q-25 5 -38 5q-66 0 -66 -80q0 -27 10 -90t10 -85q0 -76 -66 -103v-3q66 -27 66 -103q0 -23 -10 -86t-10 -90q0 -80 66 -80q13 0 38 5l6 -30l-3 -5q-21 -6 -45 -6q-105 0 -105 110 q0 31 9.5 95t9.5 85q0 78 -87 91z" />
<glyph unicode="|" horiz-adv-x="317" d="M137 -257v1048l39 3l4 -4l-1 -504v-548l-37 -2z" />
<glyph unicode="}" horiz-adv-x="285" d="M15 -128l6 31q25 -5 38 -5q66 0 66 79q0 27 -10 90t-10 86q0 76 66 103v3q-66 27 -66 102q0 23 10 86t10 90q0 81 -66 81q-13 0 -38 -5l-6 30l3 5q21 6 45 6q105 0 105 -110q0 -30 -10 -95t-10 -86q0 -77 88 -90v-30q-88 -15 -88 -91q0 -22 10 -86t10 -95 q0 -110 -105 -110q-24 0 -45 6z" />
<glyph unicode="~" d="M60 237v7l69 64l8 4q21 -3 100 -25.5t96 -22.5q4 0 9 2t12 7.5t11.5 9.5t15.5 14.5t17 15.5h8l15 -19v-6l-70 -65l-8 -2q-24 2 -102 24t-93 22q-3 0 -6.5 -1t-7.5 -3.5t-7.5 -5t-9.5 -8t-10 -9t-11.5 -10.5t-12.5 -11h-8z" />
<glyph unicode="&#xa1;" horiz-adv-x="252" d="M91 -191l16 442l33 3l6 -7l-4 -436l-5 -6l-39 -2zM102 428q0 35 34 35q33 0 33 -33q0 -16 -9 -25.5t-25 -9.5q-33 0 -33 33z" />
<glyph unicode="&#xa2;" horiz-adv-x="384" d="M45 267q0 107 48.5 171t131.5 67l12 146h28l6 -6l-11 -142q58 -8 100 -37l-10 -35h-7q-36 26 -86 34l-32 -389h9q63 0 122 39l7 -3l-4 -34q-59 -39 -132 -39h-5l-13 -156h-28l-6 6l13 154q-67 14 -105 73.5t-38 150.5zM87 270q0 -74 27.5 -123t76.5 -65l31 385 q-62 -5 -98.5 -57.5t-36.5 -139.5z" />
<glyph unicode="&#xa3;" horiz-adv-x="401" d="M28 5l4 28q71 12 71 110l-1 156h-69l-4 5l4 28h69v106q0 75 37 114.5t108 39.5q45 0 104 -18l-4 -41l-4 -4q-47 27 -97 27q-99 0 -99 -112v-112h126l3 -5l-3 -28h-126l-1 -153q0 -70 -40 -104v-2h176l80 4l4 -6l-4 -39l-87 1h-243z" />
<glyph unicode="&#xa4;" horiz-adv-x="436" d="M35 507l1 7l22 23h7l65 -67q34 29 81 29q44 0 79 -27l65 66h6l24 -23l-1 -7l-65 -64q29 -35 29 -82q0 -46 -29 -80l67 -64v-7l-23 -24l-7 1l-64 66q-37 -30 -81 -30q-45 0 -80 30l-64 -67h-7l-24 23l1 7l66 64q-30 35 -30 81t29 81zM108 362q0 -43 30 -73t73 -30t73.5 30 t30.5 73t-30.5 73t-73.5 30t-73 -30t-30 -73z" />
<glyph unicode="&#xa5;" horiz-adv-x="459" d="M19 129l2 27h187l-1 24l-41 77h-144l-3 4l2 26h129l-112 207h49l10 -24l130 -236h5l141 235l12 25h49l-122 -207h127l4 -3l-3 -27h-145l-45 -77l-1 -24h190l3 -4l-2 -27h-191l2 -125h-45l2 125h-186z" />
<glyph unicode="&#xa6;" horiz-adv-x="317" d="M137 155l37 5l5 -7v-415l-37 -2l-5 7v412zM137 370v421l39 3l4 -4l-1 -420l-37 -4z" />
<glyph unicode="&#xa7;" horiz-adv-x="414" d="M40 -70l7 44l6 5q54 -45 115 -45q48 0 77 25.5t29 59.5q0 28 -23 54.5t-55.5 49.5t-65 47t-55.5 56.5t-23 68.5q0 39 25 73.5t68 56.5q-45 43 -45 92q0 52 43 89t107 37q51 0 101 -21l-8 -44l-9 -2q-47 29 -91 29t-71 -25t-27 -57q0 -26 23 -52t55.5 -49t65 -47t55.5 -57 t23 -70q0 -38 -24.5 -72t-68.5 -56q45 -45 45 -94q0 -53 -44 -91t-111 -38q-69 0 -124 33zM97 302q0 -22 15.5 -44t32.5 -36t50.5 -38.5t48.5 -36.5q78 36 78 93q0 23 -15.5 46.5t-32 37.5t-51 39t-48.5 36q-78 -41 -78 -97z" />
<glyph unicode="&#xa8;" horiz-adv-x="390" d="M87 600q0 34 34 34q32 0 32 -32q0 -34 -34 -34q-32 0 -32 32zM236 600q0 34 34 34q32 0 32 -32q0 -34 -34 -34q-32 0 -32 32z" />
<glyph unicode="&#xa9;" horiz-adv-x="683" d="M48 293q0 137 80.5 221t212.5 84t213 -84t81 -221t-81 -221t-213 -84t-212.5 84t-80.5 221zM75 293q0 -125 73 -201.5t193 -76.5t193.5 76.5t73.5 201.5t-73.5 201.5t-193.5 76.5t-193 -76.5t-73 -201.5zM197 295q0 82 40 126t116 44q51 0 96 -26l-8 -32l-5 -1 q-36 25 -84 25q-115 0 -115 -134q0 -67 29 -102t84 -35q48 0 92 27l5 -1l-4 -33q-48 -28 -96 -28q-73 0 -111.5 44t-38.5 126z" />
<glyph unicode="&#xaa;" horiz-adv-x="309" d="M37 420q0 57 61 69l106 22l2 47q0 53 -55 53q-40 0 -91 -39l-5 2l-7 32q54 40 110 40q44 0 68 -20.5t24 -58.5q0 -9 -3 -80.5t-3 -79.5q0 -30 19 -30q12 0 22 7l5 -3l-5 -29q-17 -12 -37 -12t-30.5 11t-13.5 37h-3q-36 -43 -79 -49q-40 1 -62.5 22t-22.5 59zM81 424 q0 -23 13 -36t36 -13q36 0 71 44l2 66l-86 -20q-36 -8 -36 -41z" />
<glyph unicode="&#xab;" horiz-adv-x="382" d="M20 216v14l150 171l26 -16v-8l-133 -153l133 -153v-8l-26 -16zM177 216v14l150 171l26 -16v-8l-133 -153l133 -153v-8l-26 -16z" />
<glyph unicode="&#xac;" d="M32 252l3 35h379l6 -7v-215l-34 -3l-5 5v181h-345z" />
<glyph unicode="&#xad;" horiz-adv-x="309" d="M30 223v35l243 33l6 -5v-35l-243 -34z" />
<glyph unicode="&#xae;" horiz-adv-x="436" d="M39 524q0 80 49 129t130 49t130 -49t49 -129q0 -82 -49 -131t-130 -49t-130 49t-49 131zM62 524q0 -71 43 -114t114 -43q70 0 113 43t43 114q0 70 -43 112.5t-113 42.5q-71 0 -114 -42.5t-43 -112.5zM157 434v193h66q62 0 62 -57q0 -41 -40 -59q24 -35 53 -71l-1 -4 q-5 -2 -28 -5l-3 2q-22 28 -47 71h-35v-9l2 -61h-29zM185 529l37 -1q34 11 34 40q0 34 -42 36l-28 -1z" />
<glyph unicode="&#xaf;" horiz-adv-x="390" d="M49 589l3 32h285l4 -4l-3 -33h-285z" />
<glyph unicode="&#xb0;" horiz-adv-x="294" d="M23 522q0 52 36 87.5t88 35.5q51 0 87 -35.5t36 -87.5q0 -51 -36 -86t-87 -35q-52 0 -88 35t-36 86zM53 522q0 -37 28 -64t66 -27t65.5 27t27.5 64q0 38 -27.5 65.5t-65.5 27.5t-66 -27.5t-28 -65.5z" />
<glyph unicode="&#xb1;" d="M35 -75l3 35h402l5 -5l-3 -34h-403zM35 252l3 35h183v182l34 4l5 -5v-181h181l5 -5l-4 -34h-182v-183l-34 -3l-5 5v181h-182z" />
<glyph unicode="&#xb2;" horiz-adv-x="343" d="M42 328v30l102 122q30 38 44 56t25 40t11 38q0 21 -16 36t-45 15q-58 0 -102 -54h-6l-8 36q57 57 126 57q43 0 71 -22.5t28 -58.5q0 -29 -20.5 -63t-68.5 -93l-79 -100l2 -2h147l63 2l2 -5l-5 -37l-73 2h-167l-28 -1z" />
<glyph unicode="&#xb3;" horiz-adv-x="301" d="M32 665q49 40 104 40q45 0 72.5 -22.5t27.5 -59.5q0 -27 -17.5 -52.5t-48.5 -39.5v-3q82 -20 82 -92q0 -50 -41 -81t-108 -31q-37 0 -64 7l-4 33l4 4q29 -7 64 -7q47 0 75 20.5t28 55.5q0 65 -88 68h-39l-3 4l1 32h30q29 0 55 21.5t26 52.5q0 24 -16.5 38t-43.5 14 q-39 0 -83 -35h-5z" />
<glyph unicode="&#xb4;" horiz-adv-x="390" d="M104 543q77 63 156 141l6 -1l21 -27l-1 -7q-48 -41 -158 -131l-7 1z" />
<glyph unicode="&#xb5;" horiz-adv-x="505" d="M81 -185l1 380l-1 256l49 6v-322q1 -45 24 -70t66 -25q69 0 141 75v336l49 6l-2 -365q-1 -56 32 -56q19 0 37 13l7 -4l-7 -33q-24 -16 -52 -16q-55 0 -62 73h-6q-68 -67 -144 -74q-52 0 -83 28v-208h-49z" />
<glyph unicode="&#xb6;" horiz-adv-x="467" d="M45 449q0 90 53 140t152 50h181l6 -6l-5 -37h-78l-1 -420l1 -50q0 -61 -34 -109t-109 -90l-17 25v8q111 69 111 161v43l-1 433h-65q-68 -5 -104.5 -44t-36.5 -106q0 -68 39.5 -113t114.5 -62l-15 -33q-92 17 -142 70t-50 140z" />
<glyph unicode="&#xb7;" horiz-adv-x="230" d="M81 241q0 16 9 25.5t25 9.5q33 0 33 -33q0 -16 -9 -25.5t-25 -9.5q-33 0 -33 33z" />
<glyph unicode="&#xb8;" horiz-adv-x="390" d="M126 -154l7 29l4 1q26 -31 53 -31q36 0 36 30q0 16 -23 29l-46 28l25 83h34l-21 -68l32 -20q36 -21 36 -53q0 -27 -20.5 -43.5t-50.5 -16.5q-40 0 -66 32z" />
<glyph unicode="&#xb9;" horiz-adv-x="250" d="M15 631v37l133 38l6 -6l-1 -241l1 -132h-47l1 126v199l-88 -24z" />
<glyph unicode="&#xba;" horiz-adv-x="334" d="M35 489q0 75 35.5 116t100.5 41q62 0 95.5 -39t33.5 -111q0 -75 -35.5 -116.5t-100.5 -41.5q-62 0 -95.5 39.5t-33.5 111.5zM81 493q0 -119 86 -119q88 0 88 118q0 119 -86 119q-88 0 -88 -118z" />
<glyph unicode="&#xbb;" horiz-adv-x="374" d="M24 64v8l133 153l-133 153v8l26 16l150 -169v-14l-150 -171zM180 72l134 153l-134 153l1 8l26 16l149 -169v-14l-149 -171l-26 16z" />
<glyph unicode="&#xbc;" horiz-adv-x="682" d="M15 570v37l133 38l6 -6l-1 -241l1 -132h-47l1 126v199l-88 -24zM41 -67l478 741l23 -13l4 -11l-478 -740l-23 12zM366 112v31l169 231h43l-1 -228h64l4 -5l-4 -34l-59 2h-5l3 -105l-3 -4l-37 -2l-3 2l1 109h-126l-42 -2zM409 146h129v171h-4z" />
<glyph unicode="&#xbd;" horiz-adv-x="688" d="M15 570v37l133 38l6 -6l-1 -241l1 -132h-47l1 126v199l-88 -24zM41 -67l478 741l23 -13l4 -11l-478 -740l-23 12zM388 1v30l102 122q30 38 44 56t25 40t11 38q0 21 -16 36t-45 15q-58 0 -102 -54h-6l-8 36q57 57 126 57q43 0 71 -22.5t28 -58.5q0 -29 -20.5 -63 t-68.5 -93l-79 -100l2 -2h147l63 2l2 -5l-5 -37l-73 2h-167l-28 -1z" />
<glyph unicode="&#xbe;" horiz-adv-x="716" d="M32 604q49 40 104 40q45 0 72.5 -22.5t27.5 -59.5q0 -27 -17.5 -52.5t-48.5 -39.5v-3q82 -20 82 -92q0 -50 -41 -81t-108 -31q-37 0 -64 7l-4 33l4 4q29 -7 64 -7q47 0 75 20.5t28 55.5q0 65 -88 68h-39l-3 4l1 32h30q29 0 55 21.5t26 52.5q0 24 -16.5 38t-43.5 14 q-39 0 -83 -35h-5zM76 -67l478 741l23 -13l4 -11l-478 -740l-23 12zM401 112v31l169 231h43l-1 -228h64l4 -5l-4 -34l-59 2h-5l3 -105l-3 -4l-37 -2l-3 2l1 109h-126l-42 -2zM444 146h129v171h-4z" />
<glyph unicode="&#xbf;" horiz-adv-x="327" d="M6 -42q0 79 81 131l89 60l1 3l-5 102l38 4l5 -6l6 -112l-5 -10l-98 -62q-65 -41 -65 -103q0 -54 52.5 -85.5t153.5 -37.5l4 -6l-11 -30l-8 -4q-115 8 -176.5 48.5t-61.5 107.5zM156 428q0 35 34 35q33 0 33 -33q0 -16 -9 -25.5t-25 -9.5q-15 0 -24 9t-9 24z" />
<glyph unicode="&#xc0;" horiz-adv-x="567" d="M16 0l244 639h59l223 -639h-55l-13 54l-48 138l-151 2l-138 -2l-52 -136l-15 -56h-54zM155 238l125 -1l130 1l-119 341h-6zM180 820l15 30l6 2q95 -55 185 -98l-11 -26l-7 -4q-133 62 -185 89z" />
<glyph unicode="&#xc1;" horiz-adv-x="567" d="M16 0l244 639h59l223 -639h-55l-13 54l-48 138l-151 2l-138 -2l-52 -136l-15 -56h-54zM155 238l125 -1l130 1l-119 341h-6zM210 752q109 53 185 99l7 -2l14 -30l-2 -7q-85 -44 -185 -89l-8 3z" />
<glyph unicode="&#xc2;" horiz-adv-x="567" d="M16 0l244 639h59l223 -639h-55l-13 54l-48 138l-151 2l-138 -2l-52 -136l-15 -56h-54zM155 238l125 -1l130 1l-119 341h-6zM166 761q43 29 108 83h19q73 -58 109 -83l-12 -25h-7q-75 50 -99 68q-24 -18 -99 -68h-7z" />
<glyph unicode="&#xc3;" horiz-adv-x="567" d="M16 0l244 639h59l223 -639h-55l-13 54l-48 138l-151 2l-138 -2l-52 -136l-15 -56h-54zM135 760v6l57 59l8 2q20 -2 81.5 -19.5t73.5 -17.5q5 0 11 4t11 8.5t15.5 14.5t17.5 17h5l18 -18v-6l-57 -59l-8 -3q-19 2 -81 20t-75 18q-6 0 -12.5 -5t-19.5 -18t-22 -21h-6z M155 238l125 -1l130 1l-119 341h-6z" />
<glyph unicode="&#xc4;" horiz-adv-x="567" d="M16 0l244 639h59l223 -639h-55l-13 54l-48 138l-151 2l-138 -2l-52 -136l-15 -56h-54zM155 238l125 -1l130 1l-119 341h-6zM177 784q0 34 34 34q32 0 32 -32q0 -34 -34 -34q-32 0 -32 32zM326 784q0 34 34 34q32 0 32 -32q0 -34 -34 -34q-32 0 -32 32z" />
<glyph unicode="&#xc5;" horiz-adv-x="567" d="M16 0l244 639h59l223 -639h-55l-13 54l-48 138l-151 2l-138 -2l-52 -136l-15 -56h-54zM155 238l125 -1l130 1l-119 341h-6zM205 791q0 34 21 55t57 21t56.5 -21.5t20.5 -53.5q0 -36 -23 -57t-55 -21q-33 0 -55 20.5t-22 56.5zM235 792q0 -23 13 -35.5t34 -12.5t35 12 t14 34q0 21 -12.5 34t-36.5 13q-22 0 -34.5 -12t-12.5 -33z" />
<glyph unicode="&#xc6;" horiz-adv-x="800" d="M-15 0l352 639h339l4 -6l-6 -41l-164 3h-102l42 -269l225 42l5 -4v-39l-223 -41l37 -240h118l164 3l4 -6l-6 -41h-327l-5 54l-35 220l-250 -50l-93 -168l-23 -56h-56zM185 275l215 41l-42 263h-4z" />
<glyph unicode="&#xc7;" horiz-adv-x="522" d="M43 316q0 157 71.5 242.5t203.5 85.5q100 0 176 -53l-12 -47l-8 -1q-70 56 -158 56q-106 0 -163 -72t-57 -208t55 -207.5t158 -71.5q96 0 175 63l8 -3l-4 -49q-80 -52 -163 -56l-15 -48l32 -20q36 -21 36 -53q0 -27 -20.5 -43.5t-50.5 -16.5q-40 0 -66 32l7 29l4 1 q26 -31 53 -31q36 0 36 30q0 16 -23 29l-46 28l19 62q-119 5 -183.5 88.5t-64.5 233.5z" />
<glyph unicode="&#xc8;" horiz-adv-x="469" d="M101 0l3 194l-3 445h336l4 -6l-6 -41l-149 2l-132 -1l-2 -241l125 -1l106 1l5 -5l-6 -41l-230 1l-1 -110l2 -152l129 -1l157 3l4 -6l-5 -41h-337zM168 821l14 30l7 2q76 -46 185 -99l-11 -26l-8 -3q-100 45 -185 89z" />
<glyph unicode="&#xc9;" horiz-adv-x="469" d="M101 0l3 194l-3 445h336l4 -6l-6 -41l-149 2l-132 -1l-2 -241l125 -1l106 1l5 -5l-6 -41l-230 1l-1 -110l2 -152l129 -1l157 3l4 -6l-5 -41h-337zM196 752q109 53 185 99l7 -2l14 -30l-2 -7q-85 -44 -185 -89l-8 3z" />
<glyph unicode="&#xca;" horiz-adv-x="469" d="M101 0l3 194l-3 445h336l4 -6l-6 -41l-149 2l-132 -1l-2 -241l125 -1l106 1l5 -5l-6 -41l-230 1l-1 -110l2 -152l129 -1l157 3l4 -6l-5 -41h-337zM151 761q56 37 108 83h19q54 -44 110 -83l-12 -25h-7q-51 34 -99 68l-99 -68h-8z" />
<glyph unicode="&#xcb;" horiz-adv-x="469" d="M101 0l3 194l-3 445h336l4 -6l-6 -41l-149 2l-132 -1l-2 -241l125 -1l106 1l5 -5l-6 -41l-230 1l-1 -110l2 -152l129 -1l157 3l4 -6l-5 -41h-337zM163 784q0 34 34 34q32 0 32 -32q0 -34 -34 -34q-32 0 -32 32zM312 784q0 34 34 34q32 0 32 -32q0 -34 -34 -34 q-32 0 -32 32z" />
<glyph unicode="&#xcc;" horiz-adv-x="255" d="M25 821l14 30l7 2q76 -46 185 -99l-11 -26l-8 -3q-100 45 -185 89zM101 0l3 194l-3 445h53l-3 -442l2 -197h-52z" />
<glyph unicode="&#xcd;" horiz-adv-x="255" d="M53 752q109 53 185 99l7 -2l14 -30l-2 -7q-85 -44 -185 -89l-8 3zM101 0l3 194l-3 445h53l-3 -442l2 -197h-52z" />
<glyph unicode="&#xce;" horiz-adv-x="255" d="M10 761q43 29 108 83h19q73 -58 109 -83l-12 -25h-7q-75 50 -99 68q-24 -18 -99 -68h-7zM101 0l3 194l-3 445h53l-3 -442l2 -197h-52z" />
<glyph unicode="&#xd0;" horiz-adv-x="661" d="M10 312l2 34h110l-2 293h1l217 4q136 0 208.5 -78t72.5 -224q0 -167 -77.5 -256.5t-220.5 -89.5q-75 0 -200 5h-1l3 194l-1 113h-109zM171 197l2 -152q94 -6 155 -6q115 0 176.5 75t61.5 218q0 132 -59 199.5t-172 67.5q-59 0 -162 -5l-1 -248h157l3 -5l-2 -34h-159v-110 z" />
<glyph unicode="&#xd1;" horiz-adv-x="677" d="M101 0l3 190l-2 449h54l365 -552h6v549l50 4l-4 -458l1 -182h-54l-365 552h-6l-1 -347l2 -205h-49zM186 760v6l57 59l8 2q20 -2 81.5 -19.5t73.5 -17.5q5 0 11 4t11 8.5t15.5 14.5t17.5 17h5l18 -18v-6l-57 -59l-8 -3q-19 2 -81 20t-75 18q-6 0 -12.5 -5t-19.5 -18 t-22 -21h-6z" />
<glyph unicode="&#xd2;" horiz-adv-x="631" d="M43 316q0 158 72.5 243.5t207.5 85.5q128 0 197 -81.5t69 -232.5q0 -163 -72.5 -250t-207.5 -87q-128 0 -197 83.5t-69 238.5zM95 321q0 -139 55 -211t161 -72q110 0 167 72.5t57 213.5q0 136 -55 206t-162 70q-110 0 -166.5 -71t-56.5 -208zM214 821l14 30l7 2 q76 -46 185 -99l-11 -26l-8 -3q-100 45 -185 89z" />
<glyph unicode="&#xd3;" horiz-adv-x="631" d="M43 316q0 158 72.5 243.5t207.5 85.5q128 0 197 -81.5t69 -232.5q0 -163 -72.5 -250t-207.5 -87q-128 0 -197 83.5t-69 238.5zM95 321q0 -139 55 -211t161 -72q110 0 167 72.5t57 213.5q0 136 -55 206t-162 70q-110 0 -166.5 -71t-56.5 -208zM242 752q109 53 185 99l7 -2 l14 -30l-2 -7q-85 -44 -185 -89l-8 3z" />
<glyph unicode="&#xd4;" horiz-adv-x="631" d="M43 316q0 158 72.5 243.5t207.5 85.5q128 0 197 -81.5t69 -232.5q0 -163 -72.5 -250t-207.5 -87q-128 0 -197 83.5t-69 238.5zM95 321q0 -139 55 -211t161 -72q110 0 167 72.5t57 213.5q0 136 -55 206t-162 70q-110 0 -166.5 -71t-56.5 -208zM199 761q43 29 108 83h19 q73 -58 109 -83l-12 -25h-7q-75 50 -99 68q-24 -18 -99 -68h-7z" />
<glyph unicode="&#xd5;" horiz-adv-x="631" d="M43 316q0 158 72.5 243.5t207.5 85.5q128 0 197 -81.5t69 -232.5q0 -163 -72.5 -250t-207.5 -87q-128 0 -197 83.5t-69 238.5zM95 321q0 -139 55 -211t161 -72q110 0 167 72.5t57 213.5q0 136 -55 206t-162 70q-110 0 -166.5 -71t-56.5 -208zM167 760v6l57 59l8 2 q20 -2 81.5 -19.5t73.5 -17.5q5 0 11 4t11 8.5t15.5 14.5t17.5 17h5l18 -18v-6l-57 -59l-8 -3q-19 2 -81 20t-75 18q-6 0 -12.5 -5t-19.5 -18t-22 -21h-6z" />
<glyph unicode="&#xd7;" d="M84 133v6l129 129l-129 127v7l26 22l130 -129l129 129l27 -22v-7l-128 -127l128 -129v-6l-27 -23l-129 130l-130 -130z" />
<glyph unicode="&#xd8;" horiz-adv-x="631" d="M43 316q0 158 72.5 243.5t207.5 85.5q61 0 108 -19l42 91l33 -11l4 -7l-42 -91q121 -74 121 -277q0 -163 -72.5 -250t-207.5 -87q-65 0 -117 23l-52 -112l-33 11l-3 5l53 115q-114 79 -114 280zM95 321q0 -172 83 -240l233 502q-42 17 -93 17q-110 0 -166.5 -71 t-56.5 -208zM212 59q42 -21 99 -21q110 0 167 72.5t57 213.5q0 174 -89 239z" />
<glyph unicode="&#xd9;" horiz-adv-x="619" d="M79 232l1 90l-1 317h52l-2 -402q-1 -96 45 -146t135 -50t135 48.5t46 142.5l-2 407h52l-1 -326l-1 -77q3 -115 -58 -178t-174 -63q-111 0 -169.5 61t-57.5 176zM210 821l14 30l7 2q76 -46 185 -99l-11 -26l-8 -3q-100 45 -185 89z" />
<glyph unicode="&#xda;" horiz-adv-x="619" d="M79 232l1 90l-1 317h52l-2 -402q-1 -96 45 -146t135 -50t135 48.5t46 142.5l-2 407h52l-1 -326l-1 -77q3 -115 -58 -178t-174 -63q-111 0 -169.5 61t-57.5 176zM239 752q109 53 185 99l7 -2l14 -30l-2 -7q-85 -44 -185 -89l-8 3z" />
<glyph unicode="&#xdb;" horiz-adv-x="619" d="M79 232l1 90l-1 317h52l-2 -402q-1 -96 45 -146t135 -50t135 48.5t46 142.5l-2 407h52l-1 -326l-1 -77q3 -115 -58 -178t-174 -63q-111 0 -169.5 61t-57.5 176zM195 761q43 29 108 83h19q73 -58 109 -83l-12 -25h-7q-75 50 -99 68q-24 -18 -99 -68h-7z" />
<glyph unicode="&#xdc;" horiz-adv-x="619" d="M79 232l1 90l-1 317h52l-2 -402q-1 -96 45 -146t135 -50t135 48.5t46 142.5l-2 407h52l-1 -326l-1 -77q3 -115 -58 -178t-174 -63q-111 0 -169.5 61t-57.5 176zM206 784q0 34 34 34q32 0 32 -32q0 -34 -34 -34q-32 0 -32 32zM355 784q0 34 34 34q32 0 32 -32 q0 -34 -34 -34q-32 0 -32 32z" />
<glyph unicode="&#xde;" horiz-adv-x="507" d="M101 0l2 194l-2 445h53l-1 -116l119 1q92 0 140.5 -47.5t48.5 -137.5q0 -105 -58.5 -161.5t-168.5 -56.5l-82 -1l1 -120h-52zM152 166l112 -2q70 11 107 55t37 118q0 137 -142 143l-113 -2l-1 -281v-31z" />
<glyph unicode="&#xdf;" horiz-adv-x="542" d="M40 422l4 32h68v58q0 92 48.5 142t133.5 50q70 0 109.5 -32.5t39.5 -89.5q0 -31 -12.5 -57t-30.5 -43t-36 -33.5t-30.5 -37t-12.5 -44.5q0 -31 21 -55.5t51.5 -41.5t61 -35t51.5 -46t21 -64q0 -55 -42 -93t-112 -38q-66 0 -123 33l7 45l6 4q52 -43 113 -43q47 0 75 24.5 t28 59.5q0 28 -21 50.5t-51.5 40t-61 36t-51.5 48.5t-21 68q0 36 19.5 65t43 46t43 44.5t19.5 60.5q0 42 -28 65t-77 23q-63 0 -97.5 -38.5t-34.5 -109.5l-2 -321l3 -195h-52l3 190l-1 227h-68z" />
<glyph unicode="&#xe0;" horiz-adv-x="453" d="M49 113q0 81 88 101l166 39l3 81q0 42 -23.5 65t-65.5 23q-63 0 -139 -65l-7 3l-8 37q82 65 161 65q61 0 95 -31t34 -86q0 -15 -5.5 -129t-5.5 -129q0 -47 34 -47q17 0 37 10l7 -5l-6 -33q-24 -15 -51 -16q-60 2 -63 75h-5q-57 -65 -118 -77q-60 0 -94 31.5t-34 87.5z M96 119q0 -38 21 -59.5t58 -21.5q61 0 123 81l4 97l-154 -37q-52 -12 -52 -60zM126 656l21 27l6 1q79 -78 156 -141l-17 -24l-7 -1q-110 90 -158 131z" />
<glyph unicode="&#xe1;" horiz-adv-x="453" d="M49 113q0 81 88 101l166 39l3 81q0 42 -23.5 65t-65.5 23q-63 0 -139 -65l-7 3l-8 37q82 65 161 65q61 0 95 -31t34 -86q0 -15 -5.5 -129t-5.5 -129q0 -47 34 -47q17 0 37 10l7 -5l-6 -33q-24 -15 -51 -16q-60 2 -63 75h-5q-57 -65 -118 -77q-60 0 -94 31.5t-34 87.5z M96 119q0 -38 21 -59.5t58 -21.5q61 0 123 81l4 97l-154 -37q-52 -12 -52 -60zM155 543q77 63 156 141l6 -1l21 -27l-1 -7q-48 -41 -158 -131l-7 1z" />
<glyph unicode="&#xe2;" horiz-adv-x="453" d="M49 113q0 81 88 101l166 39l3 81q0 42 -23.5 65t-65.5 23q-63 0 -139 -65l-7 3l-8 37q82 65 161 65q61 0 95 -31t34 -86q0 -15 -5.5 -129t-5.5 -129q0 -47 34 -47q17 0 37 10l7 -5l-6 -33q-24 -15 -51 -16q-60 2 -63 75h-5q-57 -65 -118 -77q-60 0 -94 31.5t-34 87.5z M96 119q0 -38 21 -59.5t58 -21.5q61 0 123 81l4 97l-154 -37q-52 -12 -52 -60zM96 544q51 54 112 130h21q64 -80 112 -130l-16 -23h-7q-56 58 -100 110q-50 -60 -99 -110h-7z" />
<glyph unicode="&#xe3;" horiz-adv-x="453" d="M49 113q0 81 88 101l166 39l3 81q0 42 -23.5 65t-65.5 23q-63 0 -139 -65l-7 3l-8 37q82 65 161 65q61 0 95 -31t34 -86q0 -15 -5.5 -129t-5.5 -129q0 -47 34 -47q17 0 37 10l7 -5l-6 -33q-24 -15 -51 -16q-60 2 -63 75h-5q-57 -65 -118 -77q-60 0 -94 31.5t-34 87.5z M68 576v6l57 59l8 2q20 -2 81.5 -19.5t73.5 -17.5q5 0 11 4t11 8.5t15.5 14.5t17.5 17h5l18 -18v-6l-57 -59l-8 -3q-19 2 -81 20t-75 18q-6 0 -12.5 -5t-19.5 -18t-22 -21h-6zM96 119q0 -38 21 -59.5t58 -21.5q61 0 123 81l4 97l-154 -37q-52 -12 -52 -60z" />
<glyph unicode="&#xe4;" horiz-adv-x="453" d="M49 113q0 81 88 101l166 39l3 81q0 42 -23.5 65t-65.5 23q-63 0 -139 -65l-7 3l-8 37q82 65 161 65q61 0 95 -31t34 -86q0 -15 -5.5 -129t-5.5 -129q0 -47 34 -47q17 0 37 10l7 -5l-6 -33q-24 -15 -51 -16q-60 2 -63 75h-5q-57 -65 -118 -77q-60 0 -94 31.5t-34 87.5z M96 119q0 -38 21 -59.5t58 -21.5q61 0 123 81l4 97l-154 -37q-52 -12 -52 -60zM110 600q0 34 34 34q32 0 32 -32q0 -34 -34 -34q-32 0 -32 32zM259 600q0 34 34 34q32 0 32 -32q0 -34 -34 -34q-32 0 -32 32z" />
<glyph unicode="&#xe5;" horiz-adv-x="453" d="M49 113q0 81 88 101l166 39l3 81q0 42 -23.5 65t-65.5 23q-63 0 -139 -65l-7 3l-8 37q82 65 161 65q61 0 95 -31t34 -86q0 -15 -5.5 -129t-5.5 -129q0 -47 34 -47q17 0 37 10l7 -5l-6 -33q-24 -15 -51 -16q-60 2 -63 75h-5q-57 -65 -118 -77q-60 0 -94 31.5t-34 87.5z M96 119q0 -38 21 -59.5t58 -21.5q61 0 123 81l4 97l-154 -37q-52 -12 -52 -60zM138 607q0 34 21 55t57 21t56.5 -21.5t20.5 -53.5q0 -36 -23 -57t-55 -21q-33 0 -55 20.5t-22 56.5zM168 608q0 -23 13 -35.5t34 -12.5t35 12t14 34q0 21 -12.5 34t-36.5 13q-22 0 -34.5 -12 t-12.5 -33z" />
<glyph unicode="&#xe6;" horiz-adv-x="671" d="M45 114q0 85 88 102l165 33v85q0 43 -22 65.5t-63 22.5q-62 0 -139 -65l-7 3l-8 37q82 65 160 65q100 0 115 -89q54 88 150 88q70 0 111 -45t42 -128l-7 -9l-290 -57q2 -90 39 -138.5t105 -48.5q72 0 128 46l7 -4l-6 -43q-62 -40 -133 -40q-113 0 -158 104 q-71 -89 -146 -104q-61 0 -96 32.5t-35 87.5zM92 118q0 -37 22 -58t59 -21q32 0 62 21t72 71q-8 39 -9 82l-148 -31q-58 -13 -58 -64zM340 257l249 52q-4 53 -33.5 83.5t-75.5 30.5q-59 0 -99.5 -45.5t-40.5 -108.5v-12z" />
<glyph unicode="&#xe7;" horiz-adv-x="386" d="M49 224q0 109 51.5 173.5t139.5 64.5q70 0 126 -34l-11 -45l-8 -1q-52 36 -109 36q-65 0 -102.5 -51.5t-37.5 -140.5q0 -87 38 -138t104 -51q64 0 120 38l7 -4l-5 -44q-52 -28 -112 -33l-15 -47l32 -20q36 -21 36 -53q0 -27 -20.5 -43.5t-50.5 -16.5q-40 0 -66 32l7 29 l4 1q26 -31 53 -31q36 0 36 30q0 16 -23 29l-46 28l19 63q-78 7 -122.5 68t-44.5 161z" />
<glyph unicode="&#xe8;" horiz-adv-x="443" d="M49 223q0 110 54.5 174t146.5 64q72 0 112.5 -44.5t40.5 -121.5q0 -18 -2 -38l-12 -10l-291 -5v-16q0 -88 38.5 -138.5t110.5 -50.5q70 0 129 45l7 -3l-6 -45q-62 -40 -134 -40q-91 0 -142.5 61.5t-51.5 167.5zM102 280l252 7l2 13q0 59 -29.5 90.5t-80.5 31.5 q-57 0 -95 -37.5t-49 -104.5zM147 656l21 27l6 1q79 -78 156 -141l-17 -24l-7 -1q-110 90 -158 131z" />
<glyph unicode="&#xe9;" horiz-adv-x="443" d="M49 223q0 110 54.5 174t146.5 64q72 0 112.5 -44.5t40.5 -121.5q0 -18 -2 -38l-12 -10l-291 -5v-16q0 -88 38.5 -138.5t110.5 -50.5q70 0 129 45l7 -3l-6 -45q-62 -40 -134 -40q-91 0 -142.5 61.5t-51.5 167.5zM102 280l252 7l2 13q0 59 -29.5 90.5t-80.5 31.5 q-57 0 -95 -37.5t-49 -104.5zM176 543q77 63 156 141l6 -1l21 -27l-1 -7q-48 -41 -158 -131l-7 1z" />
<glyph unicode="&#xea;" horiz-adv-x="443" d="M49 223q0 110 54.5 174t146.5 64q72 0 112.5 -44.5t40.5 -121.5q0 -18 -2 -38l-12 -10l-291 -5v-16q0 -88 38.5 -138.5t110.5 -50.5q70 0 129 45l7 -3l-6 -45q-62 -40 -134 -40q-91 0 -142.5 61.5t-51.5 167.5zM102 280l252 7l2 13q0 59 -29.5 90.5t-80.5 31.5 q-57 0 -95 -37.5t-49 -104.5zM117 544q51 54 112 130h21q64 -80 112 -130l-16 -23h-7q-56 58 -100 110q-50 -60 -99 -110h-7z" />
<glyph unicode="&#xeb;" horiz-adv-x="443" d="M49 223q0 110 54.5 174t146.5 64q72 0 112.5 -44.5t40.5 -121.5q0 -18 -2 -38l-12 -10l-291 -5v-16q0 -88 38.5 -138.5t110.5 -50.5q70 0 129 45l7 -3l-6 -45q-62 -40 -134 -40q-91 0 -142.5 61.5t-51.5 167.5zM102 280l252 7l2 13q0 59 -29.5 90.5t-80.5 31.5 q-57 0 -95 -37.5t-49 -104.5zM131 600q0 34 34 34q32 0 32 -32q0 -34 -34 -34q-32 0 -32 32zM280 600q0 34 34 34q32 0 32 -32q0 -34 -34 -34q-32 0 -32 32z" />
<glyph unicode="&#xec;" horiz-adv-x="231" d="M25 656l21 27l6 1q79 -78 156 -141l-17 -24l-7 -1q-110 90 -158 131zM89 0l3 195l-3 256l52 6l-4 -259l3 -198h-51z" />
<glyph unicode="&#xed;" horiz-adv-x="231" d="M54 543q77 63 156 141l6 -1l21 -27l-1 -7q-48 -41 -158 -131l-7 1zM89 0l3 195l-3 256l52 6l-4 -259l3 -198h-51z" />
<glyph unicode="&#xee;" horiz-adv-x="231" d="M-6 544q51 54 112 130h21q64 -80 112 -130l-16 -23h-7q-56 58 -100 110q-50 -60 -99 -110h-7zM89 0l3 195l-3 256l52 6l-4 -259l3 -198h-51z" />
<glyph unicode="&#xf0;" horiz-adv-x="489" d="M49 224q0 109 53 171.5t147 62.5q57 0 104 -26q-37 80 -102 137l-125 -59l-6 3l-11 28l112 53q-66 48 -143 79v7l28 24h5q87 -36 153 -90l119 56l6 -3l12 -28l-108 -51q144 -138 144 -344q0 -118 -50.5 -184t-143.5 -66q-90 0 -142 61t-52 169zM95 224q0 -92 40 -142.5 t110 -50.5q72 0 109 54t37 157q0 69 -16 126q-52 52 -124 52q-74 0 -115 -51.5t-41 -144.5z" />
<glyph unicode="&#xf1;" horiz-adv-x="509" d="M89 0l2 195l-2 256l50 6v-73h5q71 69 140 77q70 0 106.5 -35.5t36.5 -100.5l-1 -128l2 -197h-53l4 315q0 48 -24.5 74.5t-69.5 26.5q-74 0 -146 -83l-1 -135l2 -198h-51zM119 576v6l57 59l8 2q20 -2 81.5 -19.5t73.5 -17.5q5 0 11 4t11 8.5t15.5 14.5t17.5 17h5l18 -18 v-6l-57 -59l-8 -3q-19 2 -81 20t-75 18q-6 0 -12.5 -5t-19.5 -18t-22 -21h-6z" />
<glyph unicode="&#xf2;" horiz-adv-x="489" d="M49 222q0 113 53 176.5t147 63.5q89 0 139.5 -60.5t50.5 -168.5q0 -113 -53 -176t-147 -63q-90 0 -140 60.5t-50 167.5zM98 232q0 -96 37.5 -147.5t106.5 -51.5q71 0 109.5 49.5t38.5 140.5q0 96 -38 148t-106 52q-70 0 -109 -50t-39 -141zM153 656l21 27l6 1 q79 -78 156 -141l-17 -24l-7 -1q-110 90 -158 131z" />
<glyph unicode="&#xf3;" horiz-adv-x="489" d="M49 222q0 113 53 176.5t147 63.5q89 0 139.5 -60.5t50.5 -168.5q0 -113 -53 -176t-147 -63q-90 0 -140 60.5t-50 167.5zM98 232q0 -96 37.5 -147.5t106.5 -51.5q71 0 109.5 49.5t38.5 140.5q0 96 -38 148t-106 52q-70 0 -109 -50t-39 -141zM183 543q77 63 156 141l6 -1 l21 -27l-1 -7q-48 -41 -158 -131l-7 1z" />
<glyph unicode="&#xf4;" horiz-adv-x="489" d="M49 222q0 113 53 176.5t147 63.5q89 0 139.5 -60.5t50.5 -168.5q0 -113 -53 -176t-147 -63q-90 0 -140 60.5t-50 167.5zM98 232q0 -96 37.5 -147.5t106.5 -51.5q71 0 109.5 49.5t38.5 140.5q0 96 -38 148t-106 52q-70 0 -109 -50t-39 -141zM123 544q51 54 112 130h21 q64 -80 112 -130l-16 -23h-7q-56 58 -100 110q-50 -60 -99 -110h-7z" />
<glyph unicode="&#xf5;" horiz-adv-x="489" d="M49 222q0 113 53 176.5t147 63.5q89 0 139.5 -60.5t50.5 -168.5q0 -113 -53 -176t-147 -63q-90 0 -140 60.5t-50 167.5zM95 576v6l57 59l8 2q20 -2 81.5 -19.5t73.5 -17.5q5 0 11 4t11 8.5t15.5 14.5t17.5 17h5l18 -18v-6l-57 -59l-8 -3q-19 2 -81 20t-75 18 q-6 0 -12.5 -5t-19.5 -18t-22 -21h-6zM98 232q0 -96 37.5 -147.5t106.5 -51.5q71 0 109.5 49.5t38.5 140.5q0 96 -38 148t-106 52q-70 0 -109 -50t-39 -141z" />
<glyph unicode="&#xf7;" d="M47 252l4 35h402l5 -5l-4 -34h-402zM229 90q0 15 9 24t24 9q32 0 32 -32q0 -15 -9 -24t-24 -9q-32 0 -32 32zM229 446q0 15 9 24.5t24 9.5t23.5 -9t8.5 -23q0 -16 -9 -25t-24 -9q-32 0 -32 32z" />
<glyph unicode="&#xf8;" horiz-adv-x="489" d="M49 222q0 113 53 176.5t147 63.5q43 0 78 -15l45 94l29 -11l4 -7l-45 -95q79 -57 79 -195q0 -113 -53 -176t-147 -63q-42 0 -78 14l-57 -120l-31 12l-2 6l57 121q-79 57 -79 195zM98 232q0 -111 50 -163l161 340q-28 14 -63 14q-70 0 -109 -50t-39 -141zM179 47 q28 -14 63 -14q71 0 109.5 49.5t38.5 140.5q0 110 -50 163z" />
<glyph unicode="&#xf9;" horiz-adv-x="508" d="M81 451l52 6l-3 -316q-1 -48 22 -74.5t66 -26.5q70 0 142 75v336l49 6l-3 -368q0 -49 33 -49q17 0 37 10l7 -5l-6 -33q-23 -15 -51 -16q-58 2 -62 75h-6q-68 -68 -141 -76q-66 0 -101 35.5t-34 100.5l1 109zM164 656l21 27l6 1q79 -78 156 -141l-17 -24l-7 -1 q-110 90 -158 131z" />
<glyph unicode="&#xfa;" horiz-adv-x="508" d="M81 451l52 6l-3 -316q-1 -48 22 -74.5t66 -26.5q70 0 142 75v336l49 6l-3 -368q0 -49 33 -49q17 0 37 10l7 -5l-6 -33q-23 -15 -51 -16q-58 2 -62 75h-6q-68 -68 -141 -76q-66 0 -101 35.5t-34 100.5l1 109zM193 543q77 63 156 141l6 -1l21 -27l-1 -7q-48 -41 -158 -131 l-7 1z" />
<glyph unicode="&#xfb;" horiz-adv-x="508" d="M81 451l52 6l-3 -316q-1 -48 22 -74.5t66 -26.5q70 0 142 75v336l49 6l-3 -368q0 -49 33 -49q17 0 37 10l7 -5l-6 -33q-23 -15 -51 -16q-58 2 -62 75h-6q-68 -68 -141 -76q-66 0 -101 35.5t-34 100.5l1 109zM133 544q51 54 112 130h21q64 -80 112 -130l-16 -23h-7 q-56 58 -100 110q-50 -60 -99 -110h-7z" />
<glyph unicode="&#xfc;" horiz-adv-x="508" d="M81 451l52 6l-3 -316q-1 -48 22 -74.5t66 -26.5q70 0 142 75v336l49 6l-3 -368q0 -49 33 -49q17 0 37 10l7 -5l-6 -33q-23 -15 -51 -16q-58 2 -62 75h-6q-68 -68 -141 -76q-66 0 -101 35.5t-34 100.5l1 109zM148 600q0 34 34 34q32 0 32 -32q0 -34 -34 -34q-32 0 -32 32z M297 600q0 34 34 34q32 0 32 -32q0 -34 -34 -34q-32 0 -32 32z" />
<glyph unicode="&#xfe;" horiz-adv-x="507" d="M94 -185l3 380l-3 502l51 5l-2 -312h5q61 60 137 70q83 0 128 -58t45 -162q0 -117 -57 -182t-159 -65q-50 0 -99 17l2 -195h-51zM142 198l1 -137q55 -28 103 -28q78 0 121 52.5t42 150.5q-1 86 -34 133t-94 47q-74 0 -138 -77z" />
<glyph unicode="&#xff;" horiz-adv-x="416" d="M-19 -158l1 8q82 16 125 47.5t75 102.5l-167 453l50 5l15 -53l124 -341h6l127 337l15 54h50l-170 -446q-35 -93 -83 -136t-138 -63h-7q-14 14 -23 32zM104 600q0 34 34 34q32 0 32 -32q0 -34 -34 -34q-32 0 -32 32zM253 600q0 34 34 34q32 0 32 -32q0 -34 -34 -34 q-32 0 -32 32z" />
<glyph unicode="&#x152;" horiz-adv-x="843" d="M43 317q0 158 82 246t232 88q29 0 81 -6t80 -6h292l4 -6l-5 -41l-139 2h-144v-242l117 -1l115 1l4 -5l-5 -41l-232 1v-262l133 -1l154 3l5 -6l-6 -41h-293q-29 0 -88 -6t-86 -6q-144 0 -222.5 86.5t-78.5 242.5zM95 318q0 -138 64.5 -211.5t190.5 -73.5q58 0 101 10 q15 4 20.5 10t5.5 20l-3 486q0 31 -14 35q-36 12 -107 12q-125 0 -191.5 -74t-66.5 -214z" />
<glyph unicode="&#x153;" horiz-adv-x="777" d="M43 223q0 112 52.5 175t144.5 63q127 0 169 -116q49 116 174 116q72 0 112.5 -44.5t40.5 -121.5q0 -18 -2 -38l-11 -10l-294 -5v-16q0 -88 39 -138.5t112 -50.5q72 0 129 45l7 -3l-6 -45q-61 -40 -133 -40q-125 0 -171 116q-45 -116 -174 -116q-89 0 -139 60.5t-50 168.5 zM94 232q0 -96 37.5 -147.5t106.5 -51.5q71 0 109.5 49.5t38.5 140.5q0 96 -38 148t-106 52q-70 0 -109 -50t-39 -141zM433 279l254 8l2 13q0 59 -29.5 90.5t-80.5 31.5q-58 0 -96.5 -37.5t-49.5 -105.5z" />
<glyph unicode="&#x178;" horiz-adv-x="512" d="M20 639h58l12 -31l155 -310h7l170 309l12 32h58l-220 -404l-1 -44l2 -191h-52l3 191l-1 45zM142 784q0 34 34 34q32 0 32 -32q0 -34 -34 -34q-32 0 -32 32zM291 784q0 34 34 34q32 0 32 -32q0 -34 -34 -34q-32 0 -32 32z" />
<glyph unicode="&#x2c6;" horiz-adv-x="390" d="M72 544q48 50 113 130h20q68 -83 112 -130l-16 -23h-7q-52 53 -99 111q-38 -47 -99 -111h-8z" />
<glyph unicode="&#x2dc;" horiz-adv-x="390" d="M46 576v6l57 59l8 2q20 -2 81.5 -19.5t73.5 -17.5q5 0 11 4t11 8.5t15.5 14.5t17.5 17h5l18 -18v-6l-57 -59l-8 -3q-19 2 -81 20t-75 18q-6 0 -12.5 -5t-19.5 -18t-22 -21h-6z" />
<glyph unicode="&#x2000;" horiz-adv-x="433" />
<glyph unicode="&#x2001;" horiz-adv-x="867" />
<glyph unicode="&#x2002;" horiz-adv-x="433" />
<glyph unicode="&#x2003;" horiz-adv-x="867" />
<glyph unicode="&#x2004;" horiz-adv-x="289" />
<glyph unicode="&#x2005;" horiz-adv-x="216" />
<glyph unicode="&#x2006;" horiz-adv-x="144" />
<glyph unicode="&#x2007;" horiz-adv-x="144" />
<glyph unicode="&#x2008;" horiz-adv-x="108" />
<glyph unicode="&#x2009;" horiz-adv-x="173" />
<glyph unicode="&#x200a;" horiz-adv-x="48" />
<glyph unicode="&#x2010;" horiz-adv-x="309" d="M30 223v35l243 33l6 -5v-35l-243 -34z" />
<glyph unicode="&#x2011;" horiz-adv-x="309" d="M30 223v35l243 33l6 -5v-35l-243 -34z" />
<glyph unicode="&#x2012;" horiz-adv-x="309" d="M30 223v35l243 33l6 -5v-35l-243 -34z" />
<glyph unicode="&#x2013;" horiz-adv-x="485" d="M-15 240l3 35h507l5 -5l-3 -35h-508z" />
<glyph unicode="&#x2014;" horiz-adv-x="949" d="M-15 240l3 35h972l5 -5l-3 -35h-973z" />
<glyph unicode="&#x2018;" horiz-adv-x="147" d="M32 521q0 54 64 119l22 -16l1 -6q-43 -44 -43 -83q0 -35 38 -48v-6q-9 -10 -30 -26q-52 18 -52 66z" />
<glyph unicode="&#x2019;" horiz-adv-x="147" d="M31 476q43 44 43 83q0 35 -38 48v6q6 7 30 25q52 -16 52 -65q0 -54 -64 -119l-22 16z" />
<glyph unicode="&#x201a;" horiz-adv-x="230" d="M56 -84q55 41 55 83q0 24 -31 41v6q16 13 36 20q40 -24 40 -59q0 -53 -81 -114l-19 18v5z" />
<glyph unicode="&#x201c;" horiz-adv-x="250" d="M25 521q0 54 64 119l22 -16l1 -6q-43 -44 -43 -83q0 -35 38 -48v-6q-6 -7 -30 -25q-52 16 -52 65zM139 521q0 54 64 119l22 -16l1 -6q-43 -44 -43 -83q0 -35 38 -48v-6q-6 -7 -30 -25q-52 16 -52 65z" />
<glyph unicode="&#x201d;" horiz-adv-x="259" d="M28 470v6q43 46 43 83q0 35 -39 48v6q2 3 30 25q52 -16 52 -65q0 -55 -63 -119zM141 470v6q43 46 43 83q0 35 -39 48v6q10 10 30 25q52 -16 52 -65q0 -55 -64 -119z" />
<glyph unicode="&#x201e;" horiz-adv-x="344" d="M56 -84q55 41 55 83q0 24 -31 41v6q16 13 36 20q40 -24 40 -59q0 -53 -81 -114l-19 18v5zM169 -89l1 5q54 42 54 83q0 24 -30 41v6q16 13 35 20q40 -23 40 -59q0 -54 -81 -114z" />
<glyph unicode="&#x2022;" horiz-adv-x="244" d="M85 237q0 17 10.5 27t26.5 10t25.5 -9.5t9.5 -25.5q0 -17 -10 -27.5t-26 -10.5q-17 0 -26.5 9.5t-9.5 26.5z" />
<glyph unicode="&#x2026;" horiz-adv-x="557" d="M77 30q0 16 9 25.5t25 9.5q33 0 33 -33q0 -35 -34 -35q-33 0 -33 33zM241 30q0 16 9 25.5t25 9.5q33 0 33 -33q0 -35 -34 -35q-33 0 -33 33zM405 30q0 16 9 25.5t25 9.5q15 0 24 -9t9 -24q0 -16 -9.5 -25.5t-24.5 -9.5q-33 0 -33 33z" />
<glyph unicode="&#x202f;" horiz-adv-x="173" />
<glyph unicode="&#x2039;" horiz-adv-x="222" d="M21 217v13l150 171l26 -15l1 -8l-134 -154l134 -153l-1 -8l-26 -15z" />
<glyph unicode="&#x203a;" horiz-adv-x="229" d="M29 64v8l133 153l-133 153v8l26 16l150 -169v-14l-150 -171z" />
<glyph unicode="&#x205f;" horiz-adv-x="216" />
<glyph unicode="&#x20ac;" horiz-adv-x="493" d="M19 167l3 30h73q-2 28 -2 44q0 27 2 40h-73l-3 4l3 30h77q17 89 72 136t145 47q75 0 137 -40l-10 -37l-6 -1q-52 40 -123 40q-142 0 -168 -145h199l4 -4l-3 -30h-205q-2 -12 -2 -37q0 -24 3 -47h203l4 -4l-3 -30h-198q29 -129 158 -129q75 0 136 45l7 -4l-4 -36 q-68 -44 -141 -44q-84 0 -136 43t-68 125h-78z" />
<glyph unicode="&#x2122;" horiz-adv-x="578" d="M29 614l3 24h173l2 -3l-2 -24l-44 2h-26l-2 -135l2 -73h-32l1 70l-1 138h-26l-45 -2zM255 405l26 233h39q9 -25 20 -52t24.5 -59.5t21.5 -51.5h2l58 129l12 34h38l24 -233h-29l-6 71l-13 111h-3l-70 -155h-27l-66 155h-3l-13 -108l-7 -74h-28z" />
<glyph unicode="&#x25fc;" horiz-adv-x="460" d="M0 0v460h460v-460h-460z" />
</font>
</defs>
</svg>
