<?xml version="1.0" standalone="no"?>
<!DOCTYPE svg PUBLIC "-//W3C//DTD SVG 1.1//EN" "http://www.w3.org/Graphics/SVG/1.1/DTD/svg11.dtd" >
<svg xmlns="http://www.w3.org/2000/svg">
<metadata></metadata>
<defs>
<font id="alegreya_sansregular" horiz-adv-x="480" >
<font-face units-per-em="1000" ascent="800" descent="-200" />
<missing-glyph horiz-adv-x="165" />
<glyph unicode="&#xa8;I" horiz-adv-x="268" d="M27 788q0 20 12 32.5t33 12.5q20 0 31 -11.5t11 -30.5q0 -21 -12 -34t-33 -13q-42 0 -42 44zM93 0l5 193l-5 448h82l-5 -441l4 -200h-81zM155 788q0 20 12 32.5t33 12.5q20 0 31 -11.5t11 -30.5q0 -21 -12 -34t-33 -13q-42 0 -42 44z" />
<glyph unicode="&#xa8;O" horiz-adv-x="635" d="M38 315q0 160 74.5 246t213.5 86q131 0 201.5 -81t70.5 -233q0 -163 -75 -252t-213 -89q-130 0 -201 84t-71 239zM120 325q0 -266 195 -266q200 0 200 260q0 262 -196 262q-199 0 -199 -256zM198 788q0 20 12 32.5t33 12.5q19 0 30.5 -11.5t11.5 -30.5q0 -21 -12 -34 t-33 -13q-42 0 -42 44zM355 788q0 20 12 32.5t33 12.5q20 0 31 -11.5t11 -30.5q0 -21 -12 -34t-33 -13q-42 0 -42 44z" />
<glyph unicode="&#xb4;Y" horiz-adv-x="528" d="M15 641h86l13 -36l140 -288h8l153 286l15 38h85l-223 -413l-1 -41l4 -187h-81l5 187l-1 44zM174 760q103 51 192 103l9 -2l20 -47l-2 -8q-89 -41 -195 -86l-10 4z" />
<glyph unicode="&#xa8;i" horiz-adv-x="238" d="M13 606q0 20 12 32.5t33 12.5q20 0 31 -11.5t11 -30.5q0 -21 -12 -34t-33 -13q-42 0 -42 44zM79 0l5 194l-4 259l79 7l-6 -259l5 -201h-79zM141 606q0 20 12 32.5t33 12.5q20 0 31 -11.5t11 -30.5q0 -21 -12 -34t-33 -13q-42 0 -42 44z" />
<glyph unicode="&#xa8;o" horiz-adv-x="491" d="M42 223q0 116 54.5 179.5t153.5 63.5q94 0 145.5 -60.5t51.5 -170.5q0 -116 -54.5 -179.5t-153.5 -63.5q-94 0 -145.5 60.5t-51.5 170.5zM117 241q0 -192 127 -192q129 0 129 168q0 95 -32.5 144t-94.5 49q-63 0 -96 -43t-33 -126zM125 606q0 20 12 32.5t33 12.5 q20 0 31 -11.5t11 -30.5q0 -21 -12 -34t-33 -13q-42 0 -42 44zM282 606q0 20 12 32.5t33 12.5q19 0 30.5 -11.5t11.5 -30.5q0 -21 -12 -34t-33 -13q-42 0 -42 44z" />
<glyph unicode="&#xb4;y" horiz-adv-x="426" d="M-22 -141l3 10q75 14 120.5 44t76.5 87l-169 456l78 5l15 -59l109 -313h7l110 305l15 64h73l-162 -441q-33 -89 -86 -137t-144 -71h-9q-24 24 -37 50zM142 552q98 80 164 145l9 -1l30 -42l-2 -8q-99 -77 -170 -127l-9 1z" />
<glyph unicode="&#xfb01;" horiz-adv-x="553" d="M36 410l5 47h67v61q0 96 45.5 141t143.5 45q58 0 129 -20l-10 -66l-10 -3q-65 31 -118 31q-54 0 -79.5 -27.5t-25.5 -85.5l-1 -76h246l47 6l6 -3l-6 -261l6 -199h-80l6 193l-4 211h-221l-3 -204l5 -200h-79l6 194l-2 210h-69z" />
<glyph unicode="&#xfb02;" horiz-adv-x="569" d="M36 410l5 47h67l-1 72q-1 89 49 135.5t142 46.5q58 0 126 -15l62 6l-6 -501l5 -201h-79l6 195l-4 436q-60 22 -115 22q-110 0 -111 -112l-1 -84h121l3 -6l-5 -47h-119l-2 -206l5 -198h-79l5 194l-2 210h-68z" />
<glyph horiz-adv-x="1000" />
<glyph horiz-adv-x="1000" />
<glyph unicode="&#xd;" horiz-adv-x="1000" />
<glyph unicode=" "  horiz-adv-x="165" />
<glyph unicode="&#x09;" horiz-adv-x="165" />
<glyph unicode="&#xa0;" horiz-adv-x="165" />
<glyph unicode="!" horiz-adv-x="256" d="M72 41q0 21 13 34t35 13q20 0 31.5 -12t11.5 -33q0 -22 -12.5 -35t-33.5 -13q-45 0 -45 46zM98 222v425l8 10l61 3l9 -10l-22 -432l-47 -5z" />
<glyph unicode="&#x22;" horiz-adv-x="280" d="M52 450l5 184l61 5l6 -7l-24 -183l-41 -6zM167 450l4 184l61 5l6 -7l-24 -183l-41 -6z" />
<glyph unicode="#" horiz-adv-x="516" d="M20 205l4 44h109l26 116h-98l-6 6l4 43h111l36 160h46l5 -8l-34 -152h109l36 160h46l6 -8l-34 -152h104l6 -6l-5 -43h-116l-26 -116h106l5 -6l-4 -43h-118l-38 -168h-46l-5 7l36 161h-110l-37 -168h-47l-5 7l36 161h-96zM186 249h110l26 116h-110z" />
<glyph unicode="$" horiz-adv-x="434" d="M48 28l8 70l9 3q45 -44 114 -53l15 178q-31 13 -49.5 23t-40.5 26.5t-32.5 38.5t-10.5 49q0 55 42 93.5t113 43.5l11 142h39l9 -8l-11 -134q50 -5 96 -23l-12 -64l-11 -3q-37 28 -77 36l-14 -172q29 -12 48 -22.5t39.5 -26.5t31 -37.5t10.5 -48.5q0 -54 -41 -94.5 t-111 -47.5l-10 -126h-39l-8 7l9 118q-70 4 -127 32zM126 371q0 -44 74 -77l12 154q-39 -4 -62.5 -27t-23.5 -50zM227 48q37 7 60 29.5t23 50.5q0 44 -70 77z" />
<glyph unicode="%" horiz-adv-x="824" d="M40 464q0 88 39 134.5t113 46.5q68 0 104.5 -44.5t36.5 -127.5q0 -89 -39 -135.5t-112 -46.5q-68 0 -105 44.5t-37 128.5zM96 469q0 -123 91 -123t91 119q0 122 -92 122q-90 0 -90 -118zM138 -59l471 737l35 -20l6 -14l-472 -735l-35 20zM490 168q0 88 39 134.5t113 46.5 q68 0 104.5 -44t36.5 -127q0 -89 -38.5 -135.5t-112.5 -46.5q-68 0 -105 44.5t-37 127.5zM546 173q0 -122 91 -122t91 118q0 122 -92 122q-90 0 -90 -118z" />
<glyph unicode="&#x26;" horiz-adv-x="694" d="M60 169q0 110 115 169v5q-70 67 -70 146q0 74 49.5 116t141.5 42q82 0 157 -36l-19 -59h-11q-61 37 -129 37q-59 0 -89.5 -27.5t-30.5 -77.5q0 -60 65 -114l235 -210q15 36 15 82q0 60 -28 116h-70l-5 6l6 52h286l6 -7l-7 -51h-154l-2 -6q22 -59 22 -118q0 -64 -24 -114 l132 -117v-6q-20 -22 -45 -35l-5 1l-117 105q-69 -75 -198 -75q-101 0 -163.5 47.5t-62.5 128.5zM128 181q0 -61 45.5 -95.5t120.5 -34.5q94 0 146 55l-228 204q-84 -47 -84 -129z" />
<glyph unicode="'" horiz-adv-x="166" d="M52 450l5 184l61 5l6 -7l-24 -183l-41 -6z" />
<glyph unicode="(" horiz-adv-x="288" d="M82 256q1 155 39 248.5t126 157.5h7l29 -26v-8q-73 -58 -104 -143.5t-32 -227.5q1 -139 32 -223t104 -141v-8l-29 -26h-7q-88 64 -126 155.5t-39 241.5z" />
<glyph unicode=")" horiz-adv-x="288" d="M5 -107q73 57 104 142.5t32 228.5q-1 139 -32 222.5t-104 141.5v8l29 26h8q88 -64 125.5 -155.5t38.5 -241.5q-1 -155 -38.5 -248.5t-125.5 -157.5h-8l-29 26v8z" />
<glyph unicode="*" horiz-adv-x="374" d="M36 592q0 39 8 61l7 2l98 -60l-5 -33l-7 -4zM60 448v6l83 84l30 -16l-1 -9l-57 -93q-19 6 -55 28zM162 724q28 9 60 9l3 -6l-22 -120l-34 -4l-5 7zM192 517l24 22l10 -2l61 -90q-13 -23 -41 -44l-8 1zM215 588l4 9l100 36q20 -32 27 -54l-5 -5l-111 -16z" />
<glyph unicode="+" d="M31 243l5 50h176v177l50 5l6 -7v-175h175l6 -6l-5 -50h-176v-177l-50 -4l-6 6v175h-175z" />
<glyph unicode="," horiz-adv-x="229" d="M48 -82q55 43 55 88q0 27 -31 47v8q28 19 55 26q42 -26 42 -67q0 -65 -94 -134l-27 25v7z" />
<glyph unicode="-" horiz-adv-x="307" d="M29 216v50l242 34l7 -7v-50l-241 -35z" />
<glyph unicode="." horiz-adv-x="229" d="M69 41q0 21 12.5 34t34.5 13q20 0 32 -12t12 -33q0 -22 -12.5 -35t-34.5 -13q-44 0 -44 46z" />
<glyph unicode="/" horiz-adv-x="287" d="M22 -105l205 783h55l6 -9l-205 -782h-55z" />
<glyph unicode="0" horiz-adv-x="528" d="M47 242q0 126 58 194t165 68q101 0 156.5 -65.5t55.5 -186.5q0 -124 -58 -191.5t-164 -67.5q-102 0 -157.5 65t-55.5 184zM110 248q0 -185 154 -185q155 0 155 180q0 188 -156 188q-153 0 -153 -183z" />
<glyph unicode="1" horiz-adv-x="344" d="M11 379v63l202 60l12 -8l-5 -287l4 -207h-80l5 197l-1 214l-129 -36z" />
<glyph unicode="2" horiz-adv-x="455" d="M47 2v50l139 151q104 116 104 169q0 27 -20 44.5t-56 17.5q-74 0 -136 -68h-10l-13 61q83 75 175 75q60 0 98.5 -30.5t38.5 -80.5q0 -74 -117 -210l-101 -115l2 -4h185l84 6l6 -5l-11 -67l-102 4h-224l-37 -2z" />
<glyph unicode="3" horiz-adv-x="412" d="M31 441q75 62 160 62q68 0 110 -35.5t42 -91.5q0 -43 -25.5 -83t-74.5 -65v-4q122 -29 122 -133q0 -84 -63 -136t-165 -52q-46 0 -98 9l-5 68l6 5q47 -20 102 -20q66 0 107 31.5t41 84.5q0 47 -33.5 74t-95.5 29h-59l-5 6l2 55l44 1q43 0 81.5 33t38.5 80q0 36 -24 57 t-63 21q-57 0 -124 -59h-9z" />
<glyph unicode="4" horiz-adv-x="481" d="M27 83v51l251 364h73l-2 -359h94l6 -8l-5 -56l-92 2h-2l3 -163l-5 -6l-60 -5l-5 6l2 168h-187l-66 -2zM97 139h189v263h-7z" />
<glyph unicode="5" horiz-adv-x="418" d="M31 -18l7 7q56 -24 109 -24q68 0 108 35.5t40 92.5q0 45 -30.5 72t-99.5 40l-85 16l-7 7l5 261l13 11l53 -2h135l92 4l4 -6l-8 -63l-6 -6l-73 6h-148l-4 -156l63 -13q93 -20 132 -58t39 -100q0 -90 -67 -147t-172 -57q-42 0 -94 10z" />
<glyph unicode="6" horiz-adv-x="470" d="M46 211q0 127 77.5 227t218.5 156h5l62 -36v-8q-233 -81 -278 -238l6 -7q60 44 130 44q75 0 117.5 -46t42.5 -123q0 -84 -52.5 -136t-142.5 -52q-92 0 -139 57t-47 162zM118 211q0 -164 120 -164q56 0 87 31.5t31 90.5q0 58 -29 89.5t-82 31.5q-66 0 -126 -52z" />
<glyph unicode="7" horiz-adv-x="417" d="M22 433l5 68l90 -3h229l42 2l1 -59l-194 -424l-45 -119l-64 18l-5 13l233 503h-211l-76 -8z" />
<glyph unicode="8" horiz-adv-x="474" d="M48 143q0 96 117 153v5q-94 49 -94 138q0 71 48 112t126 41q73 0 114.5 -37.5t41.5 -102.5q0 -87 -97 -143v-5q25 -12 41.5 -22.5t35.5 -27.5t28.5 -41t9.5 -55q0 -75 -53 -120t-141 -45q-82 0 -129.5 41.5t-47.5 108.5zM116 151q0 -45 31.5 -73t84.5 -28q55 0 87.5 28.5 t32.5 74.5q0 25 -9 43t-32 33t-36.5 21.5t-47.5 20.5q-51 -18 -81 -45t-30 -75zM138 441q0 -43 26.5 -66.5t76.5 -43.5q45 19 70.5 44.5t25.5 69.5q0 42 -25.5 65.5t-70.5 23.5q-47 0 -75 -25t-28 -68z" />
<glyph unicode="9" horiz-adv-x="470" d="M43 319q0 83 52.5 135.5t142.5 52.5q92 0 139 -57t47 -162q0 -127 -77.5 -227t-218.5 -156h-5l-62 36v8q233 81 278 238l-6 7q-60 -44 -130 -44q-75 0 -117.5 46t-42.5 123zM114 330q0 -58 29 -89.5t82 -31.5q68 0 126 52l1 27q0 164 -120 164q-56 0 -87 -31.5t-31 -90.5 z" />
<glyph unicode=":" horiz-adv-x="229" d="M65 41q0 21 12.5 34t34.5 13q20 0 32 -12t12 -33q0 -22 -12.5 -35t-34.5 -13q-44 0 -44 46zM65 310q0 22 12.5 35t34.5 13q20 0 32 -12t12 -33q0 -22 -12.5 -35t-34.5 -13q-44 0 -44 45z" />
<glyph unicode=";" horiz-adv-x="229" d="M44 -82q55 43 55 88q0 27 -31 47v8q28 19 55 26q42 -26 42 -67q0 -65 -94 -134l-27 25v7zM65 310q0 22 12.5 35t34.5 13q20 0 32 -12t12 -33q0 -22 -12.5 -35t-34.5 -13q-44 0 -44 45z" />
<glyph unicode="&#x3c;" d="M36 232v65l7 9l381 157l18 -46l-4 -7l-340 -141v-6l342 -132l-12 -46l-9 -5z" />
<glyph unicode="=" d="M31 159l5 50h407l6 -6l-5 -50h-407zM31 326l5 50h407l6 -6l-5 -50h-407z" />
<glyph unicode="&#x3e;" d="M38 417l18 46l381 -157l7 -9v-65l-383 -152l-9 5l-12 46l342 132v6l-340 141z" />
<glyph unicode="?" horiz-adv-x="331" d="M60 612l15 44l10 5q120 -8 185 -48.5t65 -108.5q0 -82 -84 -134l-83 -54l-2 -4l6 -96l-56 -7l-7 7l-8 115l5 10l96 57q61 36 61 94q0 100 -197 112zM100 41q0 21 12.5 34t34.5 13q20 0 32 -12t12 -33q0 -22 -12.5 -35t-34.5 -13q-44 0 -44 46z" />
<glyph unicode="@" horiz-adv-x="825" d="M36 187q0 189 116 308t305 119q153 0 245 -86t92 -229q0 -141 -88 -219t-251 -84l29 207h-10q-77 -132 -161 -211h-15q-76 45 -76 159q0 72 25.5 137.5t81 115.5t131.5 61h5l64 -23l46 23l10 -4l-50 -351l-2 -55q98 12 152 75t54 166q0 122 -78.5 194.5t-211.5 70.5 q-160 -1 -259 -102.5t-99 -260.5q0 -163 104 -255.5t280 -92.5l2 -8l-24 -40q-189 2 -303 105.5t-114 279.5zM289 170q0 -35 5.5 -57.5t12 -30t13.5 -7.5q12 0 39 29t68.5 95.5t77.5 151.5l1 6l2 25l-63 22q-71 0 -113.5 -67.5t-42.5 -166.5z" />
<glyph unicode="A" horiz-adv-x="578" d="M14 0l235 641h93l214 -641h-82l-15 64l-36 110l-144 3l-130 -3l-39 -106l-16 -68h-80zM174 242l112 -2l115 2l-104 316h-7z" />
<glyph unicode="B" horiz-adv-x="537" d="M93 0l5 193l-5 448l178 1q90 0 138.5 -40t48.5 -116q0 -111 -96 -152q136 -27 136 -155q0 -183 -263 -183q-88 0 -141 4h-1zM170 200l3 -134q39 -3 74 -3q82 0 126 31t44 89q0 98 -123 112l-123 -1zM172 361l110 -3q94 22 94 119q0 52 -28.5 75.5t-92.5 23.5h-81z" />
<glyph unicode="C" horiz-adv-x="520" d="M38 315q0 159 74 245t210 86q101 0 175 -48l-16 -73l-9 -2q-67 56 -154 56q-95 0 -146 -65.5t-51 -191.5q0 -127 51 -194t144 -67q92 0 167 61l10 -5l-7 -76q-87 -48 -177 -48q-129 0 -200 83.5t-71 238.5z" />
<glyph unicode="D" horiz-adv-x="646" d="M93 0l5 193l-5 448h1l231 4q137 0 210 -78t73 -224q0 -169 -79 -259t-227 -90q-98 0 -208 6h-1zM170 200l3 -133q71 -6 142 -6q102 0 156.5 66.5t54.5 198.5q0 252 -207 252q-63 0 -145 -4z" />
<glyph unicode="E" horiz-adv-x="482" d="M93 0l5 193l-5 448h361l4 -8l-6 -62l-151 3l-127 -2l-2 -210l120 -2l106 3l6 -7l-7 -62l-112 2l-114 -1l-1 -95l3 -133l127 -1l154 4l5 -8l-6 -62h-360z" />
<glyph unicode="F" horiz-adv-x="434" d="M93 0l5 193l-5 448h341l6 -8l-7 -64l-147 5l-112 -2l-2 -223l108 -2l104 3l6 -8l-7 -61l-111 3l-101 -1l-1 -83l4 -200h-81z" />
<glyph unicode="G" horiz-adv-x="600" d="M38 308q0 165 81 251.5t231 86.5q101 0 188 -45l-16 -76l-10 -2q-90 56 -174 56q-217 0 -217 -268q0 -129 50.5 -189.5t156.5 -60.5q50 0 130 24l2 75l-1 91l75 6l-2 -86l4 -140q-122 -38 -212 -38q-143 0 -214.5 81t-71.5 234z" />
<glyph unicode="H" horiz-adv-x="683" d="M93 0l5 193l-5 448h82l-3 -282l168 -3l172 3l-4 282h82l-4 -441l3 -200h-81l6 193l-1 96l-180 3l-162 -3l-1 -89l4 -200h-81z" />
<glyph unicode="I" horiz-adv-x="268" d="M93 0l5 193l-5 448h82l-5 -441l4 -200h-81z" />
<glyph unicode="J" horiz-adv-x="310" d="M6 582l5 59h206l-4 -429l2 -94q0 -76 -38 -125.5t-132 -94.5l-31 45v10q69 37 98 73t29 91v87l-4 372l-123 -1z" />
<glyph unicode="K" horiz-adv-x="546" d="M92 0l5 193l-5 448h82l-5 -441l4 -200h-81zM184 335v6l214 244l39 56h91l-259 -301q137 -177 277 -323l-1 -10q-31 -9 -76 -16l-9 5q-162 184 -276 339z" />
<glyph unicode="L" horiz-adv-x="416" d="M90 0l5 193l-5 448h82l-5 -441l3 -133h237l6 -7l-7 -60h-316z" />
<glyph unicode="M" horiz-adv-x="789" d="M60 0l67 641h91q23 -71 52 -148.5t64.5 -169.5t55.5 -145h6l146 371l33 92h90l63 -641h-72l-15 195l-34 319h-7l-178 -440h-66l-169 440h-8l-34 -313l-17 -201h-68z" />
<glyph unicode="N" horiz-adv-x="683" d="M93 0l5 190l-3 451h84l330 -513h7l-1 509l76 6l-6 -455l2 -188h-84l-331 513h-6l-1 -302l3 -211h-75z" />
<glyph unicode="O" horiz-adv-x="635" d="M38 315q0 160 74.5 246t213.5 86q131 0 201.5 -81t70.5 -233q0 -163 -75 -252t-213 -89q-130 0 -201 84t-71 239zM120 325q0 -266 195 -266q200 0 200 260q0 262 -196 262q-199 0 -199 -256z" />
<glyph unicode="P" horiz-adv-x="520" d="M93 0l5 193l-5 448l196 1q94 0 145 -48.5t51 -139.5q0 -107 -63.5 -168t-175.5 -61h-76v-25l4 -200h-81zM171 292l105 -2q127 20 127 157q0 124 -132 129l-97 -3z" />
<glyph unicode="Q" horiz-adv-x="639" d="M38 315q0 160 74.5 246t213.5 86q131 0 201.5 -81.5t70.5 -235.5q0 -129 -49 -212t-140 -112q144 -101 321 -134l3 -10q-18 -34 -37 -51l-7 -3q-201 52 -353 185l-24 -1q-132 0 -203 84t-71 239zM120 322q0 -263 197 -263q198 0 198 264q0 258 -197 258q-198 0 -198 -259 z" />
<glyph unicode="R" horiz-adv-x="555" d="M93 0l5 193l-5 448l196 1q94 0 145.5 -47.5t51.5 -135.5q0 -66 -34.5 -118.5t-97.5 -81.5q66 -109 166 -240l-1 -10q-36 -14 -74 -18l-11 7q-82 123 -147 240h-117v-38l4 -200h-81zM171 306l120 -3q112 32 112 149q0 119 -132 124l-97 -3z" />
<glyph unicode="S" horiz-adv-x="472" d="M42 38l10 82l11 5q68 -67 159 -67q58 0 93 32t35 76q0 27 -16 49t-42 37.5t-57 30t-62 31t-57 36.5t-42 50t-16 68q0 75 58.5 126.5t150.5 51.5q69 0 143 -30l-13 -77l-14 -4q-60 46 -126 46q-55 0 -88 -31.5t-33 -72.5q0 -35 30 -62t73 -46.5t86.5 -42t73.5 -60.5 t30 -89q0 -77 -60 -130.5t-155 -53.5q-92 0 -172 45z" />
<glyph unicode="T" horiz-adv-x="490" d="M22 579l6 62h435l6 -8l-6 -62l-112 6h-65l-3 -377l3 -200h-81l6 193l-5 384h-65l-114 -6z" />
<glyph unicode="U" horiz-adv-x="626" d="M74 234l1 87l-1 320h79l-3 -397q-2 -181 162 -181q166 0 164 171l-4 407h80l-1 -326l-1 -72q2 -118 -62 -184t-182 -66q-113 0 -173.5 63t-58.5 178z" />
<glyph unicode="V" horiz-adv-x="564" d="M15 641h82l15 -65l163 -495h6l180 491l16 69h80l-235 -641h-93z" />
<glyph unicode="W" horiz-adv-x="893" d="M21 641h80l11 -62l156 -490h7l138 390l-54 162h82l15 -69l158 -483h6l174 486l15 66h76l-230 -641h-83l-125 372h-7l-132 -372h-83z" />
<glyph unicode="X" horiz-adv-x="589" d="M23 0l217 324l-209 317h97l26 -51l138 -205l139 206l26 50h87l-203 -307l219 -334h-97l-28 52l-148 219l-153 -224l-26 -47h-85z" />
<glyph unicode="Y" horiz-adv-x="528" d="M15 641h86l13 -36l140 -288h8l153 286l15 38h85l-222 -411l-1 -43l3 -187h-81l6 187l-1 43z" />
<glyph unicode="Z" horiz-adv-x="528" d="M31 -3v59l360 519h-247l-96 -7l-5 6l6 68l388 -1l49 1v-60l-359 -517h266l95 7l4 -6l-7 -68l-116 2h-281z" />
<glyph unicode="[" horiz-adv-x="288" d="M98 -119l4 378l-4 378l179 10l5 -6v-38l-119 -11v-667l119 -11v-38l-5 -5z" />
<glyph unicode="\" horiz-adv-x="287" d="M6 669l6 9h54l205 -783l-5 -8h-56z" />
<glyph unicode="]" horiz-adv-x="288" d="M7 -86l118 12v667l-118 10v39l5 5l178 -10l-3 -378l3 -378l-178 -10l-5 5v38z" />
<glyph unicode="^" horiz-adv-x="424" d="M20 130l158 357l8 5h66l152 -358l-6 -8l-46 -11l-132 317h-6l-140 -315l-8 -5z" />
<glyph unicode="_" horiz-adv-x="450" d="M-15 -134l5 46h469l6 -6l-5 -47h-469z" />
<glyph unicode="`" horiz-adv-x="389" d="M93 654l30 42l9 1q74 -71 164 -145l-22 -32l-9 -1q-71 50 -170 127z" />
<glyph unicode="a" horiz-adv-x="462" d="M42 118q0 85 93 107l162 38l1 65q0 39 -20.5 60t-58.5 21q-65 0 -141 -66l-8 4l-10 57q83 62 171 62q65 0 102.5 -32t37.5 -88q0 -18 -6 -124t-6 -123q0 -22 7 -30.5t24 -8.5q15 0 34 6l8 -7l-8 -45q-29 -17 -57 -20q-31 3 -49.5 22t-19.5 52h-7q-54 -55 -107 -75 q-67 0 -104.5 33.5t-37.5 91.5zM113 129q0 -33 18.5 -51.5t49.5 -18.5q55 0 112 71l3 82l-145 -35q-38 -11 -38 -48z" />
<glyph unicode="b" horiz-adv-x="512" d="M83 -3l7 195l-6 503l79 7l-3 -307h6q61 51 126 68q87 0 132.5 -57.5t45.5 -162.5q0 -120 -58 -185.5t-162 -65.5q-48 0 -98 22l-55 -25zM158 201l3 -119q48 -32 96 -32q65 0 102 47t36 137q-2 79 -30 121.5t-80 42.5q-61 0 -126 -71z" />
<glyph unicode="c" horiz-adv-x="385" d="M42 226q0 111 54.5 175.5t148.5 64.5q67 0 123 -27l-14 -69l-9 -3q-52 34 -103 34q-59 0 -92 -45t-33 -126t34.5 -127.5t95.5 -46.5q57 0 112 34l9 -5l-9 -67q-61 -26 -122 -26q-91 0 -143 62.5t-52 171.5z" />
<glyph unicode="d" horiz-adv-x="516" d="M41 228q0 113 58.5 175.5t163.5 62.5q45 0 88 -10l-2 239l79 7l-6 -501l2 -103q1 -21 7 -29.5t22 -8.5t34 6l8 -7l-7 -45q-29 -17 -57 -20q-62 6 -70 70h-7q-56 -49 -109 -69q-99 0 -151.5 60.5t-52.5 172.5zM115 235q1 -83 34.5 -128t91.5 -45q57 0 110 61l2 72l-2 190 q-55 25 -98 25q-65 0 -102 -45t-36 -130z" />
<glyph unicode="e" horiz-adv-x="452" d="M42 226q0 111 58 175t157 64q75 0 116.5 -45.5t41.5 -126.5q0 -22 -2 -46l-17 -13l-279 -1v-3q0 -83 34.5 -128.5t102.5 -45.5q69 0 134 45l9 -5l-8 -67q-72 -37 -139 -37q-98 0 -153 62.5t-55 171.5zM122 286l220 6l2 12q0 52 -25.5 78.5t-68.5 26.5q-51 0 -84.5 -32 t-43.5 -91z" />
<glyph unicode="f" horiz-adv-x="303" d="M36 410l5 47h68l-1 80q-1 81 42 124t122 43q36 0 78 -9l-6 -62l-6 -5q-36 18 -73 18q-81 0 -82 -97l-1 -92h120l3 -6l-5 -47h-119l-2 -203l5 -201h-79l6 195l-2 209h-69z" />
<glyph unicode="g" horiz-adv-x="487" d="M55 -62q24 48 88 87v5q-75 23 -75 80q21 35 61 61v4q-65 40 -65 128q0 75 48.5 117.5t129.5 42.5q52 0 90 -18q69 13 145 34l8 -6v-54q-31 -9 -92 -21l-2 -4q22 -35 22 -85q0 -73 -48.5 -116t-131.5 -43q-33 0 -62 8q-29 -22 -29 -39q0 -20 30.5 -30.5t74 -16t87.5 -14.5 t74.5 -33.5t30.5 -65.5q0 -64 -62.5 -108t-152.5 -44q-80 0 -124.5 36.5t-44.5 94.5zM125 -70q0 -29 28.5 -48t79.5 -19q58 0 97 23.5t39 57.5q0 12 -4.5 21.5t-15 16t-20.5 11t-28.5 8.5t-30 6.5t-35 5.5t-33.5 5q-77 -47 -77 -88zM135 306q0 -48 26.5 -75t75.5 -27 q50 0 77.5 28t27.5 78q0 48 -26 74t-75 26q-50 0 -78 -27t-28 -77z" />
<glyph unicode="h" horiz-adv-x="520" d="M84 0l5 195l-4 500l79 7l-4 -309h6q62 55 127 71q75 0 114.5 -35t38.5 -100l-2 -130l3 -199h-80l6 311q1 40 -19.5 63.5t-58.5 23.5q-67 0 -135 -71l-2 -126l5 -201h-79z" />
<glyph unicode="i" horiz-adv-x="238" d="M75 616q0 21 12.5 34t34.5 13q20 0 32 -12t12 -32q0 -23 -12.5 -36t-34.5 -13q-44 0 -44 46zM79 0l5 194l-4 259l79 7l-6 -259l5 -201h-79z" />
<glyph unicode="j" horiz-adv-x="265" d="M5 411l5 46h94l74 3l3 -2l-6 -257l4 -182q0 -78 -31 -125.5t-107 -87.5l-30 36v9q53 32 73.5 67.5t20.5 96.5l2 179l-4 210h-92zM80 616q0 21 12.5 34t34.5 13q20 0 32 -12t12 -32q0 -23 -12.5 -36t-34.5 -13q-44 0 -44 46z" />
<glyph unicode="k" horiz-adv-x="456" d="M84 0l5 195l-4 500l79 7l-6 -501l5 -201h-79zM177 241v7l143 169l27 41h89l-180 -210q69 -93 192 -234v-9q-16 -5 -71 -14l-10 4q-106 125 -190 246z" />
<glyph unicode="l" horiz-adv-x="247" d="M84 0l6 195l-5 500l79 7l-6 -501l5 -201h-79z" />
<glyph unicode="m" horiz-adv-x="796" d="M79 0l5 194l-4 259l76 7l-1 -67h7q61 55 126 71q114 0 143 -76h6q63 57 136 76q75 0 114 -35t38 -100l-1 -130l3 -199h-80l6 311q1 41 -19.5 64t-59.5 23q-64 0 -133 -69l-2 -130l4 -199h-80l5 311q1 41 -19 64t-59 23q-65 0 -135 -72l-1 -125l4 -201h-79z" />
<glyph unicode="n" horiz-adv-x="515" d="M79 0l5 194l-4 259l76 7l-1 -67h6q62 55 127 71q76 0 115 -35t38 -100l-2 -130l4 -199h-80l5 311q1 41 -19 64t-59 23q-66 0 -135 -71l-1 -126l4 -201h-79z" />
<glyph unicode="o" horiz-adv-x="491" d="M42 223q0 116 54.5 179.5t154.5 63.5q93 0 144.5 -60.5t51.5 -170.5q0 -116 -54 -179.5t-154 -63.5q-94 0 -145.5 60.5t-51.5 170.5zM117 241q0 -192 127 -192q129 0 129 168q0 95 -32.5 144t-94.5 49q-63 0 -96 -43t-33 -126z" />
<glyph unicode="p" horiz-adv-x="506" d="M79 -185l6 379l-6 259l77 7l-1 -65h6q63 52 126 68q87 0 132.5 -57.5t45.5 -162.5q0 -120 -58.5 -185.5t-164.5 -65.5q-44 0 -87 9l2 -186h-78zM153 201l1 -125q49 -26 98 -26q65 0 102 47t36 137q-2 79 -30 121.5t-80 42.5q-61 0 -126 -71z" />
<glyph unicode="q" horiz-adv-x="506" d="M41 225q0 116 58 178.5t162 62.5q56 0 120 -18l39 16l8 -5l-6 -260l5 -384h-78l3 220v19h-8q-50 -40 -103 -59q-97 0 -148.5 60.5t-51.5 169.5zM115 232q1 -81 33.5 -125.5t88.5 -44.5q58 0 115 61l1 68l-2 191q-54 27 -99 27q-64 0 -101 -45t-36 -132z" />
<glyph unicode="r" horiz-adv-x="323" d="M79 0l6 194l-5 259l76 7l-1 -94h6q53 93 128 93q12 0 26 -2v-77l-9 -3q-17 5 -36 5q-65 0 -116 -111l-1 -70l5 -201h-79z" />
<glyph unicode="s" horiz-adv-x="370" d="M32 25l10 68l9 6q58 -50 122 -50q37 0 60 20.5t23 48.5q0 25 -21.5 43.5t-52 31.5t-61.5 28.5t-52.5 44t-21.5 67.5q0 58 42.5 95t115.5 37q57 0 110 -22l-11 -65l-12 -3q-50 33 -96 33q-34 0 -55 -19t-21 -46q0 -25 21.5 -43.5t52 -31.5t61 -28t52 -42.5t21.5 -65.5 q0 -58 -43.5 -99t-119.5 -41q-70 0 -133 33z" />
<glyph unicode="t" horiz-adv-x="319" d="M25 410l5 47h61v74l69 30l8 -7l-2 -97h136l4 -6l-5 -47h-135l-5 -271q-1 -40 14 -56t49 -16q33 0 72 20l9 -6l-8 -52q-54 -25 -100 -29q-57 11 -82 42t-25 90l3 71l-1 207h-63z" />
<glyph unicode="u" horiz-adv-x="511" d="M73 453l80 7l-6 -312q-1 -41 19 -64t58 -23q61 0 124 61v331l76 7l-6 -362q0 -38 30 -38q16 0 35 6l7 -7l-7 -45q-29 -17 -57 -20q-61 6 -69 70h-8q-60 -54 -124 -70q-74 0 -112.5 35t-37.5 100l1 127z" />
<glyph unicode="v" horiz-adv-x="425" d="M21 456l74 5l13 -61l99 -321h5l117 317l16 62h71l-168 -458h-85z" />
<glyph unicode="w" horiz-adv-x="676" d="M21 456l73 5l11 -59l84 -316h5l97 312l16 60h78l11 -56l84 -316h5l98 312l14 60h70l-151 -458h-76l-95 355h-7l-111 -355h-78z" />
<glyph unicode="x" horiz-adv-x="435" d="M23 0l147 233l-146 222l85 6l19 -43l95 -139l87 138l23 41h74l-143 -224l153 -230l-84 -8l-22 47l-98 145l-96 -149l-20 -39h-74z" />
<glyph unicode="y" horiz-adv-x="426" d="M-22 -141l2 10q76 14 121 44t77 87l-169 456l77 5l15 -59l109 -313h7l111 305l15 64h73l-163 -441q-32 -89 -85 -137t-145 -71h-8q-24 24 -37 50z" />
<glyph unicode="z" horiz-adv-x="412" d="M33 -2v48l257 357h-173l-71 -8l-6 7l7 58l82 -2h205l38 1l2 -48l-256 -355h181l75 7l5 -7l-7 -58l-92 2h-200z" />
<glyph unicode="{" horiz-adv-x="288" d="M45 240v41q81 16 81 87q0 20 -10 81.5t-10 92.5q0 113 115 113q22 0 52 -7l4 -7l-8 -43q-23 5 -37 5q-62 0 -62 -73q0 -25 10.5 -83.5t10.5 -80.5q0 -74 -67 -103v-4q67 -29 67 -102q0 -23 -10.5 -81t-10.5 -83q0 -74 62 -74q14 0 37 5l8 -43l-4 -7q-25 -6 -52 -6 q-115 0 -115 112q0 31 10 92t10 82q0 73 -81 86z" />
<glyph unicode="|" horiz-adv-x="314" d="M125 -254v537l1 510l57 4l5 -5l-1 -504v-547l-55 -3z" />
<glyph unicode="}" horiz-adv-x="288" d="M12 -119l7 43q23 -5 37 -5q62 0 62 74q0 25 -10 83.5t-10 79.5q0 74 66 103v4q-66 29 -66 102q0 23 10 81t10 84q0 74 -62 74q-14 0 -37 -5l-7 42l4 7q22 7 51 7q115 0 115 -113q0 -31 -10 -92t-10 -81q0 -72 81 -87v-41q-81 -15 -81 -87q0 -20 10 -81.5t10 -92.5 q0 -112 -115 -112q-27 0 -51 6z" />
<glyph unicode="~" d="M50 233v9l73 73l10 4q23 -3 103 -26t97 -23q4 0 7.5 1t8 4t8 5.5t9.5 8t10 9t12 11t13 12.5h8l22 -27v-9l-73 -74l-10 -2q-25 3 -104 25.5t-95 22.5q-5 0 -10.5 -2t-13 -8t-12 -10t-16 -15t-16.5 -16h-9z" />
<glyph unicode="&#xa1;" horiz-adv-x="256" d="M82 -187l22 432l47 5l9 -9v-425l-8 -10l-61 -3zM95 420q0 22 12.5 35t33.5 13q45 0 45 -46q0 -21 -13 -34t-35 -13q-20 0 -31.5 12t-11.5 33z" />
<glyph unicode="&#xa2;" horiz-adv-x="383" d="M39 266q0 106 48 170t131 70l11 146h39l8 -8l-11 -139q54 -7 97 -34l-12 -51l-9 -1q-36 25 -79 32l-29 -361h6q60 0 118 35l8 -4l-7 -48q-59 -36 -129 -37l-13 -155h-38l-8 7l12 153q-67 15 -105 74.5t-38 150.5zM101 272q0 -136 86 -172l27 351q-53 -8 -83 -55.5 t-30 -123.5z" />
<glyph unicode="&#xa3;" horiz-adv-x="416" d="M24 6l5 41q71 15 71 107v137h-71l-4 6l5 38h70v96q0 78 42 120t121 42q46 0 108 -17l-5 -61l-5 -5q-54 32 -103 32q-92 0 -92 -101v-106h127l4 -5l-4 -39h-128v-130q0 -68 -40 -101v-3h164l91 7l4 -7l-5 -59l-100 2h-250z" />
<glyph unicode="&#xa4;" horiz-adv-x="435" d="M28 499l1 8l33 36h9l64 -68q35 27 79 27q42 0 77 -25l63 67l9 1l35 -35v-9l-67 -63q27 -34 27 -80q0 -44 -26 -78l68 -62l1 -9l-35 -36l-8 1l-63 67q-36 -28 -81 -28q-42 0 -77 27l-63 -68h-8l-37 35l1 8l67 63q-27 35 -27 80q0 42 26 78zM117 358q0 -42 28 -69.5 t69 -27.5q42 0 70 27.5t28 69.5q0 41 -28 69t-70 28q-40 0 -68.5 -28.5t-28.5 -68.5z" />
<glyph unicode="&#xa5;" horiz-adv-x="481" d="M21 126l3 35h186v11l-44 82h-141l-4 5l3 35h120l-109 203h71l11 -28l122 -220h5l132 218l14 30h70l-119 -203h119l4 -4l-3 -36h-144l-46 -78v-15h189l4 -5l-3 -35h-191l2 -121h-65l3 121h-185z" />
<glyph unicode="&#xa6;" horiz-adv-x="314" d="M125 153l55 7l7 -9v-410l-55 -3l-7 8v407zM125 372v421l58 4l5 -5l-1 -419l-55 -7z" />
<glyph unicode="&#xa7;" horiz-adv-x="420" d="M35 -69l10 68l9 6q59 -54 122 -54q41 0 66 22t25 50q0 25 -23 48t-55.5 43.5t-65 43.5t-55.5 55t-23 70q0 41 25 76.5t68 57.5q-47 44 -47 94q0 56 46.5 95.5t115.5 39.5q58 0 110 -21l-11 -68l-11 -3q-54 38 -100 38q-36 0 -59.5 -21.5t-23.5 -48.5q0 -24 23 -47 t55.5 -43.5t65 -43t55.5 -54.5t23 -70q0 -41 -25 -76t-68 -56q48 -45 48 -97q0 -56 -47.5 -96t-119.5 -40t-133 32zM112 297q0 -15 6.5 -29t22.5 -28t27.5 -22.5t37.5 -25.5t36 -24q71 31 71 80q0 16 -6 30t-23.5 30t-26.5 23t-38 26.5t-35 23.5q-72 -34 -72 -84z" />
<glyph unicode="&#xa8;" horiz-adv-x="389" d="M73 606q0 20 12 32.5t33 12.5q20 0 31 -11.5t11 -30.5q0 -21 -12 -34t-33 -13q-42 0 -42 44zM230 606q0 20 12 32.5t33 12.5q19 0 30.5 -11.5t11.5 -30.5q0 -21 -12 -34t-33 -13q-42 0 -42 44z" />
<glyph unicode="&#xa9;" horiz-adv-x="685" d="M46 293q0 137 81.5 221t214.5 84t214 -84t81 -221t-81 -221t-214 -84t-214.5 84t-81.5 221zM80 293q0 -122 72 -196.5t190 -74.5q117 0 189.5 74.5t72.5 196.5t-72.5 196.5t-189.5 74.5q-118 0 -190 -74.5t-72 -196.5zM195 294q0 82 42 126.5t120 44.5q48 0 94 -23 l-12 -45l-5 -2q-34 23 -79 23q-102 0 -102 -119q0 -126 102 -126q44 0 85 23l6 -2l-5 -45q-43 -23 -90 -23q-77 0 -116.5 43t-39.5 125z" />
<glyph unicode="&#xaa;" horiz-adv-x="320" d="M34 421q0 62 65 74l101 19l1 37q0 47 -47 47q-39 0 -91 -37l-6 2l-9 47q58 39 118 39q49 0 75 -22t26 -63q0 -10 -3 -76.5t-3 -74.5q0 -27 16 -27q12 0 19 6l6 -4l-8 -40q-18 -15 -42 -15q-22 0 -33 11t-16 37h-2q-37 -40 -75 -49q-43 1 -67.5 24.5t-24.5 64.5zM98 427 q0 -20 11 -32t30 -12q30 0 58 36l1 60l-70 -16q-30 -6 -30 -36z" />
<glyph unicode="&#xab;" horiz-adv-x="398" d="M20 216v16l145 174l39 -22l1 -10l-124 -149l124 -149l-1 -9l-39 -22zM186 216v16l145 174l39 -22l1 -10l-124 -149l124 -149l-1 -9l-39 -22z" />
<glyph unicode="&#xac;" d="M29 243l4 50h385l6 -7v-226l-50 -4l-6 6v175h-334z" />
<glyph unicode="&#xad;" horiz-adv-x="307" d="M29 216v50l242 34l7 -7v-50l-241 -35z" />
<glyph unicode="&#xae;" horiz-adv-x="439" d="M38 521q0 82 50 131.5t132 49.5t131.5 -49.5t49.5 -131.5t-49.5 -132t-131.5 -50t-132 50t-50 132zM65 521q0 -71 42.5 -113.5t113.5 -42.5q70 0 112.5 43t42.5 113t-42.5 112.5t-112.5 42.5q-71 0 -113.5 -42.5t-42.5 -112.5zM154 431l1 58l-1 135h73q65 0 65 -57 q0 -39 -39 -59q18 -29 52 -70l-1 -4q-13 -4 -35 -6l-4 3q-24 35 -43 68h-34v-7l2 -61h-36zM189 529l36 -2q30 11 30 37q0 32 -39 33l-26 -1z" />
<glyph unicode="&#xaf;" horiz-adv-x="389" d="M48 588l5 46h283l6 -5l-5 -47h-283z" />
<glyph unicode="&#xb0;" horiz-adv-x="293" d="M20 523q0 52 37 88t90 36t89.5 -36t36.5 -88t-36.5 -88.5t-89.5 -36.5t-90 36.5t-37 88.5zM60 523q0 -35 25.5 -60t60.5 -25q36 0 61.5 25t25.5 60t-25.5 60t-61.5 25q-35 0 -60.5 -25t-25.5 -60z" />
<glyph unicode="&#xb1;" d="M31 -86l5 50h407l6 -6l-5 -49h-407zM31 243l5 50h176v177l50 5l6 -7v-175h175l6 -6l-4 -50h-177v-177l-49 -4l-7 6v175h-175z" />
<glyph unicode="&#xb2;" horiz-adv-x="349" d="M39 325v42l98 114q41 50 58 76t17 47q0 19 -13.5 31.5t-37.5 12.5q-53 0 -98 -51h-9l-11 53q65 55 134 55q46 0 76.5 -23.5t30.5 -62.5q0 -29 -19.5 -63t-65.5 -91l-67 -85l2 -2h123l64 3l3 -6l-8 -55l-80 3h-166l-27 -1z" />
<glyph unicode="&#xb3;" horiz-adv-x="308" d="M30 667q51 39 112 39q49 0 78.5 -23.5t29.5 -62.5q0 -27 -15.5 -52t-46.5 -39v-4q76 -20 76 -91q0 -52 -43.5 -83.5t-114.5 -31.5q-39 0 -68 7l-5 50l6 5q36 -9 68 -9q41 0 64.5 17t23.5 46q0 55 -70 57h-43l-4 5l1 47h30q25 0 47.5 18.5t22.5 44.5q0 21 -14 32.5 t-38 11.5q-34 0 -79 -31h-7z" />
<glyph unicode="&#xb4;" horiz-adv-x="389" d="M94 552q98 80 164 145l9 -1l30 -42l-2 -8q-99 -77 -170 -127l-9 1z" />
<glyph unicode="&#xb5;" horiz-adv-x="511" d="M73 -185l3 379l-3 259l75 7v-331q9 -68 78 -68q59 0 122 61v331l76 7l-5 -357q-1 -50 28 -50q15 0 34 12l8 -6l-10 -45q-25 -19 -58 -19q-55 0 -68 65h-8q-61 -53 -129 -66q-39 0 -68 16v-195h-75z" />
<glyph unicode="&#xb6;" horiz-adv-x="485" d="M38 443q0 94 57 146t162 52h196l6 -8l-6 -55h-74l-3 -395l1 -54q0 -66 -36.5 -115t-122.5 -91l-23 36v10q56 35 81.5 71.5t25.5 83.5v46l-1 409h-59q-58 -5 -89.5 -41.5t-31.5 -97.5q0 -124 134 -165l-25 -45q-92 18 -142 72t-50 141z" />
<glyph unicode="&#xb7;" horiz-adv-x="229" d="M69 244q0 22 12.5 35t34.5 13q20 0 32 -12t12 -33q0 -22 -12.5 -35t-34.5 -13q-44 0 -44 45z" />
<glyph unicode="&#xb8;" horiz-adv-x="389" d="M119 -162l7 40l5 1q28 -31 57 -31q31 0 31 27q0 13 -21 25l-48 29l25 90h46l-21 -70l34 -20q38 -22 38 -56q0 -29 -22.5 -47.5t-58.5 -18.5q-43 0 -72 31z" />
<glyph unicode="&#xb9;" horiz-adv-x="258" d="M14 610v56l146 41l9 -9l-2 -240l2 -135h-71l2 126v179l-80 -21z" />
<glyph unicode="&#xba;" horiz-adv-x="339" d="M31 486q0 79 37 121t106 42q66 0 100 -40t34 -115q0 -78 -36.5 -120.5t-105.5 -42.5q-65 0 -100 40t-35 115zM99 493q0 -112 71 -112q72 0 72 106q0 111 -72 111q-71 0 -71 -105z" />
<glyph unicode="&#xbb;" horiz-adv-x="391" d="M22 78l124 149l-124 149l1 9l39 22l145 -171v-16l-145 -174l-39 22zM188 78l124 149l-124 149l1 9l39 22l145 -171v-16l-145 -174l-39 22z" />
<glyph unicode="&#xbc;" horiz-adv-x="702" d="M14 550v56l146 41l9 -9l-2 -240l2 -135h-71l2 126v179l-80 -21zM49 -59l471 737l35 -20l6 -14l-472 -735l-35 20zM377 105v44l164 230h65l-1 -226h58l5 -6l-4 -49l-58 3l4 -95l-4 -6l-56 -3l-4 4l1 100h-114l-51 -3zM439 153h109v147h-5z" />
<glyph unicode="&#xbd;" horiz-adv-x="716" d="M14 550v56l146 41l9 -9l-2 -240l2 -135h-71l2 126v179l-80 -21zM49 -59l471 737l35 -20l6 -14l-472 -735l-35 20zM406 2v42l98 114q41 50 58 76t17 47q0 19 -13.5 31.5t-37.5 12.5q-53 0 -98 -51h-9l-11 53q65 55 134 55q46 0 76.5 -23.5t30.5 -62.5q0 -29 -19.5 -63 t-65.5 -91l-67 -85l2 -2h123l64 3l3 -6l-8 -55l-80 3h-166l-27 -1z" />
<glyph unicode="&#xbe;" horiz-adv-x="739" d="M30 607q51 39 112 39q49 0 78.5 -23.5t29.5 -62.5q0 -27 -15.5 -52t-46.5 -39v-4q76 -20 76 -91q0 -52 -43.5 -83.5t-114.5 -31.5q-39 0 -68 7l-5 50l6 5q36 -9 68 -9q41 0 64.5 17t23.5 46q0 55 -70 57h-43l-4 5l1 47h30q25 0 47.5 18.5t22.5 44.5q0 21 -14 32.5 t-38 11.5q-34 0 -79 -31h-7zM86 -59l471 737l35 -20l6 -14l-472 -735l-35 20zM414 105v44l164 230h65l-1 -226h58l5 -6l-4 -49l-58 3l4 -95l-4 -6l-56 -3l-4 4l1 100h-114l-51 -3zM476 153h109v147h-5z" />
<glyph unicode="&#xbf;" horiz-adv-x="331" d="M0 -41q0 82 84 134l83 54l2 4l-6 96l56 7l7 -7l8 -115l-5 -10l-96 -57q-61 -36 -61 -94q0 -100 197 -112l6 -8l-15 -44l-10 -5q-120 8 -185 48.5t-65 108.5zM144 420q0 22 12.5 35t34.5 13q44 0 44 -46q0 -21 -12.5 -34t-34.5 -13q-20 0 -32 12t-12 33z" />
<glyph unicode="&#xc0;" horiz-adv-x="578" d="M14 0l236 641h93l214 -641h-83l-14 64l-36 110l-145 3l-130 -3l-39 -106l-16 -68h-80zM174 242l112 -2l115 2l-104 316h-7zM180 815l20 47l9 2q89 -52 192 -103l-14 -36l-10 -4q-106 45 -195 86z" />
<glyph unicode="&#xc1;" horiz-adv-x="578" d="M14 0l236 641h93l214 -641h-83l-14 64l-36 110l-145 3l-130 -3l-39 -106l-16 -68h-80zM174 242l112 -2l115 2l-104 316h-7zM206 760q103 51 192 103l9 -2l20 -47l-2 -8q-89 -41 -195 -86l-10 4z" />
<glyph unicode="&#xc2;" horiz-adv-x="578" d="M14 0l236 641h93l214 -641h-83l-14 64l-36 110l-145 3l-130 -3l-39 -106l-16 -68h-80zM162 767q67 46 116 91h23q45 -40 117 -91l-16 -34h-9q-56 34 -103 66q-39 -27 -102 -66h-10zM174 242l112 -2l115 2l-104 316h-7z" />
<glyph unicode="&#xc3;" horiz-adv-x="578" d="M14 0l236 641h93l214 -641h-83l-14 64l-36 110l-145 3l-130 -3l-39 -106l-16 -68h-80zM132 760v7l61 69l10 3q21 -2 81.5 -19t73.5 -17q4 0 9 2t10.5 7t10 9.5l13 13l14.5 14.5h8l24 -25v-8l-61 -69l-10 -3q-21 2 -81.5 19.5t-73.5 17.5q-4 0 -9 -2.5t-10.5 -7.5 t-10 -9.5t-12.5 -13t-14 -14.5h-9zM174 242l112 -2l115 2l-104 316h-7z" />
<glyph unicode="&#xc4;" horiz-adv-x="578" d="M14 0l236 641h93l214 -641h-83l-14 64l-36 110l-145 3l-130 -3l-39 -106l-16 -68h-80zM169 788q0 20 12 32.5t33 12.5q20 0 31 -11.5t11 -30.5q0 -21 -12 -34t-33 -13q-42 0 -42 44zM174 242l112 -2l115 2l-104 316h-7zM326 788q0 20 12 32.5t33 12.5q19 0 30.5 -11.5 t11.5 -30.5q0 -21 -12 -34t-33 -13q-42 0 -42 44z" />
<glyph unicode="&#xc5;" horiz-adv-x="578" d="M14 0l236 641h93l214 -641h-83l-14 64l-36 110l-145 3l-130 -3l-39 -106l-16 -68h-80zM174 242l112 -2l115 2l-104 316h-7zM205 796q0 38 23 60.5t62 22.5t61 -22.5t22 -58.5q0 -39 -24.5 -61.5t-61.5 -22.5q-36 0 -59 21.5t-23 60.5zM243 797q0 -22 12.5 -33.5 t33.5 -11.5q45 0 45 43q0 45 -46 45q-45 0 -45 -43z" />
<glyph unicode="&#xc6;" horiz-adv-x="807" d="M-16 0l338 641h373l6 -8l-8 -62l-162 4h-97l35 -237l215 45l7 -6l4 -58l-217 -43l31 -211h113l164 5l6 -8l-7 -62h-348l-5 64l-29 195l-238 -54l-73 -137l-25 -68h-83zM205 281l188 41l-35 236h-6z" />
<glyph unicode="&#xc7;" horiz-adv-x="520" d="M38 315q0 159 74 245t210 86q101 0 175 -48l-16 -73l-9 -2q-67 56 -154 56q-95 0 -146 -65.5t-51 -191.5q0 -127 51 -194t144 -67q92 0 167 61l10 -5l-7 -76q-76 -43 -156 -47l-13 -45l34 -20q38 -22 38 -56q0 -29 -22.5 -47.5t-58.5 -18.5q-43 0 -72 31l7 40l5 1 q28 -31 57 -31q31 0 31 27q0 13 -21 25l-48 29l18 65q-118 8 -182.5 91t-64.5 230z" />
<glyph unicode="&#xc8;" horiz-adv-x="482" d="M93 0l5 193l-5 448h361l5 -8l-7 -62l-151 3l-127 -2l-2 -210l120 -2l106 3l5 -7l-6 -62l-112 2l-114 -1l-1 -95l3 -133l128 -1l153 4l5 -8l-6 -62h-360zM164 815l20 47l9 2q89 -52 192 -103l-14 -36l-10 -4q-106 45 -195 86z" />
<glyph unicode="&#xc9;" horiz-adv-x="482" d="M93 0l5 193l-5 448h361l5 -8l-7 -62l-151 3l-127 -2l-2 -210l120 -2l106 3l5 -7l-6 -62l-112 2l-114 -1l-1 -95l3 -133l128 -1l153 4l5 -8l-6 -62h-360zM191 760q103 51 192 103l9 -2l20 -47l-2 -8q-89 -41 -195 -86l-10 4z" />
<glyph unicode="&#xca;" horiz-adv-x="482" d="M93 0l5 193l-5 448h361l5 -8l-7 -62l-151 3l-127 -2l-2 -210l120 -2l106 3l5 -7l-6 -62l-112 2l-114 -1l-1 -95l3 -133l128 -1l153 4l5 -8l-6 -62h-360zM146 767q67 46 116 91h23q45 -40 117 -91l-16 -34h-9q-56 34 -103 66q-39 -27 -102 -66h-10z" />
<glyph unicode="&#xcb;" horiz-adv-x="482" d="M93 0l5 193l-5 448h361l5 -8l-7 -62l-151 3l-127 -2l-2 -210l120 -2l106 3l5 -7l-6 -62l-112 2l-114 -1l-1 -95l3 -133l128 -1l153 4l5 -8l-6 -62h-360zM153 788q0 20 12 32.5t33 12.5q20 0 31 -11.5t11 -30.5q0 -21 -12 -34t-33 -13q-42 0 -42 44zM310 788q0 20 12 32.5 t33 12.5q19 0 30.5 -11.5t11.5 -30.5q0 -21 -12 -34t-33 -13q-42 0 -42 44z" />
<glyph unicode="&#xcc;" horiz-adv-x="268" d="M24 815l20 47l9 2q89 -52 192 -103l-14 -36l-10 -4q-106 45 -195 86zM93 0l5 193l-5 448h82l-5 -441l4 -200h-81z" />
<glyph unicode="&#xcd;" horiz-adv-x="268" d="M50 760q103 51 192 103l9 -2l20 -47l-2 -8q-89 -41 -195 -86l-10 4zM93 0l5 193l-5 448h82l-5 -441l4 -200h-81z" />
<glyph unicode="&#xce;" horiz-adv-x="268" d="M6 767q67 46 116 91h23q45 -40 117 -91l-16 -34h-9q-56 34 -103 66q-39 -27 -102 -66h-10zM93 0l5 193l-5 448h82l-5 -441l4 -200h-81z" />
<glyph unicode="&#xd0;" horiz-adv-x="668" d="M12 303l3 50h103l-4 288h1l231 4q137 0 210.5 -78t73.5 -224q0 -169 -79.5 -259t-227.5 -90q-98 0 -208 6h-1l6 193l-1 103h-103zM192 200l2 -133q72 -6 142 -6q103 0 157.5 66.5t54.5 198.5q0 252 -207 252q-66 0 -146 -4l-2 -221h145l4 -7l-3 -50h-146z" />
<glyph unicode="&#xd1;" horiz-adv-x="683" d="M93 0l5 190l-3 451h84l331 -513h6l-1 509l76 6l-6 -455l2 -188h-84l-330 513h-7l-1 -302l4 -211h-76zM181 760v7l61 69l10 3q21 -2 81.5 -19t73.5 -17q4 0 9 2t10.5 7t10 9.5l13 13l14.5 14.5h8l24 -25v-8l-61 -69l-10 -3q-21 2 -81.5 19.5t-73.5 17.5q-4 0 -9 -2.5 t-10.5 -7.5t-10 -9.5t-12.5 -13t-14 -14.5h-9z" />
<glyph unicode="&#xd2;" horiz-adv-x="635" d="M38 315q0 160 74.5 246t213.5 86q131 0 201.5 -81t70.5 -233q0 -163 -75 -252t-213 -89q-130 0 -201 84t-71 239zM120 325q0 -266 195 -266q200 0 200 260q0 262 -196 262q-199 0 -199 -256zM208 815l20 47l9 2q89 -52 192 -103l-14 -36l-10 -4q-106 45 -195 86z" />
<glyph unicode="&#xd3;" horiz-adv-x="635" d="M38 315q0 160 74.5 246t213.5 86q131 0 201.5 -81t70.5 -233q0 -163 -75 -252t-213 -89q-130 0 -201 84t-71 239zM120 325q0 -266 195 -266q200 0 200 260q0 262 -196 262q-199 0 -199 -256zM235 760q103 51 192 103l9 -2l20 -47l-2 -8q-89 -41 -195 -86l-10 4z" />
<glyph unicode="&#xd4;" horiz-adv-x="635" d="M38 315q0 160 74.5 246t213.5 86q131 0 201.5 -81t70.5 -233q0 -163 -75 -252t-213 -89q-130 0 -201 84t-71 239zM120 325q0 -266 195 -266q200 0 200 260q0 262 -196 262q-199 0 -199 -256zM190 767q67 46 116 91h23q45 -40 117 -91l-16 -34h-9q-56 34 -103 66 q-39 -27 -102 -66h-10z" />
<glyph unicode="&#xd5;" horiz-adv-x="635" d="M38 315q0 160 74.5 246t213.5 86q131 0 201.5 -81t70.5 -233q0 -163 -75 -252t-213 -89q-130 0 -201 84t-71 239zM120 325q0 -266 195 -266q200 0 200 260q0 262 -196 262q-199 0 -199 -256zM161 760v7l61 69l10 3q21 -2 81.5 -19t73.5 -17q4 0 9 2t10.5 7t10 9.5l13 13 l14.5 14.5h8l24 -25v-8l-61 -69l-10 -3q-21 2 -81.5 19.5t-73.5 17.5q-4 0 -9 -2.5t-10.5 -7.5t-10 -9.5t-12.5 -13t-14 -14.5h-9z" />
<glyph unicode="&#xd7;" d="M77 133v8l124 124l-124 123v10l37 32l126 -125l125 125l38 -32v-10l-123 -123l123 -123v-9l-38 -33l-125 125l-126 -125z" />
<glyph unicode="&#xd8;" horiz-adv-x="635" d="M38 315q0 160 74.5 246t213.5 86q57 0 102 -15l43 92l48 -18l5 -10l-42 -90q116 -76 116 -273q0 -163 -75 -252t-213 -89q-60 0 -107 18l-53 -112l-49 17l-4 8l54 115q-113 79 -113 277zM120 325q0 -153 63 -217l215 460q-33 13 -79 13q-199 0 -199 -256zM232 74 q36 -15 83 -15q200 0 200 260q0 154 -66 217z" />
<glyph unicode="&#xd9;" horiz-adv-x="626" d="M74 234l1 87l-1 320h79l-4 -397q-2 -181 163 -181q164 0 164 171l-4 407h80l-2 -326l-1 -72q2 -119 -61.5 -184.5t-181.5 -65.5q-114 0 -174 62.5t-58 178.5zM205 815l20 47l9 2q89 -52 192 -103l-14 -36l-10 -4q-106 45 -195 86z" />
<glyph unicode="&#xda;" horiz-adv-x="626" d="M74 234l1 87l-1 320h79l-4 -397q-2 -181 163 -181q164 0 164 171l-4 407h80l-2 -326l-1 -72q2 -119 -61.5 -184.5t-181.5 -65.5q-114 0 -174 62.5t-58 178.5zM232 760q103 51 192 103l9 -2l20 -47l-2 -8q-89 -41 -195 -86l-10 4z" />
<glyph unicode="&#xdb;" horiz-adv-x="626" d="M74 234l1 87l-1 320h79l-4 -397q-2 -181 163 -181q164 0 164 171l-4 407h80l-2 -326l-1 -72q2 -119 -61.5 -184.5t-181.5 -65.5q-114 0 -174 62.5t-58 178.5zM187 767q67 46 116 91h23q45 -40 117 -91l-16 -34h-9q-56 34 -103 66q-39 -27 -102 -66h-10z" />
<glyph unicode="&#xdc;" horiz-adv-x="626" d="M74 234l1 87l-1 320h79l-4 -397q-2 -181 163 -181q164 0 164 171l-4 407h80l-2 -326l-1 -72q2 -119 -61.5 -184.5t-181.5 -65.5q-114 0 -174 62.5t-58 178.5zM194 788q0 20 12 32.5t33 12.5q19 0 30.5 -11.5t11.5 -30.5q0 -21 -12 -34t-33 -13q-42 0 -42 44zM351 788 q0 20 12 32.5t33 12.5q20 0 31 -11.5t11 -30.5q0 -21 -12 -34t-33 -13q-42 0 -42 44z" />
<glyph unicode="&#xde;" horiz-adv-x="525" d="M94 0l3 193l-3 448h81l-1 -111l117 1q95 0 146 -48.5t51 -140.5q0 -108 -62.5 -167t-177.5 -59l-76 -1l2 -115h-80zM171 182l106 -2q128 23 128 156q0 124 -132 130l-100 -3l-2 -263v-18z" />
<glyph unicode="&#xdf;" horiz-adv-x="563" d="M35 410l5 47h67v48q0 95 53 147t146 52q76 0 118 -35t42 -94q0 -30 -11.5 -55t-28 -42t-33.5 -32.5t-28.5 -34.5t-11.5 -41q0 -29 20.5 -52t50.5 -40t59.5 -35t50 -46.5t20.5 -65.5q0 -58 -44 -98.5t-120 -40.5q-70 0 -132 33l11 68l8 6q56 -50 119 -50q39 0 62.5 20 t23.5 49q0 25 -21 46t-50.5 38t-59 36t-50.5 49.5t-21 69.5q0 36 19 64.5t41 44.5t41 41.5t19 57.5q0 39 -26 60t-71 21q-57 0 -88.5 -34t-32.5 -99l-4 -315l5 -198h-79l6 190l-2 214h-69z" />
<glyph unicode="&#xe0;" horiz-adv-x="462" d="M42 118q0 85 93 107l162 38l1 65q0 39 -20.5 60t-58.5 21q-66 0 -141 -66l-8 4l-11 57q85 62 172 62q64 0 102 -32t38 -88q0 -18 -6.5 -124t-6.5 -123q0 -22 7 -30.5t25 -8.5q15 0 33 6l8 -7l-7 -45q-29 -17 -57 -20q-65 6 -70 74h-6q-54 -55 -107 -75q-67 0 -104.5 33.5 t-37.5 91.5zM113 129q0 -33 18.5 -51.5t48.5 -18.5q55 0 113 71l3 82l-145 -35q-38 -10 -38 -48zM121 654l30 42l9 1q66 -65 164 -145l-22 -32l-9 -1q-71 50 -170 127z" />
<glyph unicode="&#xe1;" horiz-adv-x="462" d="M42 118q0 85 93 107l162 38l1 65q0 39 -20.5 60t-58.5 21q-66 0 -141 -66l-8 4l-11 57q85 62 172 62q64 0 102 -32t38 -88q0 -18 -6.5 -124t-6.5 -123q0 -22 7 -30.5t25 -8.5q15 0 33 6l8 -7l-7 -45q-29 -17 -57 -20q-65 6 -70 74h-6q-54 -55 -107 -75q-67 0 -104.5 33.5 t-37.5 91.5zM113 129q0 -33 18.5 -51.5t48.5 -18.5q55 0 113 71l3 82l-145 -35q-38 -10 -38 -48zM149 552q98 80 164 145l9 -1l30 -42l-2 -8q-99 -77 -170 -127l-9 1z" />
<glyph unicode="&#xe2;" horiz-adv-x="462" d="M42 118q0 85 93 107l162 38l1 65q0 39 -20.5 60t-58.5 21q-66 0 -141 -66l-8 4l-11 57q85 62 172 62q64 0 102 -32t38 -88q0 -18 -6.5 -124t-6.5 -123q0 -22 7 -30.5t25 -8.5q15 0 33 6l8 -7l-7 -45q-29 -17 -57 -20q-65 6 -70 74h-6q-54 -55 -107 -75q-67 0 -104.5 33.5 t-37.5 91.5zM90 555q57 58 122 134h24q62 -77 121 -134l-22 -32h-9q-62 59 -102 104q-38 -42 -102 -104h-10zM113 129q0 -33 18.5 -51.5t48.5 -18.5q55 0 113 71l3 82l-145 -35q-38 -10 -38 -48z" />
<glyph unicode="&#xe3;" horiz-adv-x="462" d="M42 118q0 85 93 107l162 38l1 65q0 39 -20.5 60t-58.5 21q-66 0 -141 -66l-8 4l-11 57q85 62 172 62q64 0 102 -32t38 -88q0 -18 -6.5 -124t-6.5 -123q0 -22 7 -30.5t25 -8.5q15 0 33 6l8 -7l-7 -45q-29 -17 -57 -20q-65 6 -70 74h-6q-54 -55 -107 -75q-67 0 -104.5 33.5 t-37.5 91.5zM65 578v7l61 69l10 3q21 -2 81.5 -19t73.5 -17q4 0 9 2t10.5 7t10 9.5l13 13l14.5 14.5h8l24 -25v-8l-61 -69l-10 -3q-21 2 -81.5 19.5t-73.5 17.5q-4 0 -9 -2.5t-10.5 -7.5t-10 -9.5t-12.5 -13t-14 -14.5h-9zM113 129q0 -33 18.5 -51.5t48.5 -18.5q55 0 113 71 l3 82l-145 -35q-38 -10 -38 -48z" />
<glyph unicode="&#xe4;" horiz-adv-x="462" d="M42 118q0 85 93 107l162 38l1 65q0 39 -20.5 60t-58.5 21q-66 0 -141 -66l-8 4l-11 57q85 62 172 62q64 0 102 -32t38 -88q0 -18 -6.5 -124t-6.5 -123q0 -22 7 -30.5t25 -8.5q15 0 33 6l8 -7l-7 -45q-29 -17 -57 -20q-65 6 -70 74h-6q-54 -55 -107 -75q-67 0 -104.5 33.5 t-37.5 91.5zM102 606q0 20 12 32.5t33 12.5q19 0 30.5 -11.5t11.5 -30.5q0 -21 -12 -34t-33 -13q-42 0 -42 44zM113 129q0 -33 18.5 -51.5t48.5 -18.5q55 0 113 71l3 82l-145 -35q-38 -10 -38 -48zM259 606q0 20 12 32.5t33 12.5q20 0 31 -11.5t11 -30.5q0 -21 -12 -34 t-33 -13q-42 0 -42 44z" />
<glyph unicode="&#xe5;" horiz-adv-x="462" d="M42 118q0 85 93 107l162 38l1 65q0 39 -20.5 60t-58.5 21q-66 0 -141 -66l-8 4l-11 57q85 62 172 62q64 0 102 -32t38 -88q0 -18 -6.5 -124t-6.5 -123q0 -22 7 -30.5t25 -8.5q15 0 33 6l8 -7l-7 -45q-29 -17 -57 -20q-65 6 -70 74h-6q-54 -55 -107 -75q-67 0 -104.5 33.5 t-37.5 91.5zM113 129q0 -33 18.5 -51.5t48.5 -18.5q55 0 113 71l3 82l-145 -35q-38 -10 -38 -48zM138 614q0 38 23 60.5t62 22.5t61 -22.5t22 -58.5q0 -39 -24.5 -61.5t-61.5 -22.5q-36 0 -59 21.5t-23 60.5zM176 615q0 -22 12.5 -33.5t33.5 -11.5q45 0 45 43q0 45 -46 45 q-45 0 -45 -43z" />
<glyph unicode="&#xe6;" horiz-adv-x="678" d="M39 119q0 45 24 73.5t69 35.5l160 27v73q0 81 -77 81q-61 0 -139 -66l-8 4l-12 57q83 62 168 62q93 0 120 -72q53 71 146 71q73 0 117 -48.5t41 -139.5l-9 -11l-283 -48q8 -166 135 -166q68 0 128 46l8 -4l-9 -65q-63 -37 -133 -37q-113 0 -163 99q-55 -70 -136 -98 q-68 0 -107.5 33.5t-39.5 92.5zM110 127q0 -32 20 -49.5t51 -17.5q28 0 54 16.5t65 58.5q-7 49 -8 72l-131 -26q-51 -9 -51 -54zM356 266l220 42q-3 49 -29 76t-68 27q-52 0 -87.5 -40.5t-35.5 -98.5v-6z" />
<glyph unicode="&#xe7;" horiz-adv-x="385" d="M42 226q0 111 54 175.5t149 64.5q67 0 123 -27l-14 -69l-9 -3q-54 34 -103 34q-59 0 -92 -45t-33 -126t34.5 -127.5t94.5 -46.5q58 0 113 34l8 -5l-8 -67q-57 -23 -109 -26l-13 -43l34 -20q38 -22 38 -56q0 -29 -22.5 -47.5t-58.5 -18.5q-43 0 -72 31l7 40l5 1 q28 -31 57 -31q31 0 31 27q0 13 -21 25l-48 29l18 65q-77 11 -120 72t-43 160z" />
<glyph unicode="&#xe8;" horiz-adv-x="452" d="M42 226q0 110 58 174.5t156 64.5q75 0 117 -45.5t42 -126.5q0 -28 -3 -46l-16 -13l-279 -1v-3q0 -83 34.5 -128.5t102.5 -45.5q69 0 134 45l9 -5l-9 -67q-71 -37 -139 -37q-98 0 -152.5 62.5t-54.5 171.5zM122 286l219 6l2 12q0 52 -25 78.5t-68 26.5q-51 0 -84.5 -32 t-43.5 -91zM143 654l30 42l9 1q66 -65 164 -145l-22 -32l-9 -1q-71 50 -170 127z" />
<glyph unicode="&#xe9;" horiz-adv-x="452" d="M42 226q0 110 58 174.5t156 64.5q75 0 117 -45.5t42 -126.5q0 -28 -3 -46l-16 -13l-279 -1v-3q0 -83 34.5 -128.5t102.5 -45.5q69 0 134 45l9 -5l-9 -67q-71 -37 -139 -37q-98 0 -152.5 62.5t-54.5 171.5zM122 286l219 6l2 12q0 52 -25 78.5t-68 26.5q-51 0 -84.5 -32 t-43.5 -91zM172 552q98 80 164 145l9 -1l30 -42l-2 -8q-99 -77 -170 -127l-9 1z" />
<glyph unicode="&#xea;" horiz-adv-x="452" d="M42 226q0 110 58 174.5t156 64.5q75 0 117 -45.5t42 -126.5q0 -28 -3 -46l-16 -13l-279 -1v-3q0 -83 34.5 -128.5t102.5 -45.5q69 0 134 45l9 -5l-9 -67q-71 -37 -139 -37q-98 0 -152.5 62.5t-54.5 171.5zM112 555q58 58 122 134h24q62 -77 121 -134l-22 -32h-9 q-62 59 -102 104q-38 -42 -102 -104h-10zM122 286l219 6l2 12q0 52 -25 78.5t-68 26.5q-51 0 -84.5 -32t-43.5 -91z" />
<glyph unicode="&#xeb;" horiz-adv-x="452" d="M42 226q0 110 58 174.5t156 64.5q75 0 117 -45.5t42 -126.5q0 -28 -3 -46l-16 -13l-279 -1v-3q0 -83 34.5 -128.5t102.5 -45.5q69 0 134 45l9 -5l-9 -67q-71 -37 -139 -37q-98 0 -152.5 62.5t-54.5 171.5zM122 286l219 6l2 12q0 52 -25 78.5t-68 26.5q-51 0 -84.5 -32 t-43.5 -91zM124 606q0 20 12 32.5t33 12.5q19 0 30.5 -11.5t11.5 -30.5q0 -21 -12 -34t-33 -13q-42 0 -42 44zM281 606q0 20 12 32.5t33 12.5q20 0 31 -11.5t11 -30.5q0 -21 -12 -34t-33 -13q-42 0 -42 44z" />
<glyph unicode="&#xec;" horiz-adv-x="238" d="M18 654l30 42l9 1q66 -65 164 -145l-22 -32l-9 -1q-71 50 -170 127zM79 0l5 194l-4 259l79 7l-6 -259l5 -201h-79z" />
<glyph unicode="&#xed;" horiz-adv-x="238" d="M46 552q98 80 164 145l9 -1l30 -42l-2 -8q-99 -77 -170 -127l-9 1zM79 0l5 194l-4 259l79 7l-6 -259l5 -201h-79z" />
<glyph unicode="&#xee;" horiz-adv-x="238" d="M-13 555q58 58 122 134h24q62 -77 121 -134l-22 -32h-9q-62 59 -102 104q-38 -42 -102 -104h-10zM79 0l5 194l-4 259l79 7l-6 -259l5 -201h-79z" />
<glyph unicode="&#xf0;" horiz-adv-x="489" d="M43 224q0 111 53.5 173t149.5 62q46 0 85 -15q-35 65 -93 116l-122 -61l-8 3l-16 38l104 52q-53 37 -127 68v10l45 36h6q82 -36 139 -82l116 59l7 -3l17 -38l-102 -51q147 -141 147 -345q0 -121 -53 -187.5t-150 -66.5q-92 0 -145 61t-53 171zM112 224q0 -87 35 -132.5 t99 -45.5q129 0 129 195q0 66 -13 119q-48 45 -112 45q-67 0 -102.5 -46.5t-35.5 -134.5z" />
<glyph unicode="&#xf1;" horiz-adv-x="515" d="M79 0l5 194l-4 259l75 7v-67h6q62 55 127 71q75 0 114.5 -35t38.5 -100l-2 -130l4 -199h-81l6 311q1 40 -19.5 63.5t-58.5 23.5q-67 0 -136 -71v-126l4 -201h-79zM114 578v7l61 69l10 3q21 -2 81.5 -19t73.5 -17q4 0 9 2t10.5 7t10 9.5l13 13l14.5 14.5h8l24 -25v-8 l-61 -69l-10 -3q-21 2 -81.5 19.5t-73.5 17.5q-4 0 -9 -2.5t-10.5 -7.5t-10 -9.5t-12.5 -13t-14 -14.5h-9z" />
<glyph unicode="&#xf2;" horiz-adv-x="491" d="M42 223q0 116 54.5 179.5t153.5 63.5q94 0 145.5 -60.5t51.5 -170.5q0 -116 -54.5 -179.5t-153.5 -63.5q-94 0 -145.5 60.5t-51.5 170.5zM117 241q0 -192 127 -192q129 0 129 168q0 95 -32.5 144t-94.5 49q-63 0 -96 -43t-33 -126zM144 654l30 42l9 1q66 -65 164 -145 l-22 -32l-9 -1q-71 50 -170 127z" />
<glyph unicode="&#xf3;" horiz-adv-x="491" d="M42 223q0 116 54.5 179.5t153.5 63.5q94 0 145.5 -60.5t51.5 -170.5q0 -116 -54.5 -179.5t-153.5 -63.5q-94 0 -145.5 60.5t-51.5 170.5zM117 241q0 -192 127 -192q129 0 129 168q0 95 -32.5 144t-94.5 49q-63 0 -96 -43t-33 -126zM172 552q98 80 164 145l9 -1l30 -42 l-2 -8q-99 -77 -170 -127l-9 1z" />
<glyph unicode="&#xf4;" horiz-adv-x="491" d="M42 223q0 116 54.5 179.5t153.5 63.5q94 0 145.5 -60.5t51.5 -170.5q0 -116 -54.5 -179.5t-153.5 -63.5q-94 0 -145.5 60.5t-51.5 170.5zM113 555q57 58 122 134h24q62 -77 121 -134l-22 -32h-9q-62 59 -102 104q-38 -42 -102 -104h-10zM117 241q0 -192 127 -192 q129 0 129 168q0 95 -32.5 144t-94.5 49q-63 0 -96 -43t-33 -126z" />
<glyph unicode="&#xf5;" horiz-adv-x="491" d="M42 223q0 116 54.5 179.5t153.5 63.5q94 0 145.5 -60.5t51.5 -170.5q0 -116 -54.5 -179.5t-153.5 -63.5q-94 0 -145.5 60.5t-51.5 170.5zM88 578v7l61 69l10 3q21 -2 81.5 -19t73.5 -17q4 0 9 2t10.5 7t10 9.5l13 13l14.5 14.5h8l24 -25v-8l-61 -69l-10 -3 q-21 2 -81.5 19.5t-73.5 17.5q-4 0 -9 -2.5t-10.5 -7.5t-10 -9.5t-12.5 -13t-14 -14.5h-9zM117 241q0 -192 127 -192q129 0 129 168q0 95 -32.5 144t-94.5 49q-63 0 -96 -43t-33 -126z" />
<glyph unicode="&#xf7;" d="M41 243l5 50h407l7 -6l-5 -50h-408zM216 91q0 20 12 32t33 12q19 0 30 -11t11 -30q0 -21 -12 -33.5t-32 -12.5q-42 0 -42 43zM216 441q0 20 12 32.5t33 12.5q41 0 41 -42q0 -21 -12 -33.5t-32 -12.5t-31 11.5t-11 31.5z" />
<glyph unicode="&#xf8;" horiz-adv-x="491" d="M42 223q0 116 54.5 179.5t153.5 63.5q44 0 77 -13l49 98l41 -19l5 -9l-48 -96q73 -61 73 -192q0 -116 -54.5 -179.5t-153.5 -63.5q-42 0 -76 12l-60 -120l-44 20l-3 8l60 119q-74 59 -74 192zM117 241q0 -94 32 -143l150 300q-22 12 -53 12q-63 0 -96 -43t-33 -126z M191 60q24 -11 53 -11q129 0 129 168q0 94 -32 143z" />
<glyph unicode="&#xf9;" horiz-adv-x="511" d="M73 453l80 7l-5 -312q-1 -41 18.5 -64t57.5 -23q61 0 125 61v331l75 7l-5 -362q0 -21 6.5 -29.5t22.5 -8.5t35 6l8 -7l-8 -45q-27 -17 -57 -20q-61 6 -69 70h-8q-60 -54 -123 -70q-74 0 -113 35t-38 100l2 127zM154 654l30 42l9 1q66 -65 164 -145l-22 -32l-9 -1 q-71 50 -170 127z" />
<glyph unicode="&#xfa;" horiz-adv-x="511" d="M73 453l80 7l-5 -312q-1 -41 18.5 -64t57.5 -23q61 0 125 61v331l75 7l-5 -362q0 -21 6.5 -29.5t22.5 -8.5t35 6l8 -7l-8 -45q-27 -17 -57 -20q-61 6 -69 70h-8q-60 -54 -123 -70q-74 0 -113 35t-38 100l2 127zM182 552q98 80 164 145l9 -1l30 -42l-2 -8 q-99 -77 -170 -127l-9 1z" />
<glyph unicode="&#xfb;" horiz-adv-x="511" d="M73 453l80 7l-5 -312q-1 -41 18.5 -64t57.5 -23q61 0 125 61v331l75 7l-5 -362q0 -21 6.5 -29.5t22.5 -8.5t35 6l8 -7l-8 -45q-27 -17 -57 -20q-61 6 -69 70h-8q-60 -54 -123 -70q-74 0 -113 35t-38 100l2 127zM123 555q58 58 122 134h24q62 -77 121 -134l-22 -32h-9 q-62 59 -102 104q-38 -42 -102 -104h-10z" />
<glyph unicode="&#xfc;" horiz-adv-x="511" d="M73 453l80 7l-5 -312q-1 -41 18.5 -64t57.5 -23q61 0 125 61v331l75 7l-5 -362q0 -21 6.5 -29.5t22.5 -8.5t35 6l8 -7l-8 -45q-27 -17 -57 -20q-61 6 -69 70h-8q-60 -54 -123 -70q-74 0 -113 35t-38 100l2 127zM135 606q0 20 12 32.5t33 12.5q20 0 31 -11.5t11 -30.5 q0 -21 -12 -34t-33 -13q-42 0 -42 44zM292 606q0 20 12 32.5t33 12.5q19 0 30.5 -11.5t11.5 -30.5q0 -21 -12 -34t-33 -13q-42 0 -42 44z" />
<glyph unicode="&#xfe;" horiz-adv-x="512" d="M84 -185l6 379l-6 501l79 7l-3 -307h6q61 51 126 68q87 0 132.5 -57.5t45.5 -162.5q0 -120 -58 -185.5t-162 -65.5q-44 0 -90 19l2 -196h-78zM158 201l1 -118q49 -33 98 -33q65 0 102 47t36 137q-2 79 -30 121.5t-80 42.5q-61 0 -126 -71z" />
<glyph unicode="&#xff;" horiz-adv-x="426" d="M-22 -141l3 10q75 14 120.5 44t76.5 87l-169 456l78 5l15 -59l109 -313h7l110 305l15 64h73l-162 -441q-33 -89 -86 -137t-144 -71h-9q-24 24 -37 50zM95 606q0 20 12 32.5t33 12.5q20 0 31 -11.5t11 -30.5q0 -21 -12 -34t-33 -13q-42 0 -42 44zM252 606q0 20 12 32.5 t33 12.5q19 0 30.5 -11.5t11.5 -30.5q0 -21 -12 -34t-33 -13q-42 0 -42 44z" />
<glyph unicode="&#x152;" horiz-adv-x="851" d="M38 316q0 160 83 248.5t234 88.5q32 0 87 -6t82 -6h298l5 -8l-6 -62l-144 3h-135l-1 -212l114 -2l113 3l5 -7l-7 -62l-117 2l-110 -1v-100l1 -128l125 -1l157 4l6 -8l-7 -62h-297q-30 1 -92 -5.5t-92 -6.5q-144 0 -223 86t-79 242zM120 321q0 -267 228 -267q56 0 94 10 q25 8 25 35l-4 437q0 33 -14 37q-30 13 -100 13q-229 0 -229 -265z" />
<glyph unicode="&#x153;" horiz-adv-x="775" d="M37 224q0 114 54.5 177.5t150.5 63.5q118 0 164 -95q55 95 173 95q75 0 117 -45.5t42 -126.5q0 -28 -3 -46l-16 -13l-284 -1v-3q0 -83 35.5 -128.5t106.5 -45.5q69 0 134 45l8 -5l-8 -67q-71 -37 -139 -37q-118 0 -170 97q-49 -97 -170 -97q-93 0 -144 60.5t-51 171.5z M116 241q0 -192 127 -192q129 0 129 168q0 95 -32.5 144t-94.5 49q-63 0 -96 -43t-33 -126zM440 286l224 6l2 12q0 52 -25 78.5t-69 26.5q-52 0 -86.5 -32t-45.5 -91z" />
<glyph unicode="&#x178;" horiz-adv-x="528" d="M15 641h86l13 -36l140 -288h8l153 286l15 38h85l-223 -413l-1 -41l4 -187h-81l5 187l-1 44zM137 788q0 20 12 32.5t33 12.5q20 0 31 -11.5t11 -30.5q0 -21 -12 -34t-33 -13q-42 0 -42 44zM294 788q0 20 12 32.5t33 12.5q19 0 30.5 -11.5t11.5 -30.5q0 -21 -12 -34 t-33 -13q-42 0 -42 44z" />
<glyph unicode="&#x2c6;" horiz-adv-x="389" d="M61 555q58 58 122 134h24q63 -77 121 -134l-22 -32h-9q-68 65 -102 104q-30 -34 -102 -104h-10z" />
<glyph unicode="&#x2dc;" horiz-adv-x="389" d="M37 578v7l61 69l10 3q21 -2 81.5 -19t73.5 -17q4 0 9 2t10.5 7t10 9.5l13 13l14.5 14.5h8l24 -25v-8l-61 -69l-10 -3q-21 2 -81.5 19.5t-73.5 17.5q-4 0 -9 -2.5t-10.5 -7.5t-10 -9.5t-12.5 -13t-14 -14.5h-9z" />
<glyph unicode="&#x2000;" horiz-adv-x="439" />
<glyph unicode="&#x2001;" horiz-adv-x="879" />
<glyph unicode="&#x2002;" horiz-adv-x="439" />
<glyph unicode="&#x2003;" horiz-adv-x="879" />
<glyph unicode="&#x2004;" horiz-adv-x="293" />
<glyph unicode="&#x2005;" horiz-adv-x="219" />
<glyph unicode="&#x2006;" horiz-adv-x="146" />
<glyph unicode="&#x2007;" horiz-adv-x="146" />
<glyph unicode="&#x2008;" horiz-adv-x="109" />
<glyph unicode="&#x2009;" horiz-adv-x="175" />
<glyph unicode="&#x200a;" horiz-adv-x="48" />
<glyph unicode="&#x2010;" horiz-adv-x="307" d="M29 216v50l242 34l7 -7v-50l-241 -35z" />
<glyph unicode="&#x2011;" horiz-adv-x="307" d="M29 216v50l242 34l7 -7v-50l-241 -35z" />
<glyph unicode="&#x2012;" horiz-adv-x="307" d="M29 216v50l242 34l7 -7v-50l-241 -35z" />
<glyph unicode="&#x2013;" horiz-adv-x="478" d="M-15 234l5 50h498l5 -7l-3 -49h-499z" />
<glyph unicode="&#x2014;" horiz-adv-x="929" d="M-16 234l5 50h950l7 -7l-5 -49h-951z" />
<glyph unicode="&#x2018;" horiz-adv-x="167" d="M33 509q0 62 73 134l30 -21l1 -6q-42 -46 -42 -84q0 -39 39 -56v-7q-13 -13 -47 -35q-54 22 -54 75z" />
<glyph unicode="&#x2019;" horiz-adv-x="167" d="M33 461q42 45 42 84q0 40 -39 55v8q19 18 47 34q54 -20 54 -75q0 -62 -73 -134l-30 21z" />
<glyph unicode="&#x201a;" horiz-adv-x="229" d="M44 -82q55 43 55 88q0 27 -31 47v8q28 19 55 26q42 -26 42 -67q0 -65 -94 -134l-27 25v7z" />
<glyph unicode="&#x201c;" horiz-adv-x="289" d="M27 510q0 62 73 134l30 -21l1 -7q-42 -45 -42 -84q0 -40 39 -55v-8q-19 -18 -47 -34q-54 20 -54 75zM158 510q0 62 73 134l30 -21l1 -7q-42 -45 -42 -84q0 -40 39 -55v-8q-19 -18 -47 -34q-54 20 -54 75z" />
<glyph unicode="&#x201d;" horiz-adv-x="295" d="M30 461q42 45 42 84q0 40 -39 55v8q19 18 47 34q54 -20 54 -75q0 -62 -73 -134l-30 21zM158 461q43 46 43 84q0 39 -39 55v8q18 18 47 34q54 -20 54 -75q0 -61 -73 -134l-31 21z" />
<glyph unicode="&#x201e;" horiz-adv-x="361" d="M44 -82q55 43 55 88q0 27 -31 47v8q28 19 55 26q42 -26 42 -67q0 -65 -94 -134l-27 25v7zM174 -82q55 43 55 88q0 27 -31 47v8q31 20 56 26q42 -26 42 -67q0 -65 -95 -134l-27 25v7z" />
<glyph unicode="&#x2022;" horiz-adv-x="255" d="M75 238q0 24 14.5 38.5t39.5 14.5q23 0 36 -13.5t13 -36.5q0 -25 -14.5 -40t-38.5 -15q-23 0 -36.5 14t-13.5 38z" />
<glyph unicode="&#x2026;" horiz-adv-x="582" d="M65 41q0 21 12.5 34t34.5 13q20 0 32 -12t12 -33q0 -22 -12.5 -35t-34.5 -13q-44 0 -44 46zM241 41q0 21 12.5 34t34.5 13q44 0 44 -45q0 -22 -12.5 -35t-33.5 -13q-45 0 -45 46zM417 41q0 21 12.5 34t34.5 13q20 0 32 -12t12 -33q0 -22 -13 -35t-34 -13q-44 0 -44 46z " />
<glyph unicode="&#x202f;" horiz-adv-x="175" />
<glyph unicode="&#x2039;" horiz-adv-x="229" d="M22 216v17l145 173l38 -22l1 -9l-124 -149l124 -149l-1 -10l-38 -22z" />
<glyph unicode="&#x203a;" horiz-adv-x="235" d="M27 78l124 149l-124 149l1 9l39 22l145 -171v-16l-145 -174l-39 22z" />
<glyph unicode="&#x205f;" horiz-adv-x="219" />
<glyph unicode="&#x20ac;" horiz-adv-x="485" d="M16 166l3 42h69q0 5 -0.5 16.5t-0.5 17.5q0 22 1 33h-68l-4 5l3 42h75q18 87 75 133t149 46q74 0 133 -36l-12 -53l-7 -2q-51 37 -118 37q-125 0 -152 -125h186l4 -5l-3 -42h-192l-1 -28q0 -27 1 -39h191l4 -5l-3 -42h-184q32 -111 144 -111q72 0 129 40l9 -5l-6 -52 q-66 -39 -135 -39q-176 0 -212 167h-74z" />
<glyph unicode="&#x2122;" horiz-adv-x="582" d="M27 607l3 33h178l3 -4l-3 -32l-45 2h-21l-2 -127l2 -74h-44l2 70l-1 131h-21l-48 -2zM253 405l26 235h53q7 -24 16.5 -49t21.5 -55.5t18 -47.5h3l50 117l12 35h50l24 -235h-39l-6 71l-10 97h-4l-62 -143h-36l-58 143h-3l-12 -92l-6 -76h-38z" />
<glyph unicode="&#x25fc;" horiz-adv-x="460" d="M0 0v460h460v-460h-460z" />
</font>
</defs>
</svg>
