<?xml version="1.0" standalone="no"?>
<!DOCTYPE svg PUBLIC "-//W3C//DTD SVG 1.1//EN" "http://www.w3.org/Graphics/SVG/1.1/DTD/svg11.dtd" >
<svg xmlns="http://www.w3.org/2000/svg" xmlns:xlink="http://www.w3.org/1999/xlink" version="1.1">
<metadata></metadata>
<defs>
<font id="cabinbold" horiz-adv-x="1280" >
<font-face units-per-em="2048" ascent="1638" descent="-410" />
<missing-glyph horiz-adv-x="460" />
<glyph horiz-adv-x="0" />
<glyph horiz-adv-x="682" />
<glyph unicode=" "  horiz-adv-x="460" />
<glyph unicode="&#x09;" horiz-adv-x="460" />
<glyph unicode="&#xa0;" horiz-adv-x="460" />
<glyph unicode="!" horiz-adv-x="512" d="M129 0v254h254v-254h-254zM129 1536h254l-41 -1126h-172z" />
<glyph unicode="&#x22;" horiz-adv-x="811" d="M74 1536h254l-41 -614h-172zM483 1536h254l-41 -614h-172z" />
<glyph unicode="#" horiz-adv-x="1454" d="M63 432l93 201h229l78 215h-248l66 201h258l151 385h193l-148 -385h234l147 385h193l-148 -385h228l-70 -201h-234l-77 -215h256l-97 -201h-239l-172 -455h-197l172 455h-229l-176 -455h-193l172 455h-242zM578 633h233l82 215h-234z" />
<glyph unicode="$" horiz-adv-x="1073" d="M82 969q0 57 21.5 112.5t67.5 100.5t116.5 74.5t169.5 39.5l-33 236h219l-33 -236q96 -6 187.5 -29.5t138.5 -49.5l-23 -232q-205 106 -352 107q-229 0 -229 -99q0 -49 49 -77.5t124 -51t162 -45t161.5 -62.5t123.5 -104.5t49 -167.5q0 -49 -16 -101t-60 -97t-120 -79 t-195 -44l33 -230h-219l33 228q-244 12 -359 82l35 260q137 -129 385 -129q209 0 209 108q0 53 -48 85t-120 57.5t-154.5 50t-154.5 60.5t-120 91.5t-48 141.5z" />
<glyph unicode="%" horiz-adv-x="1724" d="M70 1057q0 86 23.5 157.5t66.5 121.5t101 78t126 28t124 -26.5t97 -75t63.5 -116t22.5 -151.5q0 -88 -22.5 -159.5t-64.5 -122t-100 -78t-130 -27.5q-141 0 -224 101.5t-83 269.5zM231 1057q0 -113 41 -168t107 -55q154 0 153 239q0 111 -43 166t-104 55 q-63 0 -108.5 -59t-45.5 -178zM301 -25l864 1459h213l-864 -1459h-213zM1032 352q0 86 23.5 158t66.5 122t101.5 77.5t126.5 27.5t124 -26.5t97 -74.5t63.5 -115.5t22.5 -151.5q0 -88 -22.5 -160t-64.5 -122t-100.5 -77.5t-130.5 -27.5q-141 0 -224 101t-83 269zM1194 352 q0 -113 41 -168t106 -55q154 0 154 240q0 111 -43 166t-104 55q-63 0 -108.5 -59.5t-45.5 -178.5z" />
<glyph unicode="&#x26;" horiz-adv-x="1284" d="M66 344q0 129 66.5 225.5t182.5 182.5q-154 193 -153 350q0 78 33.5 140.5t91 106.5t132.5 67.5t159 23.5q154 0 239.5 -79t85.5 -214q0 -61 -20.5 -111.5t-57.5 -95.5t-91 -89t-122 -91l287 -328q8 41 13.5 112.5t7.5 176.5h243q0 -287 -100 -475l215 -246h-295l-63 70 q-150 -119 -377 -119q-119 0 -208 30.5t-149.5 84t-90 125t-29.5 153.5zM330 367q0 -94 56 -158t192 -64q135 0 213 70l-355 399q-106 -113 -106 -247zM412 1092q0 -88 94 -207q174 123 174 233q0 119 -115 119q-68 0 -110.5 -38t-42.5 -107z" />
<glyph unicode="'" horiz-adv-x="401" d="M74 1536h254l-41 -614h-172z" />
<glyph unicode="(" horiz-adv-x="567" d="M84 629q0 156 13.5 282.5t39 235t64.5 203t90 186.5h231q-231 -410 -231 -907q0 -498 231 -908h-231q-53 94 -91 189.5t-64.5 203t-39 233.5t-12.5 282z" />
<glyph unicode=")" horiz-adv-x="567" d="M45 -279q231 410 231 908t-231 907h231q51 -92 89 -186.5t65 -203t40 -235.5t13 -282q0 -154 -13 -281t-38.5 -234.5t-65 -204t-90.5 -188.5h-231z" />
<glyph unicode="*" horiz-adv-x="913" d="M63 1264l97 168l272 -220l-72 322h193l-74 -322l275 220l96 -168l-326 -103l246 -184l-137 -133l-172 280l-176 -286l-138 133l248 186z" />
<glyph unicode="+" horiz-adv-x="937" d="M90 471v193h283v262h192v-262h283v-193h-283v-262h-192v262h-283z" />
<glyph unicode="," horiz-adv-x="475" d="M111 0v266h254v-266l-201 -225l-53 28l67 177z" />
<glyph unicode="-" horiz-adv-x="856" d="M111 471v193h634v-193h-634z" />
<glyph unicode="." horiz-adv-x="475" d="M111 0v266h254v-266h-254z" />
<glyph unicode="/" horiz-adv-x="1128" d="M39 -174l747 1608h275l-748 -1608h-274z" />
<glyph unicode="0" horiz-adv-x="1445" d="M121 694q0 168 47 308.5t130 243t194.5 159.5t242.5 57q127 0 235.5 -55t187.5 -153.5t123 -232.5t44 -292q0 -170 -43 -309t-123 -238.5t-193.5 -155t-254.5 -55.5q-133 0 -243 52.5t-186.5 147.5t-118.5 228t-42 295zM383 694q0 -248 91 -367.5t241 -119.5 q160 0 256 128t96 394q0 121 -26.5 214t-72.5 157.5t-106.5 97.5t-130.5 33q-72 0 -135.5 -36t-110.5 -103.5t-74.5 -168t-27.5 -229.5z" />
<glyph unicode="1" horiz-adv-x="755" d="M92 1210q33 8 74 31t79 54.5t67.5 67.5t43.5 71h201v-1434h-262v1063q-86 -59 -180 -74z" />
<glyph unicode="2" horiz-adv-x="1083" d="M90 0q135 195 230.5 341t160 252.5t101 180.5t56 124t25 83t5.5 57q0 98 -52.5 151.5t-146.5 53.5q-184 0 -330 -219l-33 236q20 37 58.5 72.5t91.5 64t120.5 47t145.5 18.5q102 0 177 -31.5t123 -85t70.5 -123t22.5 -145.5q0 -72 -20.5 -151.5t-65.5 -178t-116.5 -219 t-171.5 -274.5h426v-254h-877z" />
<glyph unicode="3" horiz-adv-x="1103" d="M74 82l63 242q45 -43 134 -72t178 -29q276 0 276 209q0 55 -13.5 101.5t-44 78t-80.5 49t-124 17.5h-184l22 203h94q272 0 273 188q0 172 -211 172q-176 0 -252 -70l-41 197q37 37 125 65.5t198 28.5q131 0 217.5 -35.5t137.5 -91t70.5 -123t19.5 -131.5 q0 -186 -137 -286q188 -115 188 -351q0 -113 -42 -200.5t-113.5 -148t-167 -92.5t-201.5 -32q-57 0 -120 11.5t-117 28t-95 36t-53 35.5z" />
<glyph unicode="4" horiz-adv-x="1189" d="M20 389l660 1045h219v-832h174v-213h-174v-389h-262v389h-617zM377 602h260v430z" />
<glyph unicode="5" horiz-adv-x="1099" d="M100 88l62 238q119 -106 305 -107q119 0 197.5 58.5t78.5 185.5q0 49 -15 90t-55 68.5t-107.5 43t-172.5 15.5h-219l90 754h658l-27 -254h-434l-35 -281q299 -4 435 -105.5t136 -320.5q0 -119 -42 -212t-113.5 -156.5t-166 -97.5t-200.5 -34q-59 0 -123.5 12.5t-120 30 t-92.5 37t-39 35.5z" />
<glyph unicode="6" horiz-adv-x="1150" d="M119 518q0 133 31.5 253t84 221.5t118 183t134 139t133 88.5t113.5 31l172 -103q-29 0 -75 -22.5t-100 -61.5t-109.5 -92t-102.5 -113.5t-81 -127t-42 -132.5q63 80 238 80q94 0 174 -27.5t137 -80t89 -130t32 -175.5q0 -96 -36 -183.5t-101.5 -153t-157.5 -103.5 t-205 -38q-203 0 -324.5 132.5t-121.5 414.5zM373 416q0 -49 19.5 -89t50 -67t69.5 -41t80 -14q51 0 94 19.5t74 53t47 78.5t16 97q0 37 -13 72.5t-40 63t-66 44t-88 16.5q-111 0 -177 -58.5t-66 -174.5z" />
<glyph unicode="7" horiz-adv-x="1044" d="M88 1180v254h942l-598 -1434h-274l491 1180h-561z" />
<glyph unicode="8" horiz-adv-x="1232" d="M115 379q0 229 221 393q-141 113 -141 328q0 78 23.5 144.5t75.5 114.5t134 75.5t197 27.5q109 0 187.5 -24.5t128.5 -68.5t74.5 -104.5t24.5 -134.5q0 -193 -176 -339q117 -53 185.5 -151.5t68.5 -221.5q0 -84 -32.5 -164t-98 -143.5t-164 -101.5t-227.5 -38 q-119 0 -209 33t-150.5 88t-91 129t-30.5 158zM365 399q0 -104 64.5 -161.5t176.5 -57.5q119 0 186.5 62.5t67.5 167.5q0 111 -66.5 179t-170.5 91q-53 -8 -99.5 -31.5t-82 -59.5t-56 -84t-20.5 -106zM424 1075q0 -156 180 -205q195 53 195 215q0 76 -43.5 124t-141.5 48 q-100 0 -145 -50t-45 -132z" />
<glyph unicode="9" horiz-adv-x="1155" d="M86 979q0 100 36 189t102.5 153.5t158.5 102.5t203 38q100 0 183 -32.5t142.5 -100t91 -170t31.5 -241.5q0 -129 -27.5 -248t-73.5 -220.5t-107.5 -184.5t-130 -142.5t-139.5 -91t-138 -31.5l-166 102q31 0 80 19.5t104.5 55.5t112.5 86t104 111.5t79 131t36 143.5 q-16 -18 -49 -32.5t-71 -24.5t-73.5 -15.5t-56.5 -5.5q-98 0 -177 27t-136.5 79t-88 128t-30.5 174zM342 989q0 -86 50.5 -145.5t150.5 -59.5q106 0 174.5 59.5t68.5 172.5q0 55 -17 96t-47 66.5t-69 38t-82 12.5q-53 0 -95 -19.5t-71.5 -53.5t-46 -77t-16.5 -90z" />
<glyph unicode=":" horiz-adv-x="475" d="M111 0v266h254v-266h-254zM111 635v266h254v-266h-254z" />
<glyph unicode=";" horiz-adv-x="505" d="M115 0v266h254v-266l-201 -225l-53 28l67 177zM115 635v266h254v-266h-254z" />
<glyph unicode="&#x3c;" horiz-adv-x="913" d="M59 582l435 422h301l-435 -422l435 -422h-301z" />
<glyph unicode="=" horiz-adv-x="1011" d="M127 307v193h758v-193h-758zM127 635v192h758v-192h-758z" />
<glyph unicode="&#x3e;" horiz-adv-x="913" d="M119 160l434 422l-434 422h301l434 -422l-434 -422h-301z" />
<glyph unicode="?" horiz-adv-x="905" d="M59 1391q98 145 328 145q100 0 180 -35t135.5 -91t85 -126t29.5 -137q0 -70 -32.5 -140.5t-79.5 -134.5l-93 -129q-47 -66 -79.5 -145.5t-32.5 -161.5v-26h-172q-6 92 -6 108q0 98 39.5 176t88 151t88.5 144.5t40 155.5q0 94 -57.5 142t-149.5 48q-158 0 -254 -133z M287 0v254h254v-254h-254z" />
<glyph unicode="@" horiz-adv-x="1462" d="M92 348q0 164 61.5 307.5t168 249t246 167t296.5 61.5q119 0 214.5 -37t161 -104.5t100 -164t34.5 -215.5q0 -53 -5 -110.5t-21.5 -109.5t-50 -95t-91.5 -70q-80 -35 -135 -34q-76 0 -76 108q0 27 10.5 76t27 111.5t36 136t39.5 151.5q-104 109 -250 109 q-94 0 -187 -51.5t-167 -132t-120 -184t-46 -208.5q0 -98 45 -162.5t149 -64.5q43 0 94.5 17.5t100.5 49t93 74.5t73 96q0 -2 -1 -11t-2 -19t-2 -20.5t-1 -12.5q0 -66 26.5 -118t85.5 -52q31 0 68 11.5t74 29.5t71.5 42t59.5 48q-49 -88 -121 -160.5t-160 -125t-187 -81 t-204 -28.5q-117 0 -211 36t-160.5 103.5t-101.5 165.5t-35 221zM502 348q0 80 34.5 155t89 131t117 91t117.5 35q96 0 111 -45q-12 -80 -54.5 -167t-97.5 -161t-115.5 -122t-111.5 -48q-45 0 -67.5 37t-22.5 94z" />
<glyph unicode="A" d="M6 0l510 1434h248l510 -1434h-273l-122 346h-478l-122 -346h-273zM492 600h296l-149 420z" />
<glyph unicode="B" horiz-adv-x="1282" d="M158 0v1434h387q125 0 226 -13.5t173 -53.5t111 -111.5t39 -190.5q0 -197 -121 -299q129 -49 189.5 -129t60.5 -215q0 -119 -44 -200t-116 -130t-164 -70.5t-188 -21.5h-553zM420 223h258q135 0 204.5 48t69.5 165q0 215 -260 215h-272v-428zM420 858h256q70 0 122 38 t52 130q0 104 -50.5 144t-148.5 40h-231v-352z" />
<glyph unicode="C" horiz-adv-x="1247" d="M72 717q0 168 53 305t146.5 235.5t223.5 151.5t283 53q233 0 408 -84l-29 -250q-203 82 -379 82q-102 0 -180 -35.5t-131 -100t-81 -156t-28 -201.5q0 -111 28 -202t81 -155.5t131 -100.5t180 -36q176 0 379 82l29 -250q-175 -84 -408 -84q-154 0 -283.5 53.5t-224 151.5 t-146.5 235.5t-52 305.5z" />
<glyph unicode="D" horiz-adv-x="1474" d="M158 0v1434h536q156 0 286 -50.5t223 -143.5t145.5 -225t52.5 -298t-52.5 -299t-145.5 -225.5t-223 -142.5t-286 -50h-536zM420 252h274q205 0 312.5 122t107.5 343t-107.5 343t-312.5 122h-274v-930z" />
<glyph unicode="E" horiz-adv-x="1163" d="M158 0v1434h917v-254h-649v-306h504v-253h-504v-367h670v-254h-938z" />
<glyph unicode="F" horiz-adv-x="1075" d="M158 0v1434h882v-254h-620v-306h479v-253h-479v-621h-262z" />
<glyph unicode="G" horiz-adv-x="1359" d="M72 719q0 166 52 303t146.5 234.5t226.5 151.5t289 54q51 0 111.5 -6t119 -17.5t111 -26.5t89.5 -34l-29 -250q-197 82 -395 82q-109 0 -190 -34.5t-135 -99t-82 -153.5t-28 -200q0 -115 29 -207t86 -156.5t140 -100.5t192 -36q84 0 196 23v256h-157v217h420v-639 q-37 -23 -96.5 -42.5t-128 -34.5t-139.5 -23.5t-128 -8.5q-152 0 -281 53.5t-222 151.5t-145 236.5t-52 306.5z" />
<glyph unicode="H" horiz-adv-x="1515" d="M158 0v1434h262v-560h676v560h262v-1434h-262v621h-676v-621h-262z" />
<glyph unicode="I" horiz-adv-x="577" d="M158 0v1434h262v-1434h-262z" />
<glyph unicode="J" horiz-adv-x="577" d="M-6 -156h55q59 0 84 39t25 125v1426h262v-1483q0 -150 -86 -226.5t-246 -76.5h-74z" />
<glyph unicode="K" horiz-adv-x="1271" d="M158 0v1434h262v-1434h-262zM471 758l500 676h295l-500 -676l500 -758h-295z" />
<glyph unicode="L" horiz-adv-x="1024" d="M158 0v1434h262v-1180h590v-254h-852z" />
<glyph unicode="M" horiz-adv-x="1705" d="M90 0l199 1434h215l350 -654l348 654h215l199 -1434h-273l-122 961l-367 -660l-369 657l-123 -958h-272z" />
<glyph unicode="N" horiz-adv-x="1447" d="M158 0v1434h258l612 -926v926h262v-1434h-215l-655 983v-983h-262z" />
<glyph unicode="O" horiz-adv-x="1556" d="M72 717q0 168 53 305t146.5 235.5t223.5 151.5t283 53q154 0 284 -54t224 -152.5t146.5 -235.5t52.5 -303q0 -336 -199 -541q-197 -205 -508 -205q-154 0 -283.5 53.5t-224 151.5t-146.5 235.5t-52 305.5zM358 717q0 -111 28 -202t81 -155.5t131 -100.5t180 -36t180 36 t131.5 100.5t81 155.5t27.5 206q0 218 -108 354q-109 135 -312 135q-102 0 -180 -35.5t-131 -100t-81 -156t-28 -201.5z" />
<glyph unicode="P" horiz-adv-x="1220" d="M158 0v1434h405q156 0 271.5 -17.5t191.5 -68t114 -139.5t38 -230q0 -150 -47.5 -247t-121 -155.5t-162.5 -82t-171 -23.5h-256v-471h-262zM420 717h221q145 0 207.5 58.5t62.5 201.5q0 63 -13 108t-45 74t-85 42t-133 13h-215v-497z" />
<glyph unicode="Q" horiz-adv-x="1556" d="M72 717q0 168 53 305t146.5 235.5t223.5 151.5t283 53q154 0 284 -54t224 -152.5t146.5 -235.5t52.5 -303q0 -256 -127 -451l127 -104l-152 -182l-141 116q-170 -125 -414 -125q-154 0 -283.5 53.5t-224 151.5t-146.5 235.5t-52 305.5zM358 717q0 -111 28 -202t81 -155.5 t131 -100.5t180 -36q115 0 205 47l-172 146l152 182l180 -152q55 113 55 271q0 111 -27.5 202t-81 155.5t-131 100t-180.5 35.5q-102 0 -180 -35.5t-131 -100t-81 -156t-28 -201.5z" />
<glyph unicode="R" horiz-adv-x="1282" d="M158 0v1434h524q494 0 494 -414q0 -154 -63.5 -250t-180.5 -168l323 -602h-272l-297 532h-266v-532h-262zM420 778h192q166 0 227.5 56.5t61.5 166.5q0 109 -59 161t-219 52h-203v-436z" />
<glyph unicode="S" horiz-adv-x="1187" d="M78 1032q0 82 30.5 159t94 137.5t162 97t231.5 36.5q68 0 136.5 -10t130 -25.5t110.5 -36t80 -38.5l-27 -269q-238 129 -420 129q-53 0 -100 -8t-83 -26.5t-57.5 -47t-21.5 -69.5q0 -53 25.5 -83t76 -52.5t126 -46t176.5 -62.5l110 -43q43 -16 90 -47t87 -76t66.5 -105.5 t26.5 -135.5q0 -66 -16 -141.5t-73.5 -142.5t-168.5 -111t-297 -44q-154 0 -280.5 31t-194.5 74l31 299q66 -63 183.5 -107.5t267.5 -44.5q256 0 256 156q0 45 -21.5 81t-55.5 62.5t-74 45t-79 30.5l-192 68l-82 34q-129 53 -188.5 127t-65.5 205z" />
<glyph unicode="T" horiz-adv-x="1134" d="M31 1180v254h1073v-254h-406v-1180h-262v1180h-405z" />
<glyph unicode="U" horiz-adv-x="1470" d="M141 614v820h262v-732q0 -115 16.5 -203.5t54.5 -150t101.5 -93.5t159.5 -32q94 0 158.5 32t102.5 93.5t54.5 150.5t16.5 203v732h262v-820q0 -301 -149.5 -472t-444.5 -171t-444.5 171t-149.5 472z" />
<glyph unicode="V" horiz-adv-x="1345" d="M0 1434h272l402 -1088l395 1088h270l-503 -1434h-320z" />
<glyph unicode="W" horiz-adv-x="1972" d="M20 1434h273l287 -1018l319 1018h182l332 -992l275 992h272l-420 -1434h-231l-320 956l-317 -956h-248z" />
<glyph unicode="X" horiz-adv-x="1284" d="M-2 0l506 715l-484 719h304l331 -504l303 504h302l-472 -691l500 -743h-303l-348 526l-338 -526h-301z" />
<glyph unicode="Y" horiz-adv-x="1224" d="M-14 1434h278l348 -566l349 566h278l-496 -799v-635h-262v635z" />
<glyph unicode="Z" horiz-adv-x="1122" d="M16 0l660 1180h-567v254h999l-659 -1180h567v-254h-1000z" />
<glyph unicode="[" horiz-adv-x="686" d="M137 -279v1815h527v-223h-295v-1368h295v-224h-527z" />
<glyph unicode="\" horiz-adv-x="1128" d="M68 1434h274l748 -1608h-275z" />
<glyph unicode="]" horiz-adv-x="696" d="M33 -25h295v1307h-295v254h526v-1815h-526v254z" />
<glyph unicode="^" horiz-adv-x="1046" d="M100 819v301l422 434l422 -434v-301l-422 434z" />
<glyph unicode="_" horiz-adv-x="1142" d="M-2 -74h1147v-192h-1147v192z" />
<glyph unicode="`" horiz-adv-x="620" d="M119 1323v213l383 -186v-152z" />
<glyph unicode="a" horiz-adv-x="1019" d="M43 287q0 104 61.5 173.5t149.5 111.5t187.5 60.5t176.5 20.5q-4 92 -45 130t-139 38q-121 0 -280 -78l-23 207q190 90 373 90q371 0 370 -411v-277q0 -55 3.5 -88t12.5 -50t27.5 -21.5t47.5 -4.5h32l-22 -208h-92q-166 0 -230 118q-105 -118 -310 -118h-3 q-63 0 -117.5 21.5t-94.5 61t-62.5 96t-22.5 128.5zM309 297q0 -123 137 -123q97 0 175 74v233q-59 -4 -115.5 -16t-100 -35.5t-70 -56.5t-26.5 -76z" />
<glyph unicode="b" horiz-adv-x="1169" d="M117 0v1536h254v-563q99 67 235 67h4q117 0 210 -41t157.5 -112.5t99.5 -168.5t35 -208t-34 -207t-97 -169t-157.5 -113.5t-213.5 -40.5q-137 0 -252 77l-4 -57h-237zM358 510q0 -150 58.5 -236t177.5 -86q123 0 190.5 87t67.5 235q0 147 -67.5 234t-190.5 87 q-119 0 -177.5 -86t-58.5 -235z" />
<glyph unicode="c" horiz-adv-x="917" d="M57 510q0 113 34 209t97.5 167.5t155.5 112.5t211 41q188 0 307 -75l-22 -217q-126 83 -262 83h-3q-123 0 -190.5 -87t-67.5 -234t68 -234.5t190 -87.5q137 0 265 84l22 -217q-119 -75 -307 -75q-119 0 -211 40.5t-155.5 111.5t-97.5 168t-34 210z" />
<glyph unicode="d" horiz-adv-x="1169" d="M57 510q0 111 35 208t99.5 168.5t157.5 112.5t210 41q137 0 240 -67v563h254v-1536h-240l-4 57q-114 -77 -247 -77h-3q-121 0 -214 40.5t-156.5 113.5t-97.5 169t-34 207zM317 510q0 -147 68 -234.5t190 -87.5q119 0 177.5 86t58.5 236t-58.5 235.5t-177.5 85.5 q-123 0 -190.5 -87t-67.5 -234z" />
<glyph unicode="e" horiz-adv-x="1054" d="M57 510q0 111 34 207t97.5 168.5t154.5 113.5t206 41q96 0 179 -31.5t143.5 -90t94 -140.5t33.5 -182q0 -57 -16 -139h-661q20 -133 107 -201t198 -68q35 0 75.5 6.5t82.5 17.5t83 26.5t74 33.5l12 -215q-148 -77 -337 -77h-5q-135 0 -238.5 40.5t-174 111.5t-106.5 168 t-36 210zM328 629h413q0 80 -45 141t-139 61t-151.5 -55t-77.5 -147z" />
<glyph unicode="f" horiz-adv-x="696" d="M35 815l22 209h123v244q0 53 16.5 102t47 86t77 58.5t105.5 21.5q96 0 231 -12l-22 -211q-23 4 -49.5 7t-59.5 3q-55 0 -73.5 -33t-18.5 -127v-139h225v-209h-225v-815h-254v815h-145z" />
<glyph unicode="g" horiz-adv-x="1026" d="M49 -209q0 141 168 229q-92 57 -92 148q0 90 102 139q-157 114 -157 327q0 89 28.5 162.5t83 128t131 85t172.5 30.5q137 0 234 -61q82 45 219 45h66l-17 -160h-92h-31.5t-25.5 -2q61 -96 61 -225q0 -84 -27.5 -157.5t-80 -128t-130 -86.5t-176.5 -32q-27 0 -53 3.5 t-55 7.5q-23 -10 -23 -33q0 -37 56.5 -51.5t199.5 -32.5q68 -8 138.5 -23.5t129 -49.5t98.5 -90t46 -146q0 -154 -127 -242t-363 -88q-119 0 -209 24.5t-151 65.5t-92 96.5t-31 116.5zM260 -184q0 -68 68.5 -108t191.5 -40t200 37t77 102q0 66 -77 93t-196 39q-55 6 -123 18 q-141 -47 -141 -141zM297 637q0 -100 48 -158.5t140 -58.5t139.5 58.5t47.5 158.5t-47.5 158.5t-139.5 58.5t-140 -58.5t-48 -158.5z" />
<glyph unicode="h" horiz-adv-x="1128" d="M117 0v1536h254v-565q105 69 210 69h3q436 0 436 -489v-551h-254v551q0 143 -48 211.5t-155 68.5q-117 0 -192 -88v-743h-254z" />
<glyph unicode="i" horiz-adv-x="491" d="M119 0v1024h254v-1024h-254zM119 1180v254h254v-254h-254z" />
<glyph unicode="j" horiz-adv-x="491" d="M-4 -287q41 0 65.5 3t37 18.5t16.5 48.5t4 94v1147h254v-1251q0 -119 -65.5 -194t-196.5 -75h-93zM119 1180v254h254v-254h-254z" />
<glyph unicode="k" horiz-adv-x="993" d="M117 0v1536h254v-932l325 420h287l-375 -492l375 -532h-287l-325 455v-455h-254z" />
<glyph unicode="l" horiz-adv-x="538" d="M119 248v1288h254v-1184q0 -59 3 -92t15 -48t37 -19.5t68 -4.5l-23 -208h-92q-131 0 -196.5 74.5t-65.5 193.5z" />
<glyph unicode="m" horiz-adv-x="1773" d="M119 0v1024h209l14 -80q119 96 262 96q94 0 178 -39.5t136 -115.5q14 29 45.5 56.5t75.5 50t99.5 35.5t118.5 13q100 0 177 -34.5t128.5 -98t77 -154.5t25.5 -202v-551h-254v551q0 147 -43 213.5t-147 66.5q-115 0 -159 -53t-44 -145v-633h-252v551q0 80 -11.5 134 t-36 87t-63.5 46t-94 13q-117 0 -188 -83v-748h-254z" />
<glyph unicode="n" horiz-adv-x="1130" d="M119 0v1024h237l4 -61q108 77 223 77h3q436 0 436 -489v-551h-254v551q0 143 -48 211.5t-155 68.5q-117 0 -192 -88v-743h-254z" />
<glyph unicode="o" horiz-adv-x="1150" d="M57 510q0 111 37 208t104.5 168.5t163 112.5t213.5 41q119 0 215.5 -42t164 -113.5t103.5 -167.5t36 -207q-1 -223 -142 -377q-138 -153 -374 -153h-3q-119 0 -214 40.5t-162.5 112.5t-104.5 168t-37 209zM317 510q0 -145 68 -233.5t190 -88.5q123 0 191 90.5t68 231.5 q0 145 -70 233q-68 88 -189 88q-123 0 -190.5 -88t-67.5 -233z" />
<glyph unicode="p" horiz-adv-x="1171" d="M119 -496v1520h221l20 -59q112 75 248 75h4q117 0 210 -41t157.5 -112.5t99.5 -168.5t35 -208t-33.5 -207t-97 -169t-158 -113.5t-213.5 -40.5q-137 0 -239 69v-545h-254zM360 510q0 -150 58.5 -236t177.5 -86q123 0 190.5 87t67.5 235q0 147 -67.5 234t-190.5 87 q-119 0 -177.5 -86t-58.5 -235z" />
<glyph unicode="q" horiz-adv-x="1171" d="M57 510q0 111 35 208t99.5 168.5t157.5 112.5t210 41q139 0 252 -75l20 59h222v-1520h-254v545q-103 -69 -240 -69q-121 0 -214 40.5t-156.5 113.5t-97.5 169t-34 207zM317 510q0 -147 68 -234.5t190 -87.5q119 0 177.5 86t58.5 236t-58.5 235.5t-177.5 85.5 q-123 0 -190.5 -87t-67.5 -234z" />
<glyph unicode="r" horiz-adv-x="700" d="M119 0v1024h237l6 -109q119 125 273 125h67l-49 -239h-94q-61 0 -112.5 -29t-73.5 -74v-698h-254z" />
<glyph unicode="s" horiz-adv-x="866" d="M63 55l23 217q25 -18 62.5 -36.5t79.5 -33t87 -23.5t86 -9q86 0 121 33t35 80q0 45 -24.5 68.5t-70.5 41t-111.5 37t-147.5 59.5q-61 35 -92 85.5t-37 140.5q0 63 21.5 121.5t66.5 103.5t115.5 72.5t171.5 27.5q94 0 185 -22.5t136 -52.5l-22 -217q-23 20 -54.5 40.5 t-68.5 36t-78 24.5t-80 9q-74 0 -122 -27.5t-48 -85.5q0 -49 31.5 -73.5t85.5 -44.5l35 -11q12 -4 39.5 -11t41.5 -11q63 -18 115.5 -43t89.5 -61.5t56.5 -88t19.5 -120.5q0 -301 -401 -301q-233 0 -347 75z" />
<glyph unicode="t" horiz-adv-x="704" d="M33 815l22 209h123v225l254 27v-252h225v-209h-225v-463q0 -59 4 -92t19.5 -49t46 -19.5t86.5 -3.5h69l-22 -208h-182q-68 0 -119 21.5t-86 57t-52.5 85t-17.5 104.5v567h-145z" />
<glyph unicode="u" horiz-adv-x="1130" d="M109 473v551h253v-551q0 -143 48.5 -211.5t154.5 -68.5q119 0 193 86v745h254v-1024h-238l-4 61q-105 -81 -224 -81h-3q-434 0 -434 493z" />
<glyph unicode="v" horiz-adv-x="1015" d="M6 1024h250l252 -709l252 709h250l-394 -1024h-217z" />
<glyph unicode="w" horiz-adv-x="1486" d="M20 1024h248l176 -715l193 695h213l190 -695l179 715h247l-299 -1024h-213l-211 668l-211 -668h-213z" />
<glyph unicode="x" horiz-adv-x="1005" d="M20 0l330 512l-330 512h304l186 -289l172 289h303l-332 -512l332 -512h-303l-186 289l-172 -289h-304z" />
<glyph unicode="y" horiz-adv-x="1099" d="M2 1024h283l262 -659l266 659h283l-641 -1520h-254l227 564z" />
<glyph unicode="z" horiz-adv-x="966" d="M43 0l453 799h-433v225h863l-453 -799h430v-225h-860z" />
<glyph unicode="{" horiz-adv-x="653" d="M29 629q47 25 78.5 51.5t52 60t29 76.5t8.5 103q0 18 -2 59t-5.5 85t-5.5 83t-2 51q0 170 101.5 254t345.5 84v-223h-41q-72 0 -112 -12.5t-61.5 -40t-26.5 -71.5t-5 -106q0 -23 3 -74t3 -153q0 -164 -104 -227q104 -66 104 -211q0 -10 -1 -35t-2 -52.5t-2 -54t-1 -40.5 v-113q2 -51 11 -86t32 -55.5t61.5 -29.5t100.5 -9q10 0 20 1t21 1v-224q-240 0 -343.5 82t-103.5 256q0 14 2 53.5t5.5 83.5t5.5 85t2 59q0 111 -36 175.5t-132 113.5z" />
<glyph unicode="|" horiz-adv-x="479" d="M137 -430v1966h205v-1966h-205z" />
<glyph unicode="}" horiz-adv-x="653" d="M25 -55q10 0 20 -1t21 -1q82 0 123.5 17t60 53t19.5 91.5t1 131.5q0 14 -1 40.5t-2 54t-2 52.5t-1 35q0 145 105 211q-104 63 -105 227q0 12 1 35.5t2 49.5t2 49.5t1 33.5q0 80 -2 135t-20.5 89t-60.5 49.5t-121 15.5h-41v223q244 0 345 -84t101 -254q0 -12 -2 -50 t-5 -83t-5 -86t-2 -59q0 -59 8 -102.5t28.5 -77t52.5 -60.5t79 -51q-96 -49 -132 -113.5t-36 -175.5q0 -18 2 -59t5 -86t5 -84.5t2 -51.5q0 -174 -103.5 -256t-342.5 -82v224z" />
<glyph unicode="~" horiz-adv-x="954" d="M94 391q4 49 27.5 87t59.5 65.5t80 42t89 14.5q31 0 67 -13.5t69.5 -29.5t61 -29.5t44.5 -13.5q45 0 77.5 30.5t39.5 65.5l155 -41q-6 -43 -26.5 -80.5t-52 -66.5t-72.5 -45.5t-90 -16.5q-27 0 -66 13.5t-77 30t-70.5 29.5t-47.5 13q-41 0 -65.5 -29.5t-32.5 -66.5z" />
<glyph unicode="&#xa1;" horiz-adv-x="471" d="M109 -512l41 1126h172l40 -1126h-253zM109 770v254h253v-254h-253z" />
<glyph unicode="&#xa2;" horiz-adv-x="974" d="M70 711q0 100 26.5 189t78.5 159.5t128 118t174 61.5l-33 293h220l-33 -291q90 -4 144 -25.5t99 -48.5l-22 -217q-127 84 -254 84q-135 0 -201.5 -89t-66.5 -232t66.5 -232.5t201.5 -89.5q127 0 254 84l22 -217q-43 -29 -97 -49.5t-146 -26.5l33 -248h-220l33 252 q-98 14 -175 60.5t-128 117t-77.5 159.5t-26.5 188z" />
<glyph unicode="&#xa3;" horiz-adv-x="1075" d="M63 0q119 143 171.5 294.5t68.5 326.5h-182l49 213h145v190q0 76 13.5 151.5t53.5 135t112.5 97.5t191.5 38q59 0 115.5 -11.5t101.5 -34t77 -59t44 -88.5l-158 -125q-25 63 -57.5 89t-95.5 26q-53 0 -84 -16.5t-45.5 -49t-17.5 -81.5t-3 -113v-149h379l-49 -213h-340 q-4 -57 -8 -101.5t-13.5 -85.5t-22.5 -83t-36 -97h479v-254h-889z" />
<glyph unicode="&#xa4;" horiz-adv-x="1286" d="M113 141l147 199q-135 147 -135 373q0 227 137 372l-149 199l123 102l151 -202q115 59 256 59t256 -61l154 204l123 -102l-150 -201q135 -147 135 -370t-137 -373l152 -199l-123 -102l-154 203q-109 -59 -256 -60q-147 0 -256 60l-151 -203zM385 713q0 -145 67.5 -233.5 t190.5 -88.5t190.5 90t67.5 232q0 145 -70 233q-68 88 -188 88q-123 0 -190.5 -88t-67.5 -233z" />
<glyph unicode="&#xa5;" horiz-adv-x="1445" d="M55 1434h273l395 -566l395 566h273l-500 -744h303l-53 -141h-287v-125h340l-53 -141h-287v-283h-262v283h-338l51 141h287v125h-338l49 141h252z" />
<glyph unicode="&#xa6;" horiz-adv-x="458" d="M139 389h180v-819h-180v819zM139 582v954h180v-954h-180z" />
<glyph unicode="&#xa7;" horiz-adv-x="942" d="M80 680q0 227 174 301q-88 70 -88 213q0 68 19.5 129t61.5 109.5t108.5 76t162.5 27.5q39 0 83 -7t86 -19.5t75 -28t49 -29.5l-18 -215q-143 102 -265 102q-184 0 -184 -118q0 -57 38 -91t96.5 -60t125 -51.5t124.5 -66.5t96 -104.5t38 -165.5q0 -229 -176 -301 q88 -74 88 -213q0 -68 -19.5 -129.5t-61.5 -109.5t-108.5 -75.5t-160.5 -27.5q-39 0 -84 7t-86 18.5t-75 27t-48 31.5l19 215q143 -102 264 -102q184 0 184 118q0 55 -38 89t-96 59.5t-125 51.5t-125 67t-96 105.5t-38 166.5zM274 725q0 -152 269 -219q18 0 40.5 13t42 32.5 t33 42t13.5 43.5q-8 72 -57.5 115t-139.5 65l-72 19q-18 0 -40.5 -9.5t-42 -25t-33 -36t-13.5 -40.5z" />
<glyph unicode="&#xa8;" horiz-adv-x="864" d="M178 1217v217h199v-217h-199zM487 1217v217h199v-217h-199z" />
<glyph unicode="&#xa9;" horiz-adv-x="1435" d="M82 748q0 152 48 275.5t133 211.5t202 136t254 48t254 -49t202 -137t132 -212t47 -273q0 -150 -47 -273t-131 -212t-201 -138t-256 -49t-256 49t-202 138t-132 212t-47 273zM240 748q0 -117 30.5 -214.5t90 -168t149.5 -109.5t209 -39q117 0 207 39t149.5 109.5t90 168 t30.5 214.5t-30.5 214t-91 166.5t-149.5 108.5t-206 39t-207 -39t-150.5 -108.5t-91 -167t-30.5 -213.5zM399 743q0 80 25 145.5t69 113t106.5 73t135.5 25.5q104 0 209 -47l-20 -174q-117 47 -189 47t-110.5 -48.5t-38.5 -134.5t39 -134t110 -48q84 0 189 51l20 -172 q-88 -51 -209 -51q-74 0 -135 25.5t-106 73t-70 113t-25 142.5z" />
<glyph unicode="&#xaa;" horiz-adv-x="739" d="M61 1077q0 61 41 101.5t96.5 64t109.5 33.5t79 12q-2 0 -6 6t-13.5 12.5t-23.5 12.5t-39 6q-16 0 -45 -4t-57.5 -10t-51 -11.5t-28.5 -5.5l-10 166q125 39 252 39q47 0 90 -12t74.5 -33.5t51 -53.5t19.5 -69v-219q0 -49 33 -49h33l-9 -174q-184 0 -235 41 q-45 -41 -193 -41q-68 0 -118 48t-50 140zM287 1081q0 -27 21.5 -43t51.5 -16q4 0 11.5 1t17.5 3v127q-102 -23 -102 -72z" />
<glyph unicode="&#xab;" horiz-adv-x="1243" d="M23 582l311 422h301l-311 -422l311 -422h-301zM555 582l311 422h301l-311 -422l311 -422h-301z" />
<glyph unicode="&#xac;" horiz-adv-x="1204" d="M123 639v192h942v-522h-193v330h-749z" />
<glyph unicode="&#xad;" horiz-adv-x="856" d="M111 471v193h634v-193h-634z" />
<glyph unicode="&#xae;" horiz-adv-x="1435" d="M82 748q0 152 48 275.5t133 211.5t202 136t254 48t254 -49t202 -137t132 -212t47 -273q0 -150 -47 -273t-131 -212t-201 -138t-256 -49t-256 49t-202 138t-132 212t-47 273zM242 748q0 -117 30.5 -213.5t90 -167t149.5 -109.5t207 -39t206 39t149.5 109.5t90 168 t29.5 212.5q0 117 -30.5 213t-90 165.5t-148.5 108.5t-206 39t-206 -39t-149.5 -107.5t-91 -165.5t-30.5 -214zM461 416v686h260q244 0 244 -225q0 -57 -29 -105.5t-68 -73.5l152 -282h-191l-127 229h-61v-229h-180zM641 811h49q53 0 71.5 17.5t18.5 52.5t-16.5 51t-69.5 16 h-53v-137z" />
<glyph unicode="&#xb0;" horiz-adv-x="665" d="M61 1266q0 59 19.5 110t54.5 89t85 59.5t112 21.5q61 0 112.5 -21.5t86 -59.5t54 -89t19.5 -110t-19.5 -110.5t-54 -88.5t-86 -58.5t-112.5 -21.5t-111.5 21.5t-85.5 58.5t-54.5 88t-19.5 111zM201 1266q0 -80 34.5 -127t96.5 -47q63 0 98 47t35 127t-35 128t-98 48 q-61 0 -96 -48t-35 -128z" />
<glyph unicode="&#xb1;" horiz-adv-x="997" d="M119 61v193h758v-193h-758zM119 635v192h282v263h193v-263h283v-192h-283v-262h-193v262h-282z" />
<glyph unicode="&#xb2;" horiz-adv-x="632" d="M35 655q319 438 319 553q0 88 -73 88q-41 0 -73 -19.5t-56.5 -44t-39 -48t-20.5 -31.5l-24 178q66 115 247 115q59 0 101.5 -16.5t70 -45t40 -65.5t12.5 -76q0 -137 -166 -385h192v-203h-530z" />
<glyph unicode="&#xb3;" horiz-adv-x="624" d="M35 700l49 185q63 -45 156 -45q137 0 137 45q0 117 -90 116h-135l14 148h70q33 0 53 7t31.5 18.5t15.5 21.5t4 16q0 76 -129 76q-70 0 -96 -26l-27 133q25 23 78 37t102 14q82 0 134.5 -22.5t81 -55.5t38.5 -70.5t10 -68.5q0 -59 -17 -100.5t-23 -43.5q6 -14 18 -31.5 t23.5 -40t20.5 -50t9 -62.5q0 -61 -24.5 -110.5t-67.5 -83t-99.5 -51t-117.5 -17.5q-31 0 -66.5 6t-67.5 15.5t-55.5 19.5t-29.5 20z" />
<glyph unicode="&#xb4;" horiz-adv-x="620" d="M119 1198v152l383 186v-213z" />
<glyph unicode="&#xb5;" horiz-adv-x="1247" d="M141 -496v1520h254v-551q0 -143 48.5 -211.5t154.5 -68.5q119 0 193 86v745h253v-672q0 -55 3.5 -88t12.5 -50t27.5 -21.5t47.5 -4.5h32l-22 -208h-92q-158 0 -222 106q-45 -43 -115.5 -72.5t-137.5 -29.5q-100 0 -183 28v-508h-254z" />
<glyph unicode="&#xb6;" d="M68 954q0 96 39.5 183.5t115.5 153t184.5 104.5t247.5 39h533v-220h-141v-1214h-181v1214h-127v-1214h-141v469q-125 8 -223.5 50t-167 107.5t-104 150.5t-35.5 177z" />
<glyph unicode="&#xb7;" horiz-adv-x="475" d="M111 436v266h254v-266h-254z" />
<glyph unicode="&#xb8;" horiz-adv-x="620" d="M264 -397l144 272l213 19l-205 -273z" />
<glyph unicode="&#xb9;" horiz-adv-x="452" d="M57 1157v152q39 0 76 38.5t45 82.5h156v-775h-197v519z" />
<glyph unicode="&#xba;" horiz-adv-x="772" d="M57 1194q0 61 22.5 117.5t65.5 97.5t103.5 65.5t136.5 24.5q74 0 134.5 -24.5t103.5 -66.5t66.5 -97.5t23.5 -116.5q0 -125 -90 -215t-238 -90q-76 0 -136.5 23.5t-103.5 65.5t-65.5 97t-22.5 119zM272 1194q0 -57 30 -102t83 -45t83 45t30 102q0 59 -31 102 q-33 45 -82 45q-51 0 -82 -45t-31 -102z" />
<glyph unicode="&#xbb;" horiz-adv-x="1243" d="M76 160l311 422l-311 422h301l311 -422l-311 -422h-301zM608 160l312 422l-312 422h301l312 -422l-312 -422h-301z" />
<glyph unicode="&#xbc;" horiz-adv-x="1507" d="M88 1157v152q39 0 76 38.5t45 82.5h156v-775h-197v519zM119 -174l747 1608h275l-748 -1608h-274zM784 213l383 564h172v-418h100v-146h-100v-211h-197v211h-358zM1032 359h110v155z" />
<glyph unicode="&#xbd;" horiz-adv-x="1501" d="M82 1157v152q39 0 76 38.5t45 82.5h156v-775h-197v519zM117 -174l747 1608h275l-748 -1608h-274zM899 2q319 438 319 553q0 88 -73 88q-41 0 -73 -19.5t-56.5 -44t-39 -48t-20.5 -31.5l-24 178q66 115 247 115q59 0 101.5 -16.5t70 -45t40 -65.5t12.5 -76 q0 -137 -166 -385h192v-203h-530z" />
<glyph unicode="&#xbe;" horiz-adv-x="1851" d="M64 700l49 185q63 -45 156 -45q137 0 137 45q0 117 -90 116h-135l14 148h70q33 0 53 7t31.5 18.5t15.5 21.5t4 16q0 76 -129 76q-70 0 -96 -26l-27 133q25 23 78 37t102 14q82 0 134.5 -22.5t81 -55.5t38.5 -70.5t10 -68.5q0 -59 -17 -100.5t-23 -43.5q6 -14 18 -31.5 t23.5 -40t20.5 -50t9 -62.5q0 -61 -24.5 -110.5t-67.5 -83t-99.5 -51t-117.5 -17.5q-31 0 -66.5 6t-67.5 15.5t-55.5 19.5t-29.5 20zM459 -174l747 1608h275l-748 -1608h-274zM1126 213l383 564h172v-418h100v-146h-100v-211h-197v211h-358zM1374 359h110v155z" />
<glyph unicode="&#xbf;" horiz-adv-x="897" d="M94 -123q-2 70 32 139.5t81 135.5l92 129q47 66 79 146.5t34 160.5v26h172q6 -92 6 -108q0 -96 -40 -175t-88 -150.5t-88 -144.5t-40 -157q0 -94 57.5 -142t149.5 -48q158 0 254 133l57 -189q-98 -145 -328 -145q-102 0 -182 35t-135 90t-84 124.5t-29 139.5zM371 770 v254h254v-254h-254z" />
<glyph unicode="&#xc0;" d="M6 0l510 1434h248l510 -1434h-273l-122 346h-478l-122 -346h-273zM449 1733v213l383 -186v-152zM492 600h296l-149 420z" />
<glyph unicode="&#xc1;" d="M6 0l510 1434h248l510 -1434h-273l-122 346h-478l-122 -346h-273zM449 1608v152l383 186v-213zM492 600h296l-149 420z" />
<glyph unicode="&#xc2;" d="M6 0l510 1434h248l510 -1434h-273l-122 346h-478l-122 -346h-273zM338 1608v152l301 186l301 -186v-152l-301 145zM492 600h296l-149 420z" />
<glyph unicode="&#xc3;" d="M6 0l510 1434h248l510 -1434h-273l-122 346h-478l-122 -346h-273zM254 1667q4 49 27.5 87t59.5 66t80 42t89 14q31 0 66.5 -13t69.5 -29.5t61.5 -30t43.5 -13.5q45 0 78 31t39 66l156 -41q-6 -43 -26.5 -81t-52.5 -66.5t-73 -45t-90 -16.5q-27 0 -65.5 13t-76.5 29.5 t-71 30t-47 13.5q-41 0 -65.5 -30t-32.5 -66zM492 600h296l-149 420z" />
<glyph unicode="&#xc4;" d="M6 0l510 1434h248l510 -1434h-273l-122 346h-478l-122 -346h-273zM385 1627v217h199v-217h-199zM492 600h296l-149 420zM694 1627v217h199v-217h-199z" />
<glyph unicode="&#xc5;" d="M6 0l510 1434h248l510 -1434h-273l-122 346h-478l-122 -346h-273zM426 1772q0 76 57.5 130t155.5 54q49 0 88 -15t66.5 -41t43 -58.5t15.5 -69.5q0 -35 -15 -69.5t-44 -61.5q-57 -51 -154 -51q-98 0 -155.5 52t-57.5 130zM492 600h296l-149 420zM549 1772 q0 -39 25.5 -61.5t64.5 -22.5t64.5 24.5t25.5 59.5q0 32 -27 59q-25 25 -63 25q-37 0 -63.5 -23.5t-26.5 -60.5z" />
<glyph unicode="&#xc6;" horiz-adv-x="1775" d="M-23 0l699 1434h1012v-254h-607v-306h467v-253h-467v-367h625v-254h-893v346h-397l-166 -346h-273zM537 600h276v574z" />
<glyph unicode="&#xc7;" horiz-adv-x="1249" d="M72 717q0 168 53 305t146.5 235.5t223.5 151.5t283 53q233 0 408 -84l-29 -250q-203 82 -379 82q-102 0 -180 -35.5t-131 -100t-81 -156t-28 -201.5q0 -111 28 -202t81 -155.5t131 -100.5t180 -36q176 0 379 82l29 -250q-175 -84 -408 -84q-154 0 -283.5 53.5t-224 151.5 t-146.5 235.5t-52 305.5zM444 -397l144 272l213 19l-205 -273z" />
<glyph unicode="&#xc8;" horiz-adv-x="1163" d="M158 0v1434h917v-254h-649v-306h504v-253h-504v-367h670v-254h-938zM367 1733v213l383 -186v-152z" />
<glyph unicode="&#xc9;" horiz-adv-x="1163" d="M158 0v1434h917v-254h-649v-306h504v-253h-504v-367h670v-254h-938zM367 1608v152l383 186v-213z" />
<glyph unicode="&#xca;" horiz-adv-x="1163" d="M158 0v1434h917v-254h-649v-306h504v-253h-504v-367h670v-254h-938zM258 1608v152l301 186l301 -186v-152l-301 145z" />
<glyph unicode="&#xcb;" horiz-adv-x="1163" d="M158 0v1434h917v-254h-649v-306h504v-253h-504v-367h670v-254h-938zM305 1627v217h199v-217h-199zM614 1627v217h199v-217h-199z" />
<glyph unicode="&#xcc;" horiz-adv-x="577" d="M99 1733v213l383 -186v-152zM158 0v1434h262v-1434h-262z" />
<glyph unicode="&#xcd;" horiz-adv-x="577" d="M99 1608v152l383 186v-213zM158 0v1434h262v-1434h-262z" />
<glyph unicode="&#xce;" horiz-adv-x="577" d="M-10 1608v152l301 186l301 -186v-152l-301 145zM158 0v1434h262v-1434h-262z" />
<glyph unicode="&#xcf;" horiz-adv-x="577" d="M35 1626v217h198v-217h-198zM158 0v1434h262v-1434h-262zM344 1626v217h199v-217h-199z" />
<glyph unicode="&#xd0;" horiz-adv-x="1497" d="M-8 612v193h188v629h537q156 0 286 -50.5t223 -143.5t145 -225t52 -298t-52 -299t-145 -225.5t-223 -142.5t-286 -50h-537v612h-188zM442 252h275q205 0 312.5 122t107.5 343t-107.5 343t-312.5 122h-275v-377h250v-193h-250v-360z" />
<glyph unicode="&#xd1;" horiz-adv-x="1447" d="M158 0v1434h258l612 -926v926h262v-1434h-215l-655 983v-983h-262zM338 1667q4 49 27.5 87t59.5 66t80 42t89 14q31 0 66.5 -13t69.5 -29.5t61.5 -30t43.5 -13.5q45 0 78 31t39 66l156 -41q-6 -43 -26.5 -81t-52.5 -66.5t-73 -45t-90 -16.5q-27 0 -65.5 13t-76.5 29.5 t-71 30t-47 13.5q-41 0 -65.5 -30t-32.5 -66z" />
<glyph unicode="&#xd2;" horiz-adv-x="1556" d="M72 717q0 168 53 305t146.5 235.5t223.5 151.5t283 53q154 0 284 -54t224 -152.5t146.5 -235.5t52.5 -303q0 -336 -199 -541q-197 -205 -508 -205q-154 0 -283.5 53.5t-224 151.5t-146.5 235.5t-52 305.5zM358 717q0 -111 28 -202t81 -155.5t131 -100.5t180 -36t180 36 t131.5 100.5t81 155.5t27.5 202q1 221 -108 358q-109 135 -312 135q-102 0 -180 -35.5t-131 -100t-81 -156t-28 -201.5zM586 1733v213l383 -186v-152z" />
<glyph unicode="&#xd3;" horiz-adv-x="1556" d="M72 717q0 168 53 305t146.5 235.5t223.5 151.5t283 53q154 0 284 -54t224 -152.5t146.5 -235.5t52.5 -303q0 -336 -199 -541q-197 -205 -508 -205q-154 0 -283.5 53.5t-224 151.5t-146.5 235.5t-52 305.5zM358 717q0 -111 28 -202t81 -155.5t131 -100.5t180 -36t180 36 t131.5 100.5t81 155.5t27.5 202q1 221 -108 358q-109 135 -312 135q-102 0 -180 -35.5t-131 -100t-81 -156t-28 -201.5zM586 1608v152l383 186v-213z" />
<glyph unicode="&#xd4;" horiz-adv-x="1556" d="M72 717q0 168 53 305t146.5 235.5t223.5 151.5t283 53q154 0 284 -54t224 -152.5t146.5 -235.5t52.5 -303q0 -336 -199 -541q-197 -205 -508 -205q-154 0 -283.5 53.5t-224 151.5t-146.5 235.5t-52 305.5zM358 717q0 -111 28 -202t81 -155.5t131 -100.5t180 -36t180 36 t131.5 100.5t81 155.5t27.5 202q1 221 -108 358q-109 135 -312 135q-102 0 -180 -35.5t-131 -100t-81 -156t-28 -201.5zM478 1608v152l301 186l301 -186v-152l-301 145z" />
<glyph unicode="&#xd5;" horiz-adv-x="1556" d="M72 717q0 168 53 305t146.5 235.5t223.5 151.5t283 53q154 0 284 -54t224 -152.5t146.5 -235.5t52.5 -303q0 -336 -199 -541q-197 -205 -508 -205q-154 0 -283.5 53.5t-224 151.5t-146.5 235.5t-52 305.5zM358 717q0 -111 28 -202t81 -155.5t131 -100.5t180 -36t180 36 t131.5 100.5t81 155.5t27.5 202q1 221 -108 358q-109 135 -312 135q-102 0 -180 -35.5t-131 -100t-81 -156t-28 -201.5zM394 1667q4 49 27.5 87t59.5 66t80 42t89 14q31 0 66.5 -13t69.5 -29.5t61.5 -30t43.5 -13.5q45 0 78 31t39 66l156 -41q-6 -43 -26.5 -81t-52.5 -66.5 t-73 -45t-90 -16.5q-27 0 -65.5 13t-76.5 29.5t-71 30t-47 13.5q-41 0 -65.5 -30t-32.5 -66z" />
<glyph unicode="&#xd6;" horiz-adv-x="1556" d="M72 717q0 168 53 305t146.5 235.5t223.5 151.5t283 53q154 0 284 -54t224 -152.5t146.5 -235.5t52.5 -303q0 -336 -199 -541q-197 -205 -508 -205q-154 0 -283.5 53.5t-224 151.5t-146.5 235.5t-52 305.5zM358 717q0 -111 28 -202t81 -155.5t131 -100.5t180 -36t180 36 t131.5 100.5t81 155.5t27.5 202q1 221 -108 358q-109 135 -312 135q-102 0 -180 -35.5t-131 -100t-81 -156t-28 -201.5zM524 1627v217h199v-217h-199zM833 1627v217h199v-217h-199z" />
<glyph unicode="&#xd7;" horiz-adv-x="917" d="M115 348l219 219l-219 219l125 125l219 -219l219 219l125 -125l-219 -219l219 -219l-125 -125l-219 219l-219 -219z" />
<glyph unicode="&#xd8;" horiz-adv-x="1556" d="M72 717q0 168 53 305t146.5 235.5t223.5 151.5t283 53q178 0 320 -69l51 73h274l-141 -206q203 -207 203 -543q0 -166 -52.5 -303.5t-146.5 -235.5t-223 -152.5t-285 -54.5q-180 0 -329 74l-74 -108h-275l166 241q-195 207 -194 539zM358 717q0 -184 70 -303l522 764 q-74 32 -172 32q-102 0 -180 -35.5t-131 -100t-81 -156t-28 -201.5zM596 258q82 -35 182 -35t179 36t132.5 100.5t81 155.5t27.5 202q0 186 -76 311z" />
<glyph unicode="&#xd9;" horiz-adv-x="1470" d="M141 614v820h262v-732q0 -115 16.5 -203.5t54.5 -150t101.5 -93.5t159.5 -32q94 0 158.5 32t102.5 93.5t54.5 150.5t16.5 203v732h262v-820q0 -301 -149.5 -472t-444.5 -171t-444.5 171t-149.5 472zM543 1733v213l383 -186v-152z" />
<glyph unicode="&#xda;" horiz-adv-x="1470" d="M141 614v820h262v-732q0 -115 16.5 -203.5t54.5 -150t101.5 -93.5t159.5 -32q94 0 158.5 32t102.5 93.5t54.5 150.5t16.5 203v732h262v-820q0 -301 -149.5 -472t-444.5 -171t-444.5 171t-149.5 472zM543 1608v152l383 186v-213z" />
<glyph unicode="&#xdb;" horiz-adv-x="1470" d="M141 614v820h262v-732q0 -115 16.5 -203.5t54.5 -150t101.5 -93.5t159.5 -32q94 0 158.5 32t102.5 93.5t54.5 150.5t16.5 203v732h262v-820q0 -301 -149.5 -472t-444.5 -171t-444.5 171t-149.5 472zM435 1608v152l301 186l301 -186v-152l-301 145z" />
<glyph unicode="&#xdc;" horiz-adv-x="1470" d="M141 614v820h262v-732q0 -115 16.5 -203.5t54.5 -150t101.5 -93.5t159.5 -32q94 0 158.5 32t102.5 93.5t54.5 150.5t16.5 203v732h262v-820q0 -301 -149.5 -472t-444.5 -171t-444.5 171t-149.5 472zM481 1627v217h199v-217h-199zM790 1627v217h199v-217h-199z" />
<glyph unicode="&#xdd;" horiz-adv-x="1224" d="M-14 1434h278l348 -566l349 566h278l-496 -799v-635h-262v635zM420 1608v152l383 186v-213z" />
<glyph unicode="&#xde;" horiz-adv-x="1155" d="M158 0v1434h262v-238h143q150 0 264.5 -15.5t192.5 -64.5t118 -138t40 -237q0 -154 -50.5 -253t-125 -155.5t-162.5 -78t-164 -21.5h-256v-233h-262zM420 479h221q143 0 206.5 57.5t63.5 202.5q0 61 -12 106.5t-44 74t-85 43t-135 14.5h-215v-498z" />
<glyph unicode="&#xdf;" horiz-adv-x="1157" d="M35 815l22 209h123v113q0 92 34 165.5t91 126t131 80t154 27.5q74 0 146.5 -21.5t130 -67.5t92 -119t34.5 -177q0 -84 -24.5 -148.5t-53 -112.5t-53 -82t-24.5 -56q0 -31 43 -63t95 -79t95 -116.5t43 -176.5q0 -94 -37 -158.5t-99.5 -104.5t-144 -57t-171.5 -17 q-29 0 -59 2t-64 8v198q78 0 137 2.5t99 14.5t59.5 38.5t19.5 75.5q0 82 -44 137.5t-98.5 100.5t-98.5 86t-44 94q0 43 28 82t61.5 85t62.5 102.5t29 132.5q0 51 -14.5 86t-37 56.5t-51.5 31.5t-59 10q-76 0 -115 -50t-39 -126v-1426h-254v1094h-145z" />
<glyph unicode="&#xe0;" horiz-adv-x="1019" d="M43 287q0 104 61.5 173.5t149.5 111.5t187.5 60.5t176.5 20.5q-4 92 -45 130t-139 38q-121 0 -280 -78l-23 207q190 90 373 90q371 0 370 -411v-277q0 -55 3.5 -88t12.5 -50t27.5 -21.5t47.5 -4.5h32l-22 -208h-92q-166 0 -230 118q-106 -119 -313 -118 q-63 0 -117.5 21.5t-94.5 61t-62.5 96t-22.5 128.5zM309 297q0 -123 137 -123q97 0 175 74v233q-59 -4 -115.5 -16t-100 -35.5t-70 -56.5t-26.5 -76zM318 1323v213l383 -186v-152z" />
<glyph unicode="&#xe1;" horiz-adv-x="1019" d="M43 287q0 104 61.5 173.5t149.5 111.5t187.5 60.5t176.5 20.5q-4 92 -45 130t-139 38q-121 0 -280 -78l-23 207q190 90 373 90q371 0 370 -411v-277q0 -55 3.5 -88t12.5 -50t27.5 -21.5t47.5 -4.5h32l-22 -208h-92q-166 0 -230 118q-106 -119 -313 -118 q-63 0 -117.5 21.5t-94.5 61t-62.5 96t-22.5 128.5zM309 297q0 -123 137 -123q97 0 175 74v233q-59 -4 -115.5 -16t-100 -35.5t-70 -56.5t-26.5 -76zM318 1198v152l383 186v-213z" />
<glyph unicode="&#xe2;" horiz-adv-x="1019" d="M43 287q0 104 61.5 173.5t149.5 111.5t187.5 60.5t176.5 20.5q-4 92 -45 130t-139 38q-121 0 -280 -78l-23 207q190 90 373 90q371 0 370 -411v-277q0 -55 3.5 -88t12.5 -50t27.5 -21.5t47.5 -4.5h32l-22 -208h-92q-166 0 -230 118q-106 -119 -313 -118 q-63 0 -117.5 21.5t-94.5 61t-62.5 96t-22.5 128.5zM211 1198v152l301 186l301 -186v-152l-301 145zM309 297q0 -123 137 -123q97 0 175 74v233q-59 -4 -115.5 -16t-100 -35.5t-70 -56.5t-26.5 -76z" />
<glyph unicode="&#xe3;" horiz-adv-x="1019" d="M43 287q0 104 61.5 173.5t149.5 111.5t187.5 60.5t176.5 20.5q-4 92 -45 130t-139 38q-121 0 -280 -78l-23 207q190 90 373 90q371 0 370 -411v-277q0 -55 3.5 -88t12.5 -50t27.5 -21.5t47.5 -4.5h32l-22 -208h-92q-166 0 -230 118q-106 -119 -313 -118 q-63 0 -117.5 21.5t-94.5 61t-62.5 96t-22.5 128.5zM123 1257q4 49 27.5 87t59.5 66t80 42t89 14q31 0 66.5 -13t69.5 -29.5t61.5 -30t43.5 -13.5q45 0 78 31t39 66l156 -41q-6 -43 -26.5 -81t-52.5 -66.5t-73 -45t-90 -16.5q-27 0 -65.5 13t-76.5 29.5t-71 30t-47 13.5 q-41 0 -65.5 -30t-32.5 -66zM309 297q0 -123 137 -123q97 0 175 74v233q-59 -4 -115.5 -16t-100 -35.5t-70 -56.5t-26.5 -76z" />
<glyph unicode="&#xe4;" horiz-adv-x="1019" d="M43 287q0 104 61.5 173.5t149.5 111.5t187.5 60.5t176.5 20.5q-4 92 -45 130t-139 38q-121 0 -280 -78l-23 207q190 90 373 90q371 0 370 -411v-277q0 -55 3.5 -88t12.5 -50t27.5 -21.5t47.5 -4.5h32l-22 -208h-92q-166 0 -230 118q-106 -119 -313 -118 q-63 0 -117.5 21.5t-94.5 61t-62.5 96t-22.5 128.5zM258 1217v217h199v-217h-199zM309 297q0 -123 137 -123q97 0 175 74v233q-59 -4 -115.5 -16t-100 -35.5t-70 -56.5t-26.5 -76zM567 1217v217h199v-217h-199z" />
<glyph unicode="&#xe5;" horiz-adv-x="1019" d="M43 287q0 104 61.5 173.5t149.5 111.5t187.5 60.5t176.5 20.5q-4 92 -45 130t-139 38q-121 0 -280 -78l-23 207q190 90 373 90q371 0 370 -411v-277q0 -55 3.5 -88t12.5 -50t27.5 -21.5t47.5 -4.5h32l-22 -208h-92q-166 0 -230 118q-106 -119 -313 -118 q-63 0 -117.5 21.5t-94.5 61t-62.5 96t-22.5 128.5zM299 1362q0 76 57.5 130t155.5 54q49 0 88 -15t66.5 -41t43 -58.5t15.5 -69.5q0 -35 -15 -69.5t-44 -61.5q-57 -51 -154 -51q-98 0 -155.5 52t-57.5 130zM309 297q0 -123 137 -123q97 0 175 74v233q-59 -4 -115.5 -16 t-100 -35.5t-70 -56.5t-26.5 -76zM422 1362q0 -39 25.5 -61.5t64.5 -22.5t64.5 24.5t25.5 59.5q0 32 -27 59q-25 25 -63 25q-37 0 -63.5 -23.5t-26.5 -60.5z" />
<glyph unicode="&#xe6;" horiz-adv-x="1626" d="M41 260q0 119 62.5 192.5t152.5 114.5t189.5 56.5t172.5 19.5q-4 98 -45 138t-141 40q-121 0 -280 -78l-23 207q190 90 371 90q123 0 198.5 -41t110.5 -141q14 35 48 67.5t81 58.5t105.5 41t119.5 15q90 0 165 -31.5t128 -89t83 -139.5t30 -180q-1 -61 -17 -143h-649 q20 -135 101 -202t192 -67q35 0 76 6.5t83 17.5t83 26.5t73 33.5l13 -215q-150 -78 -340 -77q-303 0 -410 192q-160 -203 -397 -203q-160 0 -248 78t-88 213zM307 283q0 -53 36 -85t87 -32q39 0 76 17.5t65.5 49t47 77.5t18.5 104v31.5t-2 25.5q-59 -2 -117.5 -13.5 t-105.5 -35t-76 -58t-29 -81.5zM909 629h432q0 82 -45 142t-141 60q-92 0 -159.5 -55t-86.5 -147z" />
<glyph unicode="&#xe7;" horiz-adv-x="919" d="M57 510q0 113 34 209t97.5 167.5t155.5 112.5t211 41q188 0 307 -75l-22 -217q-127 84 -265 83q-123 0 -190.5 -87t-67.5 -234t68 -234.5t190 -87.5q137 0 265 84l22 -217q-119 -75 -307 -75q-119 0 -211 40.5t-155.5 111.5t-97.5 168t-34 210zM340 -397l144 272l213 19 l-205 -273z" />
<glyph unicode="&#xe8;" horiz-adv-x="1054" d="M57 510q0 111 34 207t97.5 168.5t154.5 113.5t206 41q96 0 179 -31.5t143.5 -90t94 -140.5t33.5 -182q0 -57 -16 -139h-661q20 -133 107 -201t198 -68q35 0 75.5 6.5t82.5 17.5t83 26.5t74 33.5l12 -215q-150 -78 -342 -77q-135 0 -238.5 40.5t-174 111.5t-106.5 168 t-36 210zM328 629h413q0 80 -45 141t-139 61t-151.5 -55t-77.5 -147zM334 1323v213l383 -186v-152z" />
<glyph unicode="&#xe9;" horiz-adv-x="1054" d="M57 510q0 111 34 207t97.5 168.5t154.5 113.5t206 41q96 0 179 -31.5t143.5 -90t94 -140.5t33.5 -182q0 -57 -16 -139h-661q20 -133 107 -201t198 -68q35 0 75.5 6.5t82.5 17.5t83 26.5t74 33.5l12 -215q-150 -78 -342 -77q-135 0 -238.5 40.5t-174 111.5t-106.5 168 t-36 210zM328 629h413q0 80 -45 141t-139 61t-151.5 -55t-77.5 -147zM334 1198v152l383 186v-213z" />
<glyph unicode="&#xea;" horiz-adv-x="1054" d="M57 510q0 111 34 207t97.5 168.5t154.5 113.5t206 41q96 0 179 -31.5t143.5 -90t94 -140.5t33.5 -182q0 -57 -16 -139h-661q20 -133 107 -201t198 -68q35 0 75.5 6.5t82.5 17.5t83 26.5t74 33.5l12 -215q-150 -78 -342 -77q-135 0 -238.5 40.5t-174 111.5t-106.5 168 t-36 210zM226 1198v152l301 186l301 -186v-152l-301 145zM328 629h413q0 80 -45 141t-139 61t-151.5 -55t-77.5 -147z" />
<glyph unicode="&#xeb;" horiz-adv-x="1054" d="M57 510q0 111 34 207t97.5 168.5t154.5 113.5t206 41q96 0 179 -31.5t143.5 -90t94 -140.5t33.5 -182q0 -57 -16 -139h-661q20 -133 107 -201t198 -68q35 0 75.5 6.5t82.5 17.5t83 26.5t74 33.5l12 -215q-150 -78 -342 -77q-135 0 -238.5 40.5t-174 111.5t-106.5 168 t-36 210zM272 1217v217h199v-217h-199zM328 629h413q0 80 -45 141t-139 61t-151.5 -55t-77.5 -147zM581 1217v217h199v-217h-199z" />
<glyph unicode="&#xec;" horiz-adv-x="491" d="M60 1323v213l383 -186v-152zM119 0v1024h254v-1024h-254z" />
<glyph unicode="&#xed;" horiz-adv-x="491" d="M60 1198v152l383 186v-213zM119 0v1024h254v-1024h-254z" />
<glyph unicode="&#xee;" horiz-adv-x="491" d="M-53 1198v152l301 186l301 -186v-152l-301 145zM119 0v1024h254v-1024h-254z" />
<glyph unicode="&#xef;" horiz-adv-x="491" d="M-8 1217v217h198v-217h-198zM119 0v1024h254v-1024h-254zM301 1217v217h199v-217h-199z" />
<glyph unicode="&#xf0;" horiz-adv-x="1026" d="M33 420q0 88 29.5 170t85 145.5t136.5 100t183 36.5q137 0 240 -79q-4 31 -18.5 78t-34 93t-42 83.5t-45.5 54.5q-135 -100 -280 -117l-80 150q106 0 246 90q-117 98 -242 102l84 109q150 -2 297 -107q76 70 115 127l137 -33q-78 -123 -142 -192q123 -129 194 -311.5 t71 -391.5q0 -158 -42 -264t-109.5 -170.5t-151.5 -92.5t-168 -28q-100 0 -185.5 33t-147 92.5t-96 141.5t-34.5 180zM274 451q0 -55 14.5 -104.5t43 -86.5t70.5 -58.5t98 -21.5q92 0 156.5 60.5t64.5 183.5q0 119 -58 184.5t-169 65.5q-53 0 -93.5 -18.5t-69 -50.5 t-43 -71.5t-14.5 -82.5z" />
<glyph unicode="&#xf1;" horiz-adv-x="1130" d="M119 0v1024h237l4 -61q109 78 226 77q436 0 436 -489v-551h-254v551q0 143 -48 211.5t-155 68.5q-117 0 -192 -88v-743h-254zM181 1257q4 49 27.5 87t59.5 66t80 42t89 14q31 0 66.5 -13t69.5 -29.5t61.5 -30t43.5 -13.5q45 0 78 31t39 66l156 -41q-6 -43 -26.5 -81 t-52.5 -66.5t-73 -45t-90 -16.5q-27 0 -65.5 13t-76.5 29.5t-71 30t-47 13.5q-41 0 -65.5 -30t-32.5 -66z" />
<glyph unicode="&#xf2;" horiz-adv-x="1150" d="M57 510q0 111 37 208t104.5 168.5t163 112.5t213.5 41q119 0 215.5 -42t164 -113.5t103.5 -167.5t36 -207q-1 -223 -142 -377q-139 -154 -377 -153q-119 0 -214 40.5t-162.5 112.5t-104.5 168t-37 209zM317 510q0 -145 68 -233.5t190 -88.5q123 0 191 90.5t68 231.5 q0 145 -70 233q-68 88 -189 88q-123 0 -190.5 -88t-67.5 -233zM383 1323v213l383 -186v-152z" />
<glyph unicode="&#xf3;" horiz-adv-x="1150" d="M57 510q0 111 37 208t104.5 168.5t163 112.5t213.5 41q119 0 215.5 -42t164 -113.5t103.5 -167.5t36 -207q-1 -223 -142 -377q-139 -154 -377 -153q-119 0 -214 40.5t-162.5 112.5t-104.5 168t-37 209zM317 510q0 -145 68 -233.5t190 -88.5q123 0 191 90.5t68 231.5 q0 145 -70 233q-68 88 -189 88q-123 0 -190.5 -88t-67.5 -233zM383 1198v152l383 186v-213z" />
<glyph unicode="&#xf4;" horiz-adv-x="1150" d="M57 510q0 111 37 208t104.5 168.5t163 112.5t213.5 41q119 0 215.5 -42t164 -113.5t103.5 -167.5t36 -207q-1 -223 -142 -377q-139 -154 -377 -153q-119 0 -214 40.5t-162.5 112.5t-104.5 168t-37 209zM273 1198v152l301 186l301 -186v-152l-301 145zM317 510 q0 -145 68 -233.5t190 -88.5q123 0 191 90.5t68 231.5q0 145 -70 233q-68 88 -189 88q-123 0 -190.5 -88t-67.5 -233z" />
<glyph unicode="&#xf5;" horiz-adv-x="1150" d="M57 510q0 111 37 208t104.5 168.5t163 112.5t213.5 41q119 0 215.5 -42t164 -113.5t103.5 -167.5t36 -207q-1 -223 -142 -377q-139 -154 -377 -153q-119 0 -214 40.5t-162.5 112.5t-104.5 168t-37 209zM191 1257q4 49 27.5 87t59.5 66t80 42t89 14q31 0 66.5 -13 t69.5 -29.5t61.5 -30t43.5 -13.5q45 0 78 31t39 66l156 -41q-6 -43 -26.5 -81t-52.5 -66.5t-73 -45t-90 -16.5q-27 0 -65.5 13t-76.5 29.5t-71 30t-47 13.5q-41 0 -65.5 -30t-32.5 -66zM317 510q0 -145 68 -233.5t190 -88.5q123 0 191 90.5t68 231.5q0 145 -70 233 q-68 88 -189 88q-123 0 -190.5 -88t-67.5 -233z" />
<glyph unicode="&#xf6;" horiz-adv-x="1150" d="M57 510q0 111 37 208t104.5 168.5t163 112.5t213.5 41q119 0 215.5 -42t164 -113.5t103.5 -167.5t36 -207q-1 -223 -142 -377q-139 -154 -377 -153q-119 0 -214 40.5t-162.5 112.5t-104.5 168t-37 209zM317 510q0 -145 68 -233.5t190 -88.5q123 0 191 90.5t68 231.5 q0 145 -70 233q-68 88 -189 88q-123 0 -190.5 -88t-67.5 -233zM321 1217v217h199v-217h-199zM630 1217v217h199v-217h-199z" />
<glyph unicode="&#xf7;" horiz-adv-x="1148" d="M102 471v193h942v-193h-942zM438 41v266h254v-266h-254zM438 827v267h254v-267h-254z" />
<glyph unicode="&#xf8;" horiz-adv-x="1150" d="M57 510q0 111 37 208t104.5 168.5t163 112.5t213.5 41q35 0 69 -4t69 -12l32 70h224l-76 -154q201 -154 201 -430q0 -111 -36 -207t-103.5 -168t-164 -113.5t-215.5 -41.5q-68 0 -143 16l-33 -70h-217l74 154q-98 72 -148.5 183.5t-50.5 246.5zM317 510q0 -121 48 -205 l251 522q-12 2 -22.5 3t-18.5 1q-123 0 -190.5 -87t-67.5 -234zM528 193q14 -2 25.5 -3.5t21.5 -1.5q123 0 191 87t68 235q-1 115 -50 205z" />
<glyph unicode="&#xf9;" horiz-adv-x="1130" d="M109 473v551h253v-551q0 -143 48.5 -211.5t154.5 -68.5q119 0 193 86v745h254v-1024h-238l-4 61q-106 -82 -227 -81q-434 0 -434 493zM371 1323v213l383 -186v-152z" />
<glyph unicode="&#xfa;" horiz-adv-x="1130" d="M109 473v551h253v-551q0 -143 48.5 -211.5t154.5 -68.5q119 0 193 86v745h254v-1024h-238l-4 61q-106 -82 -227 -81q-434 0 -434 493zM371 1198v152l383 186v-213z" />
<glyph unicode="&#xfb;" horiz-adv-x="1130" d="M109 473v551h253v-551q0 -143 48.5 -211.5t154.5 -68.5q119 0 193 86v745h254v-1024h-238l-4 61q-106 -82 -227 -81q-434 0 -434 493zM265 1198v152l301 186l301 -186v-152l-301 145z" />
<glyph unicode="&#xfc;" horiz-adv-x="1130" d="M109 473v551h253v-551q0 -143 48.5 -211.5t154.5 -68.5q119 0 193 86v745h254v-1024h-238l-4 61q-106 -82 -227 -81q-434 0 -434 493zM311 1217v217h199v-217h-199zM620 1217v217h199v-217h-199z" />
<glyph unicode="&#xfd;" horiz-adv-x="1099" d="M2 1024h283l262 -659l266 659h283l-641 -1520h-254l227 564zM359 1198v152l383 186v-213z" />
<glyph unicode="&#xfe;" horiz-adv-x="1169" d="M117 -496v2032h254v-563q100 68 239 67q117 0 210 -41t157.5 -112.5t99.5 -168.5t35 -208t-34 -207t-97 -169t-157.5 -113.5t-213.5 -40.5q-137 0 -239 69v-545h-254zM358 510q0 -150 58.5 -236t177.5 -86q123 0 190.5 87t67.5 235q0 147 -67.5 234t-190.5 87 q-119 0 -177.5 -86t-58.5 -235z" />
<glyph unicode="&#xff;" horiz-adv-x="1099" d="M2 1024h283l262 -659l266 659h283l-641 -1520h-254l227 564zM295 1217v217h199v-217h-199zM604 1217v217h199v-217h-199z" />
<glyph unicode="&#x152;" horiz-adv-x="2177" d="M72 717q0 168 53 305t146.5 235.5t223.5 151.5t283 53q248 0 436 -141v113h875v-254h-606v-306h467v-253h-467v-367h624v-254h-893v113q-188 -141 -436 -142q-154 0 -283.5 53.5t-224 151.5t-146.5 235.5t-52 305.5zM358 717q0 -111 28 -202t81 -155.5t131 -100.5 t180 -36t180 36t131.5 100.5t81 155.5t27.5 202q1 221 -108 358q-109 135 -312 135q-102 0 -180 -35.5t-131 -100t-81 -156t-28 -201.5z" />
<glyph unicode="&#x153;" horiz-adv-x="1832" d="M57 510q0 111 37 208t104.5 168.5t163 112.5t213.5 41q242 0 386 -161q137 162 366 161q96 0 179 -31.5t143.5 -90t94.5 -140.5t34 -182q-1 -57 -17 -139h-661q20 -133 107 -201t198 -68q35 0 76 6.5t83 17.5t83 26.5t73 33.5l13 -215q-150 -78 -342 -77q-276 0 -426 165 q-145 -166 -390 -165q-119 0 -214 40.5t-162.5 112.5t-104.5 168t-37 209zM317 510q0 -145 68 -233.5t190 -88.5q123 0 191 90.5t68 231.5q0 145 -70 233q-68 88 -189 88q-123 0 -190.5 -88t-67.5 -233zM1106 629h414q0 80 -45 141t-140 61q-94 0 -151.5 -55t-77.5 -147z " />
<glyph unicode="&#x178;" horiz-adv-x="1224" d="M-14 1434h278l348 -566l349 566h278l-496 -799v-635h-262v635zM358 1627v217h199v-217h-199zM667 1627v217h199v-217h-199z" />
<glyph unicode="&#x2c6;" horiz-adv-x="913" d="M156 1198v152l301 186l301 -186v-152l-301 145z" />
<glyph unicode="&#x2dc;" horiz-adv-x="1081" d="M156 1257q4 49 27.5 87t59.5 66t80 42t89 14q31 0 66.5 -13t69.5 -29.5t61.5 -30t43.5 -13.5q45 0 78 31t39 66l156 -41q-6 -43 -26.5 -81t-52.5 -66.5t-73 -45t-90 -16.5q-27 0 -65.5 13t-76.5 29.5t-71 30t-47 13.5q-41 0 -65.5 -30t-32.5 -66z" />
<glyph unicode="&#x2000;" horiz-adv-x="978" />
<glyph unicode="&#x2001;" horiz-adv-x="1956" />
<glyph unicode="&#x2002;" horiz-adv-x="978" />
<glyph unicode="&#x2003;" horiz-adv-x="1956" />
<glyph unicode="&#x2004;" horiz-adv-x="652" />
<glyph unicode="&#x2005;" horiz-adv-x="489" />
<glyph unicode="&#x2006;" horiz-adv-x="326" />
<glyph unicode="&#x2007;" horiz-adv-x="326" />
<glyph unicode="&#x2008;" horiz-adv-x="244" />
<glyph unicode="&#x2009;" horiz-adv-x="391" />
<glyph unicode="&#x200a;" horiz-adv-x="108" />
<glyph unicode="&#x2010;" horiz-adv-x="856" d="M111 471v193h634v-193h-634z" />
<glyph unicode="&#x2011;" horiz-adv-x="856" d="M111 471v193h634v-193h-634z" />
<glyph unicode="&#x2012;" horiz-adv-x="856" d="M111 471v193h634v-193h-634z" />
<glyph unicode="&#x2013;" horiz-adv-x="1015" d="M111 471v193h794v-193h-794z" />
<glyph unicode="&#x2014;" horiz-adv-x="1204" d="M111 471v193h983v-193h-983z" />
<glyph unicode="&#x2018;" horiz-adv-x="430" d="M88 1044v267l201 225l53 -29l-68 -176l68 -20v-267h-254z" />
<glyph unicode="&#x2019;" horiz-adv-x="393" d="M84 1073l68 176l-68 21v266h254v-266l-201 -226z" />
<glyph unicode="&#x201a;" horiz-adv-x="475" d="M111 0v266h254v-266l-201 -225l-53 28l67 177z" />
<glyph unicode="&#x201c;" horiz-adv-x="860" d="M88 1044v267l201 225l53 -29l-68 -176l68 -20v-267h-254zM518 1044v267l201 225l53 -29l-67 -176l67 -20v-267h-254z" />
<glyph unicode="&#x201d;" horiz-adv-x="823" d="M84 1073l68 176l-68 21v266h254v-266l-201 -226zM514 1073l68 176l-68 21v266h254v-266l-201 -226z" />
<glyph unicode="&#x201e;" horiz-adv-x="946" d="M111 0v266h254v-266l-201 -225l-53 28l67 177zM582 0v266h254v-266l-201 -225l-53 28l67 177z" />
<glyph unicode="&#x2022;" horiz-adv-x="610" d="M82 569q0 45 18.5 85t49 71t70.5 49.5t85 18.5t85 -18.5t71 -49.5t49 -71t18 -85q0 -43 -16 -83.5t-49 -73.5q-35 -35 -75 -50.5t-83 -15.5q-45 0 -85 18.5t-70.5 49t-49 70.5t-18.5 85z" />
<glyph unicode="&#x2026;" horiz-adv-x="1441" d="M111 0v266h254v-266h-254zM594 0v266h254v-266h-254zM1077 0v266h254v-266h-254z" />
<glyph unicode="&#x202f;" horiz-adv-x="391" />
<glyph unicode="&#x2039;" horiz-adv-x="710" d="M23 582l311 422h301l-311 -422l311 -422h-301z" />
<glyph unicode="&#x203a;" horiz-adv-x="710" d="M76 160l311 422l-311 422h301l311 -422l-311 -422h-301z" />
<glyph unicode="&#x205f;" horiz-adv-x="489" />
<glyph unicode="&#x20ac;" horiz-adv-x="1439" d="M66 428l61 176h188q-4 25 -5 64t-1 65h-190l63 178h150q27 113 85 203t140 153.5t184.5 97.5t219.5 34q98 0 195 -18.5t175 -57.5l-28 -231q-84 35 -164 58.5t-178 23.5q-145 0 -232.5 -71t-124.5 -192h514l-65 -178h-475q0 -29 1 -67.5t7 -61.5h493l-61 -176h-375 q47 -80 125 -124t193 -44q98 0 178 23.5t164 58.5l28 -231q-78 -39 -175 -57.5t-195 -18.5q-209 0 -368 103.5t-233 289.5h-294z" />
<glyph unicode="&#x2122;" horiz-adv-x="1513" d="M66 1274v160h575l-20 -160h-193v-584h-164v584h-198zM627 690l100 744h102l187 -304l184 304h105l100 -744h-170l-53 434l-156 -254h-22l-154 254l-55 -434h-168z" />
<glyph unicode="&#x25fc;" horiz-adv-x="1024" d="M0 0v1024h1024v-1024h-1024z" />
</font>
</defs>
</svg>
