<?xml version="1.0" standalone="no"?>
<!DOCTYPE svg PUBLIC "-//W3C//DTD SVG 1.1//EN" "http://www.w3.org/Graphics/SVG/1.1/DTD/svg11.dtd" >
<svg xmlns="http://www.w3.org/2000/svg">
<metadata></metadata>
<defs>
<font id="esp_boldregular" horiz-adv-x="1620" >
<font-face units-per-em="2048" ascent="1638" descent="-410" />
<missing-glyph horiz-adv-x="1228" />
<glyph horiz-adv-x="0" />
<glyph unicode="&#xd;" horiz-adv-x="1228" />
<glyph unicode=" "  horiz-adv-x="1228" />
<glyph unicode="&#x09;" horiz-adv-x="1228" />
<glyph unicode="&#xa0;" horiz-adv-x="1228" />
<glyph unicode="!" horiz-adv-x="614" d="M-1 1106q0 151 11 240q15 133 56 205q50 87 139 87q88 0 137 -87q40 -71 56 -205q12 -96 12 -240q0 -150 -11 -240q-15 -134 -56 -205q-50 -88 -138 -88t-138 86q-41 72 -57 206q-11 94 -11 241zM0 246q0 102 60 175t145 73t145 -73t60 -175t-60 -174t-145 -72t-145 72 t-60 174z" />
<glyph unicode="&#x22;" horiz-adv-x="1126" d="M0 1331q0 113 62 205q70 102 172 102t172 -102q63 -93 63 -205q0 -111 -63 -203q-69 -101 -172 -101q-102 0 -171 101q-63 92 -63 203zM453 1331q0 113 62 205q70 102 172 102t172 -102q63 -92 63 -205q0 -112 -63 -203q-69 -101 -172 -101q-102 0 -171 101 q-63 91 -63 203z" />
<glyph unicode="#" horiz-adv-x="1638" d="M0 191v493h189v270h-189v493h189v191h489v-192h78v192h489v-191l189 -1v-492h-189v-270h189v-493h-189v-191h-489v191h-78v-191h-489v191h-189zM678 684h78v270h-78v-270z" />
<glyph unicode="$" horiz-adv-x="1638" d="M0 489h945v40v34h-511q-205 0 -305 69q-86 59 -113 182q-16 74 -16 256h1000q202 0 305 -66q86 -55 113 -165q16 -66 16 -213v-193q0 -148 -16 -214q-26 -110 -112 -164q-103 -66 -306 -66h-39v-191h-488v191h-39q-204 0 -305 68q-86 58 -113 178q-16 74 -16 254zM0 1150 q0 179 16 253q26 121 112 179q101 68 306 68h39v194h488v-194h39q205 0 305 -68q86 -58 113 -179q16 -73 16 -253h-1434z" />
<glyph unicode="%" horiz-adv-x="1843" d="M0 1189q0 175 128 299t310 124q181 0 309 -124.5t128 -298.5q0 -175 -128 -299t-309 -124t-309.5 124t-128.5 299zM75 263l1219 1375l270 -261l-1218 -1377zM330 1189q0 -43 31.5 -73.5t76.5 -30.5t76 30.5t31 73.5t-31.5 73.5t-75.5 30.5q-45 0 -76.5 -30.5t-31.5 -73.5 zM762 450q0 176 128 300t310 124q181 0 309.5 -124.5t128.5 -299.5t-128 -299.5t-310 -124.5t-310 124t-128 300zM1093 450q0 -43 31 -73.5t76 -30.5t76 30.5t31 73.5t-31 73.5t-76 30.5t-76 -30.5t-31 -73.5z" />
<glyph unicode="&#x26;" horiz-adv-x="1638" d="M0 433v637h434h188h245v-501h-378v-80h456v193h489v-249q0 -148 -16 -214q-26 -110 -112 -164q-103 -66 -306 -66h-39v-191h-488v191h-39q-247 0 -340.5 94.5t-93.5 349.5zM0 1150q0 179 16 253q26 121 112 179q101 68 306 68h39v194h488v-194h39q202 0 305 -66 q86 -55 113 -164q16 -66 16 -214v-250h-489v194h-945z" />
<glyph unicode="'" horiz-adv-x="614" d="M0 1331q0 113 54 205q61 102 151 102t150 -102q55 -92 55 -205q0 -112 -55 -203q-60 -101 -150 -101q-89 0 -150 101q-55 92 -55 203z" />
<glyph unicode="(" horiz-adv-x="819" d="M0 438v763q0 146 14 210q24 108 102 163q93 65 277 64h221v-493h-171v-651l171 -1v-493h-221q-183 0 -276 65q-77 54 -102 162q-15 67 -15 211z" />
<glyph unicode=")" horiz-adv-x="819" d="M0 0v494h171v651l-171 1v492h222q183 0 276 -64q77 -54 101 -163q15 -67 15 -210v-763q0 -146 -14 -211q-24 -108 -102 -162q-93 -65 -276 -65h-222z" />
<glyph unicode="*" horiz-adv-x="1024" d="M0 1086v284h60l-36 36l208 210l36 -37v59h284v-59l36 37l208 -210l-36 -36h59v-284h-58l35 -36l-207 -208l-37 36v-60h-284v60l-36 -35l-208 207l36 36h-60z" />
<glyph unicode="+" horiz-adv-x="1228" d="M0 582v474h275v275l474 -4v-271h275v-474h-275v-273l-474 -2v275h-275z" />
<glyph unicode="," horiz-adv-x="614" d="M0 0q0 113 54 205q61 102 151 102t150 -102q55 -92 55 -205q0 -112 -55 -203q-60 -101 -150 -101q-89 0 -150 101q-55 92 -55 203z" />
<glyph unicode="-" horiz-adv-x="1228" d="M0 614v410h1024v-410h-1024z" />
<glyph unicode="." horiz-adv-x="614" d="M0 205q0 85 60 145t145 60t145 -60t60 -145t-60 -145t-145 -60t-145 60t-60 145z" />
<glyph unicode="/" horiz-adv-x="1638" d="M0 262l1173 1376l261 -262l-1173 -1376z" />
<glyph unicode="0" horiz-adv-x="1638" d="M0 438v628h489v-253l220 332h-709q0 286 91 389.5t343 103.5h566q242 0 338 -96t96 -341v-763q0 -246 -95 -342t-339 -96h-566q-244 0 -338 92q-96 94 -96 346zM726 494h86q99 0 114 14q19 18 19 120v197z" />
<glyph unicode="1" horiz-adv-x="1024" d="M0 1145q0 201 128 349q124 144 282 144h409v-493h-409h-410zM358 0v1066h461v-1066h-461z" />
<glyph unicode="2" horiz-adv-x="1638" d="M0 0v465l842 680h-842q0 177 16 249q26 121 112 178q100 66 306 66h566q202 0 305 -64q86 -54 113 -163q16 -65 16 -210v-136l-662 -571h662v-494h-1434z" />
<glyph unicode="3" horiz-adv-x="1638" d="M0 438v246h489l1 -190h455v79h-378v493h378v79h-945q0 177 16 249q26 121 112 178q100 66 306 66h566q202 0 305 -64q86 -54 113 -163q16 -65 16 -210v-763q0 -149 -16 -211q-26 -108 -112 -162q-102 -65 -306 -65h-566q-202 0 -305 65q-86 54 -113 162q-16 65 -16 211z " />
<glyph unicode="4" horiz-adv-x="1638" d="M0 573v493h756v572h488v-572h183v-493h-183v-573h-488v573h-756zM0 1145v493h489v-493h-489z" />
<glyph unicode="5" horiz-adv-x="1638" d="M0 0v494h945v79h-945v493h1000q202 0 305 -65q86 -54 113 -163q16 -65 16 -210v-190q0 -146 -16 -211q-26 -109 -112 -162q-102 -65 -306 -65h-1000zM0 1145v493h1434v-493h-1434z" />
<glyph unicode="6" horiz-adv-x="1638" d="M0 438v190v438h1000q203 0 306 -65q85 -54 112 -163q16 -65 16 -210v-190q0 -146 -16 -211q-26 -109 -112 -162q-102 -65 -306 -65h-566q-202 0 -305 65q-86 54 -113 162q-16 65 -16 211zM0 1145q0 177 16 249q26 121 112 178q100 66 306 66h566q205 0 305 -66 q86 -58 113 -177q16 -72 16 -250h-1434zM489 494h456v79h-456v-79z" />
<glyph unicode="7" horiz-adv-x="1638" d="M0 1145v493h1434v-448l-492 -1190h-592l475 1145h-825z" />
<glyph unicode="8" horiz-adv-x="1638" d="M0 438q0 330 41 390q-27 34 -34 88t-7 150h939v79h-939q0 177 16 249q26 121 112 178q100 66 306 66h566q202 0 305 -64q86 -54 113 -163q16 -65 16 -210q0 -90 -6.5 -160.5t-24.5 -121.5q-21 -62 -59 -100q54 -54 74 -162q16 -80 16 -219q0 -149 -16 -211 q-26 -108 -112 -162q-102 -65 -306 -65h-566q-202 0 -305 65q-86 54 -113 162q-16 65 -16 211zM489 494h456v79h-456v-79z" />
<glyph unicode="9" horiz-adv-x="1638" d="M0 494h945v79h-511q-205 0 -305 66q-86 58 -113 177q-16 73 -16 250h945v79h-945q0 177 16 249q26 121 112 178q100 66 306 66h566q202 0 305 -64q86 -54 113 -163q16 -65 16 -210v-763q0 -146 -16 -211q-26 -109 -112 -162q-102 -65 -306 -65h-566q-205 0 -305 66 q-86 58 -113 177q-16 73 -16 251z" />
<glyph unicode=":" horiz-adv-x="614" d="M1 544q0 98 60 168t145 70t144.5 -70t59.5 -168t-60 -167.5t-144 -69.5q-85 0 -145 69.5t-60 167.5zM1 1094q0 98 60 167.5t145 69.5t144.5 -69.5t59.5 -167.5t-60 -167.5t-144 -69.5q-85 0 -145 69.5t-60 167.5z" />
<glyph unicode=";" horiz-adv-x="614" d="M1 437q0 123 54 223q60 111 151 111q90 0 150 -111q54 -100 54 -223q0 -122 -54 -221q-61 -110 -150 -110t-150 109q-55 100 -55 222zM1 1090q0 99 60 170t145 71t144.5 -70.5t59.5 -170.5q0 -99 -60 -170t-144 -71q-85 0 -145 70.5t-60 170.5z" />
<glyph unicode="&#x3c;" horiz-adv-x="1638" d="M0 821l1434 817v-485l-583 -333l583 -334v-486z" />
<glyph unicode="=" horiz-adv-x="1228" d="M0 307v475h1024v-475h-1024zM0 857v474h1024v-474h-1024z" />
<glyph unicode="&#x3e;" horiz-adv-x="1638" d="M0 0v486l582 334l-582 333v485l1434 -817z" />
<glyph unicode="?" horiz-adv-x="1638" d="M0 1145q0 177 16 249q26 121 112 178q100 66 306 66h566q202 0 305 -64q86 -54 113 -163q16 -65 16 -210v-191q0 -146 -16 -210q-26 -109 -112 -162q-102 -65 -306 -65h-527q0 174 14 251q22 119 90 176q78 66 234 66h134v79h-945zM473 246q0 102 71.5 175t172.5 73 t172.5 -73t71.5 -175t-71.5 -174t-172.5 -72t-172.5 72.5t-71.5 173.5z" />
<glyph unicode="@" horiz-adv-x="1638" d="M0 438v628h489v-572h945v-494h-1000q-202 0 -305 65q-86 54 -113 162q-16 65 -16 211zM0 1145q0 177 16 249q26 121 112 178q100 66 306 66h566q202 0 305 -64q86 -54 113 -163q16 -65 16 -210v-191q0 -146 -16 -210q-26 -109 -112 -162q-102 -65 -306 -65h-410v493h355 v79h-945z" />
<glyph unicode="A" horiz-adv-x="1638" d="M0 0v1066h945v79h-945q0 177 16 249q26 121 112 178q100 66 306 66h566q202 0 305 -64q86 -54 113 -163q16 -65 16 -210v-1201h-489v573h-456v-573h-489z" />
<glyph unicode="B" horiz-adv-x="1638" d="M0 0v1066h945v79h-945v493h1000q202 0 305 -64q86 -54 113 -163q16 -65 16 -210q0 -102 -5 -150q-8 -78 -31 -132q-27 -63 -80 -100q51 -36 79 -99q23 -54 31 -132q6 -56 6 -150q0 -146 -16 -211q-26 -109 -112 -162q-102 -65 -306 -65h-1000zM489 494h456v79h-456v-79z " />
<glyph unicode="C" horiz-adv-x="1638" d="M0 438v628h489v-572h456v190h489v-246q0 -146 -16 -211q-26 -109 -112 -162q-102 -65 -306 -65h-566q-202 0 -305 65q-86 54 -113 162q-16 65 -16 211zM0 1145q0 177 16 249q26 121 112 178q100 66 306 66h566q202 0 305 -64q86 -54 113 -163q16 -65 16 -210v-247h-489 v191h-945z" />
<glyph unicode="D" horiz-adv-x="1638" d="M0 0v1076h489v-582h456v651h-945v493h1000q202 0 305 -64q86 -54 113 -163q16 -65 16 -210v-763q0 -146 -16 -211q-26 -109 -112 -162q-102 -65 -306 -65h-1000z" />
<glyph unicode="E" horiz-adv-x="1638" d="M0 0v1066h1056v-493h-567v-79h945v-494h-1434zM0 1145v493h1434v-493h-1434z" />
<glyph unicode="F" horiz-adv-x="1638" d="M0 0v1066h1056v-493h-567v-573h-489zM0 1145v493h1434v-493h-1434z" />
<glyph unicode="G" horiz-adv-x="1638" d="M0 438v628h489v-572h456v79h-378v493h433q202 0 305 -65q86 -54 113 -163q16 -65 16 -210v-190q0 -146 -16 -211q-26 -109 -112 -162q-102 -65 -306 -65h-566q-202 0 -305 65q-86 54 -113 162q-16 65 -16 211zM0 1145q0 177 16 249q26 121 112 178q100 66 306 66h566 q205 0 305 -66q86 -58 113 -177q16 -72 16 -250h-1434z" />
<glyph unicode="H" horiz-adv-x="1638" d="M0 0v1066h945v572h489v-1638h-489v573h-456v-573h-489zM0 1145v493h489v-493h-489z" />
<glyph unicode="I" horiz-adv-x="614" d="M0 0v1066h410v-1066h-410zM0 1145v493h410v-493h-410z" />
<glyph unicode="J" horiz-adv-x="1638" d="M0 438v246h489v-190h456v1144h489v-1200q0 -146 -16 -211q-26 -109 -112 -162q-102 -65 -306 -65h-566q-202 0 -305 65q-86 54 -113 162q-16 65 -16 211z" />
<glyph unicode="K" horiz-adv-x="1638" d="M0 0v1066h391l453 572h590l-632 -819l632 -819h-591l-374 512v-512h-469zM0 1145v493h469v-493h-469z" />
<glyph unicode="L" horiz-adv-x="1638" d="M0 0v1066h489v-572h945v-494h-1434zM0 1145v493h489v-493h-489z" />
<glyph unicode="M" horiz-adv-x="1812" d="M0 0v1066h494v-1066h-494zM0 1145q0 178 16 249q26 121 113 178q101 66 309 66h763q206 0 308 -60q86 -50 113 -156q16 -63 16 -204v-17v-1201h-493v1145h-79v-954h-493v954h-573z" />
<glyph unicode="N" horiz-adv-x="1638" d="M0 0v1066h489v-1066h-489zM0 1145v493h1000q202 0 305 -64q86 -54 113 -163q16 -65 16 -210v-1201h-489v1145h-945z" />
<glyph unicode="O" horiz-adv-x="1638" d="M0 438v628h489v-572h456v651h-945q0 177 16 249q26 121 112 178q100 66 306 66h566q202 0 305 -64q86 -54 113 -163q16 -65 16 -210v-763q0 -146 -16 -211q-26 -109 -112 -162q-102 -65 -306 -65h-566q-202 0 -305 65q-86 54 -113 162q-16 65 -16 211z" />
<glyph unicode="P" horiz-adv-x="1638" d="M0 0v1066h945v79h-945v493h1000q202 0 305 -64q86 -54 113 -163q16 -65 16 -210v-191q0 -163 -16 -228q-26 -105 -112 -153q-99 -56 -306 -56h-511v-573h-489z" />
<glyph unicode="Q" horiz-adv-x="1638" d="M0 428v634h489v-577h456v656h-945q0 178 16 252q26 121 112 178q100 67 306 67h566q203 0 306 -64q85 -54 112 -164q16 -66 16 -212v-1409h-489v198h-511q-247 0 -340.5 94t-93.5 347z" />
<glyph unicode="R" horiz-adv-x="1638" d="M0 0v1066h945v79h-945v493h1000q221 0 335 -136q98 -118 99 -301v-191q0 -143 -13 -205q-23 -109 -99 -164q-90 -67 -266 -67v-80h378v-494h-434q-202 0 -304 65q-85 54 -112 162q-17 68 -17 211v135h-78v-573h-489z" />
<glyph unicode="S" horiz-adv-x="1638" d="M0 494h945v79h-511q-205 0 -305 66q-86 58 -113 177q-16 73 -16 250h1000q202 0 305 -65q86 -54 113 -163q16 -65 16 -210v-190q0 -146 -16 -211q-26 -109 -112 -162q-102 -65 -306 -65h-566q-205 0 -305 66q-86 58 -113 177q-16 73 -16 251zM0 1145q0 227 91 349 q108 144 343 144h566q205 0 305 -66q86 -58 113 -177q16 -72 16 -250h-1434z" />
<glyph unicode="T" horiz-adv-x="1638" d="M0 1145v493h1434v-493h-473v-1145h-488l-2 1145h-471z" />
<glyph unicode="U" d="M0 438v628h489v-572h456v1144h489v-1200q0 -146 -16 -211q-26 -109 -112 -162q-102 -65 -306 -65h-566q-202 0 -305 65q-86 54 -113 162q-16 65 -16 211zM0 1145v493h489v-493h-489z" />
<glyph unicode="V" horiz-adv-x="1638" d="M0 606v460h489v-319l228 -230l228 230v891h489v-1032l-600 -606h-235zM0 1145v493h489v-493h-489z" />
<glyph unicode="W" horiz-adv-x="1812" d="M0 438v628h494v-572h79v953h493v-953h79v1144h493v-1200q0 -146 -16 -211q-27 -109 -112 -162q-103 -65 -309 -65h-763q-204 0 -308 65q-86 54 -113 162q-17 67 -17 211zM0 1145v493h494v-493h-494z" />
<glyph unicode="X" horiz-adv-x="1638" d="M0 0v438l6 68q14 82 48 151q48 96 131 151q-84 38 -131 104q-33 46 -45 106l-6 48h431h266l245 164v408h489v-437q-3 -34 -7 -67q-13 -81 -45 -147q-45 -94 -123 -150q82 -31 123 -94q35 -53 45 -137q6 -51 7 -168v-438h-489v408l-228 154l-228 -154v-408h-489zM0 1145 v493h489v-493h-489z" />
<glyph unicode="Y" horiz-adv-x="1638" d="M0 1066h945v572h489v-628q0 -146 -16 -210q-26 -109 -112 -162q-102 -65 -306 -65h-39v-573h-488v573h-39q-205 0 -305 66q-86 58 -113 177q-16 73 -16 250zM0 1145v493h489v-493h-489z" />
<glyph unicode="Z" horiz-adv-x="1638" d="M0 0v463l760 682h-760v493h1434v-463l-760 -681h760v-494h-1434z" />
<glyph unicode="[" horiz-adv-x="819" d="M0 0v1638h614v-493h-171v-651h171v-494h-614z" />
<glyph unicode="\" horiz-adv-x="1638" d="M0 1376l261 262l1173 -1376l-261 -262z" />
<glyph unicode="]" horiz-adv-x="819" d="M0 0v494h172v651h-172v493h614v-1638h-614z" />
<glyph unicode="^" horiz-adv-x="1638" d="M0 1024l718 614l716 -614h-571l-146 146l-147 -146h-570z" />
<glyph unicode="_" horiz-adv-x="1638" d="M0 0h1638v-205h-1638v205z" />
<glyph unicode="`" horiz-adv-x="614" d="M-10 1399q0 98 41 165q45 74 123 74q88 0 166 -98q70 -89 91 -198q3 -17 5.5 -38.5t2.5 -39.5q0 -98 -41 -164q-45 -73 -122 -73q-87 0 -165 97q-70 86 -93 197q-3 17 -5.5 38.5t-2.5 39.5z" />
<glyph unicode="a" horiz-adv-x="1638" d="M0 0v1066h945v79h-945q0 177 16 249q26 121 112 178q100 66 306 66h566q202 0 305 -64q86 -54 113 -163q16 -65 16 -210v-1201h-489v573h-456v-573h-489z" />
<glyph unicode="b" horiz-adv-x="1638" d="M0 0v1066h945v79h-945v493h1000q202 0 305 -64q86 -54 113 -163q16 -65 16 -210q0 -102 -5 -150q-8 -78 -31 -132q-27 -63 -80 -100q51 -36 79 -99q23 -54 31 -132q6 -56 6 -150q0 -146 -16 -211q-26 -109 -112 -162q-102 -65 -306 -65h-1000zM489 494h456v79h-456v-79z " />
<glyph unicode="c" horiz-adv-x="1638" d="M0 438v628h489v-572h456v190h489v-246q0 -146 -16 -211q-26 -109 -112 -162q-102 -65 -306 -65h-566q-202 0 -305 65q-86 54 -113 162q-16 65 -16 211zM0 1145q0 177 16 249q26 121 112 178q100 66 306 66h566q202 0 305 -64q86 -54 113 -163q16 -65 16 -210v-247h-489 v191h-945z" />
<glyph unicode="d" horiz-adv-x="1638" d="M0 0v1076h489v-582h456v651h-945v493h1000q202 0 305 -64q86 -54 113 -163q16 -65 16 -210v-763q0 -146 -16 -211q-26 -109 -112 -162q-102 -65 -306 -65h-1000z" />
<glyph unicode="e" horiz-adv-x="1638" d="M0 0v1066h1056v-493h-567v-79h945v-494h-1434zM0 1145v493h1434v-493h-1434z" />
<glyph unicode="f" horiz-adv-x="1638" d="M0 0v1066h1056v-493h-567v-573h-489zM0 1145v493h1434v-493h-1434z" />
<glyph unicode="g" horiz-adv-x="1638" d="M0 438v628h489v-572h456v79h-378v493h433q202 0 305 -65q86 -54 113 -163q16 -65 16 -210v-190q0 -146 -16 -211q-26 -109 -112 -162q-102 -65 -306 -65h-566q-202 0 -305 65q-86 54 -113 162q-16 65 -16 211zM0 1145q0 177 16 249q26 121 112 178q100 66 306 66h566 q205 0 305 -66q86 -58 113 -177q16 -72 16 -250h-1434z" />
<glyph unicode="h" horiz-adv-x="1638" d="M0 0v1066h945v572h489v-1638h-489v573h-456v-573h-489zM0 1145v493h489v-493h-489z" />
<glyph unicode="i" horiz-adv-x="614" d="M0 0v1066h410v-1066h-410zM0 1145v493h410v-493h-410z" />
<glyph unicode="j" horiz-adv-x="1638" d="M0 438v246h489v-190h456v1144h489v-1200q0 -146 -16 -211q-26 -109 -112 -162q-102 -65 -306 -65h-566q-202 0 -305 65q-86 54 -113 162q-16 65 -16 211z" />
<glyph unicode="k" horiz-adv-x="1638" d="M0 0v1066h391l453 572h590l-632 -819l632 -819h-591l-374 512v-512h-469zM0 1145v493h469v-493h-469z" />
<glyph unicode="l" horiz-adv-x="1638" d="M0 0v1066h489v-572h945v-494h-1434zM0 1145v493h489v-493h-489z" />
<glyph unicode="m" horiz-adv-x="1812" d="M0 0v1066h494v-1066h-494zM0 1145q0 178 16 249q26 121 113 178q101 66 309 66h763q206 0 308 -60q86 -50 113 -156q16 -63 16 -204v-17v-1201h-493v1145h-79v-954h-493v954h-573z" />
<glyph unicode="n" horiz-adv-x="1638" d="M0 0v1066h489v-1066h-489zM0 1145v493h1000q202 0 305 -64q86 -54 113 -163q16 -65 16 -210v-1201h-489v1145h-945z" />
<glyph unicode="o" horiz-adv-x="1638" d="M0 438v628h489v-572h456v651h-945q0 177 16 249q26 121 112 178q100 66 306 66h566q202 0 305 -64q86 -54 113 -163q16 -65 16 -210v-763q0 -146 -16 -211q-26 -109 -112 -162q-102 -65 -306 -65h-566q-202 0 -305 65q-86 54 -113 162q-16 65 -16 211z" />
<glyph unicode="p" horiz-adv-x="1638" d="M0 0v1066h945v79h-945v493h1000q202 0 305 -64q86 -54 113 -163q16 -65 16 -210v-191q0 -163 -16 -228q-26 -105 -112 -153q-99 -56 -306 -56h-511v-573h-489z" />
<glyph unicode="q" horiz-adv-x="1638" d="M0 428v634h489v-538q0 -25 19 -34q6 -3 20 -5h378q13 2 19 5q20 10 20 34v571q0 28 -19 39q-6 3 -20 7h-906q0 178 16 252q26 121 112 178q100 67 306 67h566q203 0 306 -64q85 -54 112 -164q16 -66 16 -212v-1409h-489v198h-511q-247 0 -340.5 94t-93.5 347z" />
<glyph unicode="r" horiz-adv-x="1638" d="M0 0v1066h906q19 2 26 8q13 10 13 32q0 25 -19 34q-6 3 -20 5h-906v493h1000q221 0 335 -136q98 -118 99 -301v-191q0 -143 -14 -212q-22 -108 -90 -161q-80 -64 -236 -64q-18 -2 -25 -9q-13 -11 -13 -31q0 -25 19 -35q6 -3 19 -4h340v-494h-434q-202 0 -304 65 q-85 54 -112 162q-17 68 -17 211v95q-2 14 -5 20q-10 20 -34 20q-25 0 -34 -20q-3 -6 -5 -20v-533h-489z" />
<glyph unicode="s" horiz-adv-x="1638" d="M0 494h945v79h-511q-205 0 -305 66q-86 58 -113 177q-16 73 -16 250h1000q202 0 305 -65q86 -54 113 -163q16 -65 16 -210v-190q0 -146 -16 -211q-26 -109 -112 -162q-102 -65 -306 -65h-566q-205 0 -305 66q-86 58 -113 177q-16 73 -16 251zM0 1145q0 227 91 349 q108 144 343 144h566q205 0 305 -66q86 -58 113 -177q16 -72 16 -250h-1434z" />
<glyph unicode="t" horiz-adv-x="1638" d="M0 1145v493h1434v-493h-473v-1145h-488l-2 1145h-471z" />
<glyph unicode="u" d="M0 438v628h489v-572h456v1144h489v-1200q0 -146 -16 -211q-26 -109 -112 -162q-102 -65 -306 -65h-566q-202 0 -305 65q-86 54 -113 162q-16 65 -16 211zM0 1145v493h489v-493h-489z" />
<glyph unicode="v" horiz-adv-x="1638" d="M0 606v460h489v-319l228 -230l228 230v891h489v-1032l-600 -606h-235zM0 1145v493h489v-493h-489z" />
<glyph unicode="w" horiz-adv-x="1812" d="M0 438v628h494v-572h79v953h493v-953h79v1144h493v-1200q0 -146 -16 -211q-27 -109 -112 -162q-103 -65 -309 -65h-763q-204 0 -308 65q-86 54 -113 162q-17 67 -17 211zM0 1145v493h494v-493h-494z" />
<glyph unicode="x" horiz-adv-x="1638" d="M0 0v438l6 68q14 82 48 151q48 96 131 151q-84 38 -131 104q-33 46 -45 106l-6 48h431h266l245 164v408h489v-437q-3 -34 -7 -67q-13 -81 -45 -147q-45 -94 -123 -150q82 -31 123 -94q35 -53 45 -137q6 -51 7 -168v-438h-489v408l-228 154l-228 -154v-408h-489zM0 1145 v493h489v-493h-489z" />
<glyph unicode="y" horiz-adv-x="1638" d="M0 1066h945v572h489v-628q0 -146 -16 -210q-26 -109 -112 -162q-102 -65 -306 -65h-39v-573h-488v573h-39q-205 0 -305 66q-86 58 -113 177q-16 73 -16 250zM0 1145v493h489v-493h-489z" />
<glyph unicode="z" horiz-adv-x="1638" d="M0 0v463l760 682h-760v493h1434v-463l-760 -681h760v-494h-1434z" />
<glyph unicode="{" horiz-adv-x="1024" d="M0 819l195 214v168q0 147 15 210q25 109 103 163q94 65 281 64h225v-493q-78 0 -114 5t-60 16v-703q28 14 69.5 22.5t104.5 8.5v-494h-225q-186 0 -280 65q-80 54 -104 161q-14 63 -15 212v168z" />
<glyph unicode="|" horiz-adv-x="614" d="M0 -205v2048h410v-2048h-410z" />
<glyph unicode="}" horiz-adv-x="1024" d="M0 0v494q79 0 114.5 -5.5t59.5 -17.5v703q-26 -13 -70 -21t-104 -8v493h225q186 0 280 -64q79 -54 104 -163q14 -63 14 -210v-168l196 -214l-196 -213v-168q0 -146 -14 -211q-25 -109 -103 -162q-94 -65 -280 -65h-226z" />
<glyph unicode="~" horiz-adv-x="1433" d="M0 1177q0 168 15 233q26 112 111 166q99 62 302 62q184 0 285 -51q86 -44 119 -131q24 -64 24 -175h373q0 -168 -15 -234q-26 -112 -112 -165q-99 -62 -301 -63q-184 0 -285 51q-86 43 -118 132q-25 66 -25 175h-373z" />
<glyph unicode="&#xa1;" horiz-adv-x="684" d="M0 -162v572q0 86 9.5 137t23.5 67.5t58.5 28.5t114.5 12q67 0 110 -11t59 -28q14 -17 24.5 -69.5t10.5 -136.5v-572q0 -82 -10 -133t-25 -71q-14 -16 -60 -28.5t-114 -12.5q-70 0 -113 12.5t-59 31.5q-12 19 -20.5 69.5t-8.5 131.5zM0 982q0 100 59 173q30 35 66.5 54 t79.5 19q85 0 145 -72q29 -36 44.5 -80t15.5 -94q0 -102 -60.5 -174t-143.5 -72q-86 0 -146 72.5t-60 173.5z" />
<glyph unicode="&#xa2;" d="M0 432v638h489v-444q0 -19 -0.5 -41.5t-1.5 -46.5q0 -34 8 -42t49 -8h31t35 1h12h190q18 0 35 -0.5t32 -0.5q24 0 38 1.5t21 7.5q6 6 7 30.5t1 74.5v80h488v-250q0 -122 -26 -207.5t-74.5 -134.5t-131.5 -75t-202 -26h-35v-192h-491v192h-40q-120 0 -203.5 26t-131.5 75 t-73.5 134t-25.5 208zM0 1150q0 159 25 252.5t74 145.5q47 49 131.5 75.5t203.5 26.5h40v194h491v-194h35q118 0 202 -26t132 -74.5t74 -134t26 -209.5v-250h-489v43q0 126 -10 143q-10 8 -53 8h-34h-37h-811z" />
<glyph unicode="&#xa3;" d="M0 0v112q62 0 119 25t109.5 77t79.5 107.5t27 116.5v135h-195v493h195v135q0 122 26 205t77 131.5t137.5 74.5t211.5 26h196q122 0 209 -26t138.5 -74t77.5 -140t26 -253h-451h-40t-36 1q-23 0 -36 -2t-20 -8t-7 -57v-13h197v-493h-196v-79h589v-494h-647h-787z" />
<glyph unicode="&#xa4;" d="M0 361l234 233q-10 14 -19.5 32t-19.5 40q-29 74 -29 153q0 78 30 151q17 42 38 73l-234 235l261 258l232 -234q15 10 34 20.5t37 17.5q72 30 153 30q77 0 151 -29q25 -10 41.5 -19t32.5 -20l232 234l260 -258l-234 -235q22 -32 38 -73q33 -69 32 -150q0 -84 -32 -155 q-17 -40 -37 -71l233 -233l-260 -259l-232 232q-44 -31 -101 -47.5t-124 -16.5q-135 0 -225 64l-231 -232zM542 818q0 -72 51 -123.5t125 -51.5q71 0 123 52.5t52 123.5q0 70 -52 122.5t-124 52.5q-70 0 -124 -52q-25 -26 -38 -57t-13 -67z" />
<glyph unicode="&#xa5;" d="M0 1143v495h489v-495h-489zM16 1064h630l71 -73l228 231v416h489v-557l-395 -400h300v-304h-378v16h190v-303h-190v-190h-487v190h-191v303h191v-16h-380v304h301z" />
<glyph unicode="&#xa6;" horiz-adv-x="1272" d="M513 0v684h409v-684h-409zM513 954v684h409v-684h-409z" />
<glyph unicode="&#xa7;" d="M0 -204v498h438q11 0 13.5 8t2.5 31q0 22 -2.5 30.5t-14.5 8.5q-121 0 -205.5 26t-132 75.5t-73.5 135t-26 205.5v192q0 122 25 206t73.5 133t134.5 75.5t205 26.5h438v-498h-438q-10 0 -13 -7.5t-3 -24.5v-8q0 -22 2 -30.5t14 -8.5q120 0 204 -26t133 -75.5t75 -134 t26 -205.5v-385q0 -98 -107 -177q-47 -34 -131 -52.5t-200 -18.5h-438zM764 -13v498h437q10 0 12.5 8.5t2.5 30.5v22q-2 18 -16 18q-119 0 -204 26t-132.5 74.5t-73.5 134.5t-26 207v384q0 49 25 93t81 84q47 34 131 52.5t200 18.5h437v-497h-437q-10 0 -13 -7.5t-3 -24.5 v-9q0 -22 2.5 -30t13.5 -8q120 0 203.5 -26t132 -74t75 -134t26.5 -207v-192q0 -122 -26 -207t-74 -134.5t-132 -75t-205 -25.5h-437z" />
<glyph unicode="&#xa8;" horiz-adv-x="1338" d="M307 1894q0 62 54 108.5t132 46.5q77 0 133 -47q54 -50 54 -107q0 -63 -57 -108t-129 -45q-80 0 -133.5 45t-53.5 107zM754 1894q0 60 54 107.5t130 47.5q35 0 68 -10.5t67 -34.5q54 -53 54 -108q0 -63 -57 -110q-59 -44 -130 -44q-75 0 -132 44q-26 22 -40 50t-14 58z " />
<glyph unicode="&#xa9;" horiz-adv-x="1812" d="M0 820q0 338 241 578t578 240q339 0 579 -240q120 -121 180 -264t60 -313q0 -341 -240.5 -581t-577.5 -240q-340 0 -580 241t-240 579zM303 820q0 -212 152 -364.5t365 -152.5q210 0 364 151q75 76 114 168.5t39 198.5q0 210 -153 363q-77 75 -168 114t-197 39 q-212 0 -364 -153t-152 -364zM382 628q0 -68 17 -115t48 -74.5t83 -42t125 -14.5h328q74 0 126 14.5t82.5 41.5t48 74.5t17.5 115.5v153h-328q0 -50 0.5 -74t0.5 -25q-3 -1 -24.5 0.5t-31.5 1.5h-108q-18 0 -30 -1t-22 -1h-8q-1 2 2 17.5t3 25.5v245h-329v-342zM382 954h490 q19 0 37 3t20 1t0 -32.5t-2 -67.5h330v152q0 67 -17.5 115t-49.5 77q-32 26 -83 40.5t-124 14.5h-329q-74 0 -125 -15t-82 -41q-33 -30 -48 -83q-18 -60 -17 -164z" />
<glyph unicode="&#xaa;" horiz-adv-x="1236" d="M307 820v550h439v-16h-439q0 100 13 150t41 78q24 26 68.5 41t104.5 15h264q62 0 105 -14t68 -40t39 -69.5t14 -107.5v-587h-278v268h-160v-268h-279z" />
<glyph unicode="&#xab;" horiz-adv-x="1812" d="M0 821l985 715v-392l-434 -324l434 -326v-392zM654 821l984 715v-392l-433 -325l433 -325v-392z" />
<glyph unicode="&#xac;" d="M0 550v474h1434v-1024h-489v550h-945z" />
<glyph unicode="&#xad;" d="M0 614v410h1434v-410h-1434z" />
<glyph unicode="&#xae;" horiz-adv-x="1812" d="M0 820q0 338 241 578t578 240q339 0 579 -240q120 -121 180 -264t60 -313q0 -341 -240.5 -581t-577.5 -240q-340 0 -580 241t-240 579zM303 820q0 -212 152 -364.5t365 -152.5q210 0 364 151q75 76 114 168.5t39 198.5q0 210 -153 363q-77 75 -168 114t-197 39 q-212 0 -364 -153t-152 -364zM382 382h329v287h-29l219 -287h413l-227 297q34 7 58.5 18.5t43.5 26.5q33 27 50.5 74.5t17.5 115.5v96q0 67 -17.5 115t-49 76t-83 42t-125.5 14h-600v-303h544q4 1 5 6t0 6q-6 -2 -5 -3q0 -4 4 -3t7 2q-2 2 -3.5 5t-5.5 3h-546v-588z" />
<glyph unicode="&#xaf;" horiz-adv-x="1812" d="M0 1229v409h1638v-409h-1638z" />
<glyph unicode="&#xb0;" horiz-adv-x="1272" d="M410 2044q0 122 90 215.5t216 93.5q124 0 216 -91.5t92 -216.5q0 -128 -92.5 -217.5t-214.5 -89.5q-127 0 -217 90t-90 216zM658 2044q0 -26 16.5 -42t43.5 -16q21 0 42 18q17 17 17 42q0 21 -19 41q-20 18 -43 18t-40 -18t-17 -43z" />
<glyph unicode="&#xb1;" horiz-adv-x="1428" d="M206 0v489h275v173h-275v489l275 1v282h473v-283h275v-489h-275v-173h275v-489h-1023z" />
<glyph unicode="&#xb2;" horiz-adv-x="1236" d="M307 820v258l438 312q0 -14 3 -19q1 -2 4 -2q5 -5 5 -10t-4 -5h-446q0 98 13.5 150t39.5 79t69 41t105 14h263q62 0 103.5 -13.5t68 -39.5t41 -70.5t14.5 -107.5v-115l-248 -190h248v-282h-717z" />
<glyph unicode="&#xb3;" horiz-adv-x="1236" d="M307 1050v143h279q0 -48 -4 -83q-2 -10 0 -12t15 1t25 3h88q11 0 19.5 -2t14.5 -3v-9h-174v282h175q2 -9 3 -17q5 2 0 7q-2 2 -14.5 -2t-24.5 -4h-402q0 98 13.5 150t39.5 79t69 41t105 14h263q62 0 103.5 -13.5t68 -39.5t41 -70.5t14.5 -107.5v-357q0 -65 -14 -108 t-40 -68q-24 -25 -68 -39.5t-105 -14.5h-263q-62 0 -103.5 13t-68 39t-41 70t-14.5 108z" />
<glyph unicode="&#xb4;" horiz-adv-x="1236" d="M522 1262q0 18 2 34.5t9 37.5q26 87 112 173q83 81 172 111q38 12 71 12q28 0 51 -9t41 -25q17 -18 26 -42t9 -54q0 -31 -11 -69q-30 -93 -112 -172q-38 -40 -81.5 -67.5t-91.5 -44.5q-40 -12 -70 -12q-56 0 -93 35q-17 18 -25.5 40t-8.5 52z" />
<glyph unicode="&#xb5;" d="M0 -408v1466h489v-444q0 -19 -0.5 -41t-1.5 -47q0 -34 8 -41.5t49 -7.5h31t35 1h12h190q18 0 35 -0.5t32 -0.5q24 0 38 1.5t21 7.5q8 10 8 55q0 14 -0.5 29.5t-0.5 33.5v11v1025l489 -2v-1217q0 -122 -26 -208t-74 -134.5t-132.5 -74.5t-201.5 -26h-511v-386h-489z M0 1138v500h489v-500h-489z" />
<glyph unicode="&#xb6;" horiz-adv-x="1812" d="M0 1066h573v79h-572q0 159 24.5 251t74 141t134 75t204.5 26h1200v-1638h-493v1145h-79v-1145h-493v573h-135q-121 0 -206 25.5t-133.5 75t-72.5 136.5q-26 97 -26 256z" />
<glyph unicode="&#xb7;" horiz-adv-x="1152" d="M513 820q0 82 58 144q62 60 145 60q43 0 78.5 -14t66.5 -45q61 -61 61 -145t-62 -146q-29 -29 -65.5 -44.5t-76.5 -15.5q-86 0 -145.5 60.5t-59.5 145.5z" />
<glyph unicode="&#xb8;" horiz-adv-x="1896" d="M0 580v308h2049v-308h-194v18h96v-308h-96v17h194v-307h-501v580h-1048v-580h-306v580h-194zM387 1742v307h1274v-307h-677v-872h-307v872h-290zM450 694h326l7 -23l8 23h325l-181 -360v-334h-309v334zM967 0v694h597v-500h-290v-194h-307zM1065 870v888h306v-580h290 v-308h-596zM1258 500h16v80h-16v-80z" />
<glyph unicode="&#xb9;" horiz-adv-x="1146" d="M513 1354q0 100 11.5 150t34.5 77t62.5 42t94.5 15h206v-284h-205h-204zM670 820v550h252v-550h-252z" />
<glyph unicode="&#xba;" horiz-adv-x="1236" d="M307 1050v320h279v-57l28 43h-307q0 79 16 125.5t54 84.5q71 72 157 72h264q86 0 156 -70.5t70 -159.5v-358q0 -89 -71 -159.5t-155 -70.5h-264q-85 0 -156 71t-71 159zM711 1103q10 0 22 -3.5t14 -1.5t0.5 17.5t-1.5 27.5l-27 -39z" />
<glyph unicode="&#xbb;" horiz-adv-x="1812" d="M0 102v392l434 326l-434 324v392l985 -715zM654 102v392l434 325l-434 325v392l986 -715z" />
<glyph unicode="&#xbc;" horiz-adv-x="1812" d="M0 263l1203 1375l268 -261l-1202 -1377zM21 1318q0 102 14.5 156t42.5 81t73 42t111 15h246v-294h-245h-242zM208 766v569h300v-569h-300zM834 303l150 292h262v-15h-271l151 293h418v-278h94v-292h-94v-277h-298v277h-412z" />
<glyph unicode="&#xbd;" horiz-adv-x="1812" d="M0 263l1203 1375l268 -261l-1202 -1377zM21 1318q0 102 14.5 156t42.5 81t73 42t111 15h246v-291l-245 -3h-242zM208 766v569h300v-569h-300zM869 26v265l470 325q0 -14 6 -22q2 -2 5 -4q1 -3 1 -6.5t-3 -3.5h-479q0 101 14.5 155t42 81t73 42t113.5 15h282q66 0 112 -14 t75 -41q26 -28 41.5 -74t15.5 -109v-121l-266 -196h266v-292h-769z" />
<glyph unicode="&#xbe;" horiz-adv-x="1812" d="M0 1004v147h299q-6 -79 -6 -89q0 -6 3 -8q2 -2 16 1t26 3h94q12 0 24.5 -3t13.5 -3l-1 -9h-187v292h188q0 -21 4 -21q1 4 1 8q-4 1 -9 0q-26 -4 -35 -4h-431q0 102 14.5 155.5t42.5 81t73.5 42.5t113.5 15h282q65 0 110 -14t76 -41q26 -27 42 -74.5t16 -108.5v-370 q0 -66 -15.5 -112t-44 -72t-74.5 -40t-110 -14h-282q-66 0 -111.5 14t-74.5 41q-28 25 -43 69t-15 114zM170 263l1202 1375l266 -261l-1202 -1377zM814 303l149 292h262v-15h-271l151 293h418v-278h95v-292h-95v-277h-298v277h-411z" />
<glyph unicode="&#xbf;" d="M0 28v191q0 120 25.5 204t74 132t133 74t201.5 26h95h432q0 -158 -24.5 -248.5t-73.5 -139t-131 -75t-198 -26.5l-45 -1v-39q2 -27 9 -35q4 -5 22.5 -6.5t25.5 -1.5h30.5t34.5 1h11h812q0 -158 -24 -248.5t-72 -140t-132 -76t-205 -26.5h-567q-119 0 -202 25t-131.5 73 t-74.5 132.5t-26 204.5zM474 982q0 50 16.5 93t53.5 80t79.5 55t93.5 18q102 0 174 -72q35 -35 52.5 -78t17.5 -96q0 -105 -71 -175.5t-172 -70.5q-103 0 -173.5 71t-70.5 175z" />
<glyph unicode="&#xc0;" d="M0 0v1083h947v81h-947q0 161 26 258q23 89 71.5 139.5t132.5 77t204 26.5h568q118 0 202.5 -26t132.5 -75q46 -51 71.5 -138.5t25.5 -203.5v-1222h-487v582h-457v-582h-490zM386 2016q0 62 57 99q42 28 113 28q42 0 86 -9q113 -24 230 -102q57 -40 96 -82.5t60 -84.5 q20 -43 20 -81q0 -60 -54 -98q-44 -30 -114 -30q-20 0 -41 2.5t-47 7.5q-122 26 -228 104q-111 73 -158 164q-21 46 -20 82z" />
<glyph unicode="&#xc1;" d="M0 0v1083h947v81h-947q0 161 26 258q23 89 73 140q46 49 130.5 76.5t204.5 27.5h568q119 0 202.5 -26t131 -76.5t73 -138t25.5 -203.5v-1222h-487v582h-457v-582h-490zM386 1784q0 38 20 82q39 84 156 166q58 38 115 63.5t109 37t93 11.5q67 0 112 -29q55 -38 55 -101 q0 -37 -20 -80q-23 -44 -61.5 -85t-94.5 -79q-106 -73 -229 -104q-46 -10 -87 -10q-68 0 -114 30q-54 37 -54 98z" />
<glyph unicode="&#xc2;" d="M0 0v1072h947v79h-947q0 160 26 255q23 88 71 138t132.5 76.5t204.5 26.5h568q118 0 202.5 -26t132.5 -74q46 -50 71.5 -136.5t25.5 -202.5v-1208h-487v576h-457v-576h-490zM206 1632l511 518l513 -518h-347l-166 167l-166 -167h-345z" />
<glyph unicode="&#xc3;" d="M0 0v1083h947v81h-947q0 161 26 258q23 89 73 140q46 49 130.5 76.5t204.5 27.5h568q119 0 202.5 -26t131 -76.5t73 -138t25.5 -203.5v-1222h-487v582h-457v-582h-490zM378 1842q0 104 14 160t43 89q27 27 74 43t115 16q64 0 109.5 -15t74.5 -42q45 -45 56 -137h192 q0 -103 -14 -159t-42 -88q-27 -27 -75 -43t-113 -16t-111.5 14.5t-74.5 41.5q-22 22 -36.5 55t-19.5 81h-192z" />
<glyph unicode="&#xc4;" d="M0 0v1081h947v80h-947q0 161 26 257q23 89 71.5 139.5t132.5 77t204 26.5h568q118 0 202.5 -26t131.5 -75.5t72.5 -137t25.5 -204.5v-1218h-487v580h-457v-580h-490zM283 1846q0 40 13.5 75.5t43.5 66.5q58 61 140 61q80 0 140 -61q58 -65 58 -141q0 -84 -60 -144 q-62 -58 -136 -57q-86 0 -142.5 59.5t-56.5 140.5zM757 1846q0 78 55 142q59 61 139 61q38 0 72.5 -14t70.5 -45q57 -69 57 -142q0 -83 -60 -145q-62 -58 -138 -57q-80 0 -139 58q-27 29 -42 65.5t-15 76.5z" />
<glyph unicode="&#xc5;" d="M0 0v1089h947v80h-947q0 162 25 255.5t73 144.5t131.5 77.5t204.5 26.5h568q119 0 203 -26t131 -76.5t72.5 -138t25.5 -205.5v-1227h-487v585h-457v-585h-490zM378 2002q0 138 99.5 244.5t238.5 106.5q137 0 239 -105q50 -52 75.5 -113t25.5 -133q0 -148 -101 -248 t-238 -100q-71 0 -129 24t-109 76q-102 103 -101 248zM651 2002q0 -29 18.5 -48t48.5 -19q23 0 44 19.5t21 48.5q0 24 -20 46q-23 22 -48 21q-26 0 -45 -19t-19 -49z" />
<glyph unicode="&#xc6;" horiz-adv-x="1812" d="M0 0v1066h668v79h-668q0 159 25 251t74 141t133.5 75t205.5 26h1200v-493h-476v-79h286v-493h-286v-79h476v-494h-970v573h-174v-573h-494z" />
<glyph unicode="&#xc7;" d="M0 414v641h489v-445v-60v-35q2 -26 9 -34q8 -6 27.5 -7.5t52.5 -1.5h44h190q19 0 37 -0.5t34 -0.5q44 0 55 8q6 6 7 31t1 75v81h488v-252q0 -122 -26 -208.5t-74.5 -135t-132 -75t-201.5 -26.5h-39v-137q0 -121 -25.5 -207t-73 -136t-131 -76.5t-202.5 -26.5h-246v504 h191v79h-40q-120 0 -202 25t-131 75t-75 136.5t-26 208.5zM0 1135q0 162 26 260q23 90 71.5 140t133 76.5t203.5 26.5h566q120 0 203 -26t131 -76t74 -135.5t26 -207.5v-252h-489v63.5t1 55.5q0 58 -9 67t-54 9q-16 0 -34 -0.5t-38 -0.5h-811z" />
<glyph unicode="&#xc8;" d="M0 0v1094h1055v-512h-566v-80h941v-502h-1430zM0 1164v501h1430v-501h-1430zM386 2016q0 62 57 99q42 28 113 28q42 0 86 -9q113 -24 230 -102q58 -42 96 -83t59 -84q20 -45 20 -82q0 -60 -53 -97q-44 -30 -114 -30q-20 0 -41 2.5t-47 7.5q-123 26 -228 104 q-111 73 -158 164q-21 46 -20 82z" />
<glyph unicode="&#xc9;" d="M0 0v1094h1055v-512h-566v-80h941v-502h-1430zM0 1164v502h1430v-502h-1430zM385 1785q0 37 20.5 79.5t59.5 84t97 83.5q58 38 115 63.5t109 37t93 11.5q67 0 112 -29q54 -38 55 -100q0 -36 -20 -81q-45 -89 -156 -164q-107 -73 -229 -104q-46 -10 -87 -10q-68 0 -114 30 q-55 38 -55 99z" />
<glyph unicode="&#xca;" d="M0 0v1082h1055v-506h-566v-80h941v-496h-1430zM0 1151v496h1430v-496h-1430zM205 1632l512 518l513 -518h-348l-165 167l-166 -167h-346z" />
<glyph unicode="&#xcb;" d="M0 0v1081h1055v-501h-566v-80h941v-500h-1430zM0 1161v500h1430v-500h-1430zM283 1846q0 40 13.5 75.5t43.5 66.5q58 61 140 61q80 0 140 -61q58 -65 58 -141q0 -84 -60 -144q-62 -58 -136 -57q-86 0 -142.5 59.5t-56.5 140.5zM757 1846q0 78 55 142q59 61 139 61 q38 0 72.5 -14t69.5 -45q57 -69 57 -142q0 -83 -59 -145q-62 -58 -138 -57q-80 0 -138 58.5t-58 141.5z" />
<glyph unicode="&#xcc;" horiz-adv-x="684" d="M-193 2014q0 31 12.5 57t36.5 44q40 29 102 29q37 0 78 -10q102 -24 208 -102q52 -41 87 -82.5t53 -83.5q18 -44 18 -83q0 -59 -48 -97q-19 -15 -44.5 -22.5t-58.5 -7.5q-17 0 -36.5 2.5t-42.5 7.5q-108 26 -206 104q-100 73 -142 164q-17 42 -17 80zM-32 0v1094h442 v-1094h-442zM-32 1164v502h442v-502h-442z" />
<glyph unicode="&#xcd;" horiz-adv-x="780" d="M0 0v1094h442v-1094h-442zM0 1164v502h442v-502h-442zM7 1784q0 34 17.5 78.5t51.5 85.5t90 85q100 74 208 101q42 10 80 10q61 0 100 -29q50 -38 50 -101q0 -18 -4 -37t-14 -43q-40 -86 -140.5 -162t-206.5 -106q-42 -10 -81 -10q-32 0 -57.5 8t-45.5 22 q-23 19 -35.5 43.5t-12.5 54.5z" />
<glyph unicode="&#xce;" horiz-adv-x="780" d="M-204 1632l408 518l410 -518h-276l-134 167l-132 -167h-276zM9 0v1082h391v-1082h-391zM9 1151v496h391v-496h-391z" />
<glyph unicode="&#xcf;" horiz-adv-x="780" d="M-204 1846q0 75 52 141q57 62 134 62q76 0 132 -61q54 -67 54 -140q0 -42 -13 -77.5t-41 -65.5t-60 -44.5t-71 -14.5q-81 0 -134 58.5t-53 141.5zM-26 0v1081h462v-1081h-462zM-26 1161v500h462v-500h-462zM242 1846q0 39 13 74.5t40 66.5q54 62 131 62q76 0 134 -61 q54 -66 54 -141q0 -83 -56.5 -142t-129.5 -59q-77 0 -131.5 58t-54.5 142z" />
<glyph unicode="&#xd0;" d="M-203 573v493h873v-495l-191 4v-81h332q18 0 46 -1t37 -1q32 0 39.5 8t7.5 50q0 14 -0.5 31t-0.5 35v12v392v22v46q-2 34 -9 50q-8 3 -30.5 5t-50.5 2h-45h-819v493h1010q119 0 202.5 -25t131.5 -74.5t74 -135t26 -202.5v-763q0 -119 -25 -203.5t-72.5 -132.5t-132.5 -75 t-204 -27h-1010v573h-189z" />
<glyph unicode="&#xd1;" d="M0 0v1083h489v-1083h-489zM0 1164v502h656l289 -592v592h489v-1666h-468l-567 1164h-399zM378 1842q0 104 14 160t43 89q27 27 74 43t115 16q64 0 109.5 -15t74.5 -42q45 -45 56 -137h192q0 -103 -14 -159t-42 -88q-27 -27 -75 -43t-113 -16t-111.5 14.5t-74.5 41.5 q-22 22 -36.5 55t-19.5 81h-192z" />
<glyph unicode="&#xd2;" d="M0 445v638h489v-445q0 -19 -0.5 -36.5t-0.5 -33.5q0 -26 1.5 -40.5t7.5 -21.5t37 -7q25 0 46.5 1t41.5 2h190q19 0 37 -0.5t34 -0.5q44 0 55 8q8 10 8 56q0 14 -0.5 29.5t-0.5 33.5v11v387v24v54q-2 38 -10 53q-11 8 -58 8q-15 0 -31.5 -0.5t-34.5 -0.5h-811 q0 161 26 258q23 89 71.5 139.5t132 77t204.5 26.5h566q117 0 200 -25.5t132.5 -75t75.5 -135t26 -208.5v-776q0 -123 -26 -209.5t-74 -134.5t-132 -74.5t-202 -26.5h-566q-121 0 -204 26t-130.5 75t-73.5 134.5t-26 209.5zM386 2016q0 62 57 99q42 28 113 28q42 0 86 -9 q113 -24 230 -102q57 -40 96 -82.5t60 -84.5q20 -43 20 -81q0 -60 -54 -98q-44 -30 -114 -30q-20 0 -41 2.5t-47 7.5q-122 26 -228 104q-111 73 -158 164q-21 46 -20 82z" />
<glyph unicode="&#xd3;" d="M0 445v638h489v-445q0 -19 -0.5 -36.5t-0.5 -33.5q0 -26 1.5 -40.5t7.5 -21.5t37 -7q25 0 46.5 1t41.5 2h190q19 0 37 -0.5t34 -0.5q44 0 55 8q8 10 8 56q0 14 -0.5 29.5t-0.5 33.5v11v387v24v54q-2 38 -10 53q-11 8 -58 8q-15 0 -31.5 -0.5t-34.5 -0.5h-811 q0 161 26 258q23 89 73 140q46 49 130.5 76.5t204.5 27.5h566q117 0 199.5 -25.5t132.5 -75.5t76 -135.5t26 -208.5v-776q0 -123 -26 -209t-74 -134.5t-132 -75t-202 -26.5h-566q-121 0 -204 26t-131 75.5t-73.5 134.5t-25.5 209zM386 1784q0 38 20 82q39 84 156 166 q58 38 115 63.5t109 37t93 11.5q67 0 112 -29q55 -38 55 -101q0 -37 -20 -80q-23 -44 -61.5 -85t-94.5 -79q-106 -73 -229 -104q-46 -10 -87 -10q-68 0 -114 30q-54 37 -54 98z" />
<glyph unicode="&#xd4;" d="M0 440v632h489v-440q0 -19 -0.5 -36.5t-0.5 -33.5q0 -26 1.5 -40.5t7.5 -21t37 -6.5q14 0 48 1t40 1h190q18 0 35 -0.5t32 -0.5q24 0 38 1.5t21 7.5q8 9 8 55q0 14 -0.5 30t-0.5 33v11v382v24v53q-2 38 -10 53q-5 4 -18.5 5.5t-33.5 1.5q-16 0 -34 -0.5t-38 -0.5h-811 q0 160 26 255q23 88 71 138t132.5 76.5t204.5 26.5h566q115 0 199 -25t133.5 -74t75.5 -133.5t26 -207.5v-767q0 -122 -26 -207t-74.5 -133t-131.5 -74t-202 -26h-566q-120 0 -203.5 26t-131.5 74.5t-73.5 133t-25.5 206.5zM206 1632l511 518l513 -518h-347l-166 167 l-166 -167h-345z" />
<glyph unicode="&#xd5;" d="M0 445v638h489v-445v-70q0 -26 1.5 -40.5t7.5 -21.5t34 -7q25 0 47.5 1t42.5 2h190q19 0 37 -0.5t34 -0.5q44 0 55 8q8 11 8 56q0 14 -0.5 29.5t-0.5 33.5v11v387v25v53q-2 39 -10 53q-10 8 -53 8q-16 0 -34 -0.5t-37 -0.5h-811q0 161 26 258q23 89 73 140 q46 49 130.5 76.5t204.5 27.5h566q117 0 199.5 -25.5t132.5 -75.5t76 -135.5t26 -208.5v-776q0 -123 -26 -209t-74 -134.5t-132 -75t-202 -26.5h-566q-121 0 -204 26t-131 75.5t-73.5 134.5t-25.5 209zM378 1842q0 104 14 160t43 89q27 27 74 43t115 16q64 0 109.5 -15 t74.5 -42q45 -45 56 -137h192q0 -103 -14 -159t-42 -88q-27 -27 -75 -43t-113 -16t-111.5 14.5t-74.5 41.5q-22 22 -36.5 55t-19.5 81h-192z" />
<glyph unicode="&#xd6;" d="M0 444v637h489v-444q0 -19 -0.5 -37t-0.5 -34q0 -26 1.5 -40.5t7.5 -21t37 -6.5q14 0 48 1t40 1h190q18 0 35 -0.5t32 -0.5q24 0 38 1.5t21 7.5q8 10 8 56q0 14 -0.5 30t-0.5 32v12v386v24v53q-2 39 -10 53q-10 8 -53 8q-16 0 -34 -0.5t-37 -0.5h-811q0 161 26 257 q23 89 71.5 139.5t132 77t204.5 26.5h566q116 0 199.5 -25.5t133 -75t75.5 -135t26 -207.5v-774q0 -123 -26 -208.5t-74 -134t-132 -75t-202 -26.5h-566q-121 0 -204 26t-130.5 75t-73.5 134.5t-26 208.5zM283 1846q0 40 13.5 75.5t43.5 66.5q58 61 140 61q80 0 140 -61 q58 -65 58 -141q0 -84 -60 -144q-62 -58 -136 -57q-86 0 -142.5 59.5t-56.5 140.5zM757 1846q0 78 55 142q59 61 139 61q38 0 72.5 -14t70.5 -45q57 -69 57 -142q0 -83 -60 -145q-62 -58 -138 -57q-80 0 -139 58q-27 29 -42 65.5t-15 76.5z" />
<glyph unicode="&#xd7;" horiz-adv-x="1428" d="M210 634l185 185l-185 186l320 321l186 -187l186 187l322 -321l-188 -186l188 -185l-322 -322l-186 187l-186 -187z" />
<glyph unicode="&#xd8;" d="M0 438v628h489v-253l220 332h-709q0 158 25 249.5t72.5 141.5t131.5 76t205 26h566q116 0 200.5 -25t133 -73.5t74.5 -133t26 -205.5v-763q0 -121 -26 -206t-74.5 -133t-131.5 -73.5t-202 -25.5h-566q-120 0 -203.5 26t-131.5 74t-73.5 131.5t-25.5 206.5zM726 494h86 q19 0 37 -0.5t34 -0.5q44 0 55 8q8 10 8 55q0 14 -0.5 29.5t-0.5 32.5v11v196z" />
<glyph unicode="&#xd9;" d="M0 445v638h489v-445v-70q0 -26 1.5 -40.5t6.5 -21.5t33 -7q26 0 49 1t43 2h190q19 0 37 -0.5t34 -0.5q44 0 55 8q8 10 8 56q0 14 -0.5 29.5t-0.5 33.5v11v1026h489v-1220q0 -123 -26 -209.5t-74 -134.5t-132 -74.5t-202 -26.5h-566q-121 0 -204 26t-130.5 75t-73.5 134.5 t-26 209.5zM0 1164v501h489v-501h-489zM386 2016q0 62 57 99q42 28 113 28q42 0 86 -9q113 -24 230 -102q57 -40 96 -82.5t60 -84.5q20 -43 20 -81q0 -60 -54 -98q-44 -30 -114 -30q-20 0 -41 2.5t-47 7.5q-122 26 -228 104q-111 73 -158 164q-21 46 -20 82z" />
<glyph unicode="&#xda;" d="M0 445v638h489v-445v-70q0 -26 1.5 -40.5t6.5 -21.5t33 -7q26 0 49 1t43 2h190q19 0 37 -0.5t34 -0.5q44 0 55 8q8 10 8 56q0 14 -0.5 29.5t-0.5 33.5v11v1027h489v-1221q0 -123 -26 -209t-74 -134.5t-132 -75t-202 -26.5h-566q-121 0 -204 26t-131 75.5t-73.5 134.5 t-25.5 209zM0 1164v502h489v-502h-489zM386 1784q0 38 20 82q39 84 156 166q58 38 115 63.5t109 37t93 11.5q67 0 112 -29q55 -38 55 -101q0 -37 -20 -80q-23 -44 -61.5 -85t-94.5 -79q-106 -73 -229 -104q-46 -10 -87 -10q-68 0 -114 30q-54 37 -54 98z" />
<glyph unicode="&#xdb;" d="M0 440v632h489v-440q0 -19 -0.5 -36.5t-0.5 -33.5q0 -26 1.5 -40.5t7.5 -21t37 -6.5q14 0 48 1t40 1h190q18 0 35 -0.5t32 -0.5q24 0 38 1.5t21 7.5q8 9 8 55q0 14 -0.5 30t-0.5 33v11v1014h489v-1207q0 -122 -26 -207t-74.5 -133t-131.5 -74t-202 -26h-566 q-120 0 -203.5 26t-131.5 74.5t-73.5 133t-25.5 206.5zM0 1151v496h489v-496h-489zM206 1632l511 518l513 -518h-347l-166 167l-166 -167h-345z" />
<glyph unicode="&#xdc;" d="M0 444v637h489v-444q0 -19 -0.5 -37t-0.5 -34q0 -26 1.5 -40.5t7.5 -21t37 -6.5q14 0 48 1t40 1h190q18 0 35 -0.5t32 -0.5q24 0 38 1.5t21 7.5q8 10 8 56q0 14 -0.5 30t-0.5 32v12v1023h489v-1217q0 -123 -26 -208.5t-74 -134t-132 -75t-202 -26.5h-566q-121 0 -204 26 t-130.5 75t-73.5 134.5t-26 208.5zM0 1161v500h489v-500h-489zM283 1846q0 40 13.5 75.5t43.5 66.5q58 61 140 61q80 0 140 -61q58 -65 58 -141q0 -84 -60 -144q-62 -58 -136 -57q-86 0 -142.5 59.5t-56.5 140.5zM757 1846q0 78 55 142q59 61 139 61q38 0 72.5 -14t70.5 -45 q57 -69 57 -142q0 -83 -60 -145q-62 -58 -138 -57q-80 0 -139 58q-27 29 -42 65.5t-15 76.5z" />
<glyph unicode="&#xdd;" d="M0 1164v502h489v-502h-489zM16 1083h630l71 -73l228 234v422h489v-565l-473 -486v-615h-487v615zM386 1784q0 38 20 82q39 84 156 166q58 38 115 63.5t109 37t93 11.5q67 0 112 -29q55 -38 55 -101q0 -37 -20 -80q-23 -44 -61.5 -85t-94.5 -79q-106 -73 -229 -104 q-46 -10 -87 -10q-68 0 -114 30q-54 37 -54 98z" />
<glyph unicode="&#xde;" d="M0 0v1638h489v-286h511q118 0 202 -26t132 -73.5t74 -131.5t26 -207v-190q0 -121 -26 -205.5t-74 -132.5t-131.5 -74t-202.5 -26h-511v-286h-489zM489 780h417q15 0 28.5 -3t15.5 -1t0 9q-6 25 -5 36q0 14 2.5 27.5t1.5 14.5q-2 2 -16.5 -1.5t-27.5 -3.5h-416v-78z" />
<glyph unicode="&#xdf;" d="M0 0v1066h489v-1066h-489zM0 1145q0 158 26 254q23 89 71.5 138t132.5 75t204 26h564q118 0 201 -26t131 -74.5t74 -131.5t26 -204q0 -120 -23.5 -205t-68.5 -133q-14 -14 -27.5 -24.5t-34.5 -21.5q16 -10 30.5 -21t25.5 -23q47 -49 72.5 -133t25.5 -203q0 -159 -90 -295 q-48 -70 -133 -106.5t-207 -36.5h-94q-120 0 -203 25t-131.5 74.5t-72.5 138.5q-26 98 -26 256h433q14 0 28 -3t16 -1t-1.5 16t-3.5 28t2.5 27.5t1.5 15.5q-2 2 -18 -1t-26 -3h-338v493h339q14 0 26.5 -5.5t13.5 -3.5q1 1 1 4.5v5.5q0 6 -1 25.5t-1 25.5q0 9 2.5 19t1.5 12 q-2 2 -16.5 -1t-27.5 -3h-905z" />
<glyph unicode="&#xe0;" d="M0 0v1083h947v81h-947q0 161 26 258q23 89 71.5 139.5t132.5 77t204 26.5h568q118 0 202.5 -26t132.5 -75q46 -51 71.5 -138.5t25.5 -203.5v-1222h-487v582h-457v-582h-490zM386 2016q0 62 57 99q42 28 113 28q42 0 86 -9q113 -24 230 -102q57 -40 96 -82.5t60 -84.5 q20 -43 20 -81q0 -60 -54 -98q-44 -30 -114 -30q-20 0 -41 2.5t-47 7.5q-122 26 -228 104q-111 73 -158 164q-21 46 -20 82z" />
<glyph unicode="&#xe1;" d="M0 0v1083h947v81h-947q0 161 26 258q23 89 73 140q46 49 130.5 76.5t204.5 27.5h568q119 0 202.5 -26t131 -76.5t73 -138t25.5 -203.5v-1222h-487v582h-457v-582h-490zM386 1784q0 38 20 82q39 84 156 166q58 38 115 63.5t109 37t93 11.5q67 0 112 -29q55 -38 55 -101 q0 -37 -20 -80q-23 -44 -61.5 -85t-94.5 -79q-106 -73 -229 -104q-46 -10 -87 -10q-68 0 -114 30q-54 37 -54 98z" />
<glyph unicode="&#xe2;" d="M0 0v1072h947v79h-947q0 160 26 255q23 88 71 138t132.5 76.5t204.5 26.5h568q118 0 202.5 -26t132.5 -74q46 -50 71.5 -136.5t25.5 -202.5v-1208h-487v576h-457v-576h-490zM206 1632l511 518l513 -518h-347l-166 167l-166 -167h-345z" />
<glyph unicode="&#xe3;" d="M0 0v1083h947v81h-947q0 161 26 258q23 89 73 140q46 49 130.5 76.5t204.5 27.5h568q119 0 202.5 -26t131 -76.5t73 -138t25.5 -203.5v-1222h-487v582h-457v-582h-490zM378 1842q0 104 14 160t43 89q27 27 74 43t115 16q64 0 109.5 -15t74.5 -42q45 -45 56 -137h192 q0 -103 -14 -159t-42 -88q-27 -27 -75 -43t-113 -16t-111.5 14.5t-74.5 41.5q-22 22 -36.5 55t-19.5 81h-192z" />
<glyph unicode="&#xe4;" d="M0 0v1081h947v80h-947q0 161 26 257q23 89 71.5 139.5t132.5 77t204 26.5h568q118 0 202.5 -26t131.5 -75.5t72.5 -137t25.5 -204.5v-1218h-487v580h-457v-580h-490zM283 1846q0 40 13.5 75.5t43.5 66.5q58 61 140 61q80 0 140 -61q58 -65 58 -141q0 -84 -60 -144 q-62 -58 -136 -57q-86 0 -142.5 59.5t-56.5 140.5zM757 1846q0 78 55 142q59 61 139 61q38 0 72.5 -14t70.5 -45q57 -69 57 -142q0 -83 -60 -145q-62 -58 -138 -57q-80 0 -139 58q-27 29 -42 65.5t-15 76.5z" />
<glyph unicode="&#xe5;" d="M0 0v1089h947v80h-947q0 162 25 255.5t73 144.5t131.5 77.5t204.5 26.5h568q119 0 203 -26t131 -76.5t72.5 -138t25.5 -205.5v-1227h-487v585h-457v-585h-490zM378 2002q0 138 99.5 244.5t238.5 106.5q137 0 239 -105q50 -52 75.5 -113t25.5 -133q0 -148 -101 -248 t-238 -100q-71 0 -129 24t-109 76q-102 103 -101 248zM651 2002q0 -29 18.5 -48t48.5 -19q23 0 44 19.5t21 48.5q0 24 -20 46q-23 22 -48 21q-26 0 -45 -19t-19 -49z" />
<glyph unicode="&#xe6;" horiz-adv-x="1812" d="M0 0v1066h668v79h-668q0 159 25 251t74 141t133.5 75t205.5 26h1200v-493h-476v-79h286v-493h-286v-79h476v-494h-970v573h-174v-573h-494z" />
<glyph unicode="&#xe7;" d="M0 414v641h489v-445v-60v-35q2 -26 9 -34q8 -6 27.5 -7.5t52.5 -1.5h44h190q19 0 37 -0.5t34 -0.5q44 0 55 8q6 6 7 31t1 75v81h488v-252q0 -122 -26 -208.5t-74.5 -135t-132 -75t-201.5 -26.5h-39v-137q0 -121 -25.5 -207t-73 -136t-131 -76.5t-202.5 -26.5h-246v504 h191v79h-40q-120 0 -202 25t-131 75t-75 136.5t-26 208.5zM0 1135q0 162 26 260q23 90 71.5 140t133 76.5t203.5 26.5h566q120 0 203 -26t131 -76t74 -135.5t26 -207.5v-252h-489v63.5t1 55.5q0 58 -9 67t-54 9q-16 0 -34 -0.5t-38 -0.5h-811z" />
<glyph unicode="&#xe8;" d="M0 0v1094h1055v-512h-566v-80h941v-502h-1430zM0 1164v501h1430v-501h-1430zM386 2016q0 62 57 99q42 28 113 28q42 0 86 -9q113 -24 230 -102q58 -42 96 -83t59 -84q20 -45 20 -82q0 -60 -53 -97q-44 -30 -114 -30q-20 0 -41 2.5t-47 7.5q-123 26 -228 104 q-111 73 -158 164q-21 46 -20 82z" />
<glyph unicode="&#xe9;" d="M0 0v1094h1055v-512h-566v-80h941v-502h-1430zM0 1164v502h1430v-502h-1430zM385 1785q0 37 20.5 79.5t59.5 84t97 83.5q58 38 115 63.5t109 37t93 11.5q67 0 112 -29q54 -38 55 -100q0 -36 -20 -81q-45 -89 -156 -164q-107 -73 -229 -104q-46 -10 -87 -10q-68 0 -114 30 q-55 38 -55 99z" />
<glyph unicode="&#xea;" d="M0 0v1082h1055v-506h-566v-80h941v-496h-1430zM0 1151v496h1430v-496h-1430zM205 1632l512 518l513 -518h-348l-165 167l-166 -167h-346z" />
<glyph unicode="&#xeb;" d="M0 0v1081h1055v-501h-566v-80h941v-500h-1430zM0 1161v500h1430v-500h-1430zM283 1846q0 40 13.5 75.5t43.5 66.5q58 61 140 61q80 0 140 -61q58 -65 58 -141q0 -84 -60 -144q-62 -58 -136 -57q-86 0 -142.5 59.5t-56.5 140.5zM757 1846q0 78 55 142q59 61 139 61 q38 0 72.5 -14t69.5 -45q57 -69 57 -142q0 -83 -59 -145q-62 -58 -138 -57q-80 0 -138 58.5t-58 141.5z" />
<glyph unicode="&#xec;" horiz-adv-x="684" d="M-193 2014q0 31 12.5 57t36.5 44q40 29 102 29q37 0 78 -10q102 -24 208 -102q52 -41 87 -82.5t53 -83.5q18 -44 18 -83q0 -59 -48 -97q-19 -15 -44.5 -22.5t-58.5 -7.5q-17 0 -36.5 2.5t-42.5 7.5q-108 26 -206 104q-100 73 -142 164q-17 42 -17 80zM-32 0v1094h442 v-1094h-442zM-32 1164v502h442v-502h-442z" />
<glyph unicode="&#xed;" horiz-adv-x="780" d="M0 0v1094h442v-1094h-442zM0 1164v502h442v-502h-442zM7 1784q0 34 17.5 78.5t51.5 85.5t90 85q100 74 208 101q42 10 80 10q61 0 100 -29q50 -38 50 -101q0 -18 -4 -37t-14 -43q-40 -86 -140.5 -162t-206.5 -106q-42 -10 -81 -10q-32 0 -57.5 8t-45.5 22 q-23 19 -35.5 43.5t-12.5 54.5z" />
<glyph unicode="&#xee;" horiz-adv-x="780" d="M-204 1632l408 518l410 -518h-276l-134 167l-132 -167h-276zM9 0v1082h391v-1082h-391zM9 1151v496h391v-496h-391z" />
<glyph unicode="&#xef;" horiz-adv-x="780" d="M-204 1846q0 75 52 141q57 62 134 62q76 0 132 -61q54 -67 54 -140q0 -42 -13 -77.5t-41 -65.5t-60 -44.5t-71 -14.5q-81 0 -134 58.5t-53 141.5zM-26 0v1081h462v-1081h-462zM-26 1161v500h462v-500h-462zM242 1846q0 39 13 74.5t40 66.5q54 62 131 62q76 0 134 -61 q54 -66 54 -141q0 -83 -56.5 -142t-129.5 -59q-77 0 -131.5 58t-54.5 142z" />
<glyph unicode="&#xf0;" d="M-204 573v493h874v-495l-191 4v-81h332q18 0 46 -1t37 -1q32 0 39.5 8t7.5 50q0 14 -0.5 31t-0.5 35v12v392v41q0 30 -1.5 48.5t-6.5 28.5q-8 4 -29.5 5.5t-52.5 1.5h-45h-819v493h1010q119 0 202.5 -25t131.5 -74.5t74 -135t26 -202.5v-763q0 -119 -25 -203.5 t-72.5 -132.5t-132.5 -75t-204 -27h-1010v573h-190z" />
<glyph unicode="&#xf1;" d="M0 0v1083h489v-1083h-489zM0 1164v502h656l289 -592v592h489v-1666h-468l-567 1164h-399zM378 1842q0 104 14 160t43 89q27 27 74 43t115 16q64 0 109.5 -15t74.5 -42q45 -45 56 -137h192q0 -103 -14 -159t-42 -88q-27 -27 -75 -43t-113 -16t-111.5 14.5t-74.5 41.5 q-22 22 -36.5 55t-19.5 81h-192z" />
<glyph unicode="&#xf2;" d="M0 445v638h489v-445q0 -19 -0.5 -36.5t-0.5 -33.5q0 -26 1.5 -40.5t7.5 -21.5t37 -7q25 0 46.5 1t41.5 2h190q19 0 37 -0.5t34 -0.5q44 0 55 8q8 10 8 56q0 14 -0.5 29.5t-0.5 33.5v11v387v24v54q-2 38 -10 53q-11 8 -58 8q-15 0 -31.5 -0.5t-34.5 -0.5h-811 q0 161 26 258q23 89 71.5 139.5t132 77t204.5 26.5h566q117 0 200 -25.5t132.5 -75t75.5 -135t26 -208.5v-776q0 -123 -26 -209.5t-74 -134.5t-132 -74.5t-202 -26.5h-566q-121 0 -204 26t-130.5 75t-73.5 134.5t-26 209.5zM386 2016q0 62 57 99q42 28 113 28q42 0 86 -9 q113 -24 230 -102q57 -40 96 -82.5t60 -84.5q20 -43 20 -81q0 -60 -54 -98q-44 -30 -114 -30q-20 0 -41 2.5t-47 7.5q-122 26 -228 104q-111 73 -158 164q-21 46 -20 82z" />
<glyph unicode="&#xf3;" d="M0 445v638h489v-445q0 -19 -0.5 -36.5t-0.5 -33.5q0 -26 1.5 -40.5t7.5 -21.5t37 -7q25 0 46.5 1t41.5 2h190q19 0 37 -0.5t34 -0.5q44 0 55 8q8 10 8 56q0 14 -0.5 29.5t-0.5 33.5v11v387v24v54q-2 38 -10 53q-11 8 -58 8q-15 0 -31.5 -0.5t-34.5 -0.5h-811 q0 161 26 258q23 89 73 140q46 49 130.5 76.5t204.5 27.5h566q117 0 199.5 -25.5t132.5 -75.5t76 -135.5t26 -208.5v-776q0 -123 -26 -209t-74 -134.5t-132 -75t-202 -26.5h-566q-121 0 -204 26t-131 75.5t-73.5 134.5t-25.5 209zM386 1784q0 38 20 82q39 84 156 166 q58 38 115 63.5t109 37t93 11.5q67 0 112 -29q55 -38 55 -101q0 -37 -20 -80q-23 -44 -61.5 -85t-94.5 -79q-106 -73 -229 -104q-46 -10 -87 -10q-68 0 -114 30q-54 37 -54 98z" />
<glyph unicode="&#xf4;" d="M0 440v632h489v-440q0 -19 -0.5 -36.5t-0.5 -33.5q0 -26 1.5 -40.5t7.5 -21t37 -6.5q14 0 48 1t40 1h190q18 0 35 -0.5t32 -0.5q24 0 38 1.5t21 7.5q8 9 8 55q0 14 -0.5 30t-0.5 33v11v382v24v53q-2 38 -10 53q-5 4 -18.5 5.5t-33.5 1.5q-16 0 -34 -0.5t-38 -0.5h-811 q0 160 26 255q23 88 71 138t132.5 76.5t204.5 26.5h566q115 0 199 -25t133.5 -74t75.5 -133.5t26 -207.5v-767q0 -122 -26 -207t-74.5 -133t-131.5 -74t-202 -26h-566q-120 0 -203.5 26t-131.5 74.5t-73.5 133t-25.5 206.5zM206 1632l511 518l513 -518h-347l-166 167 l-166 -167h-345z" />
<glyph unicode="&#xf5;" d="M0 445v638h489v-445v-70q0 -26 1.5 -40.5t7.5 -21.5t34 -7q25 0 47.5 1t42.5 2h190q19 0 37 -0.5t34 -0.5q44 0 55 8q8 11 8 56q0 14 -0.5 29.5t-0.5 33.5v11v387v25v53q-2 39 -10 53q-10 8 -53 8q-16 0 -34 -0.5t-37 -0.5h-811q0 161 26 258q23 89 73 140 q46 49 130.5 76.5t204.5 27.5h566q117 0 199.5 -25.5t132.5 -75.5t76 -135.5t26 -208.5v-776q0 -123 -26 -209t-74 -134.5t-132 -75t-202 -26.5h-566q-121 0 -204 26t-131 75.5t-73.5 134.5t-25.5 209zM378 1842q0 104 14 160t43 89q27 27 74 43t115 16q64 0 109.5 -15 t74.5 -42q45 -45 56 -137h192q0 -103 -14 -159t-42 -88q-27 -27 -75 -43t-113 -16t-111.5 14.5t-74.5 41.5q-22 22 -36.5 55t-19.5 81h-192z" />
<glyph unicode="&#xf6;" d="M0 444v637h489v-444q0 -19 -0.5 -37t-0.5 -34q0 -26 1.5 -40.5t7.5 -21t37 -6.5q14 0 48 1t40 1h190q18 0 35 -0.5t32 -0.5q24 0 38 1.5t21 7.5q8 10 8 56q0 14 -0.5 30t-0.5 32v12v386v24v53q-2 39 -10 53q-10 8 -53 8q-16 0 -34 -0.5t-37 -0.5h-811q0 161 26 257 q23 89 71.5 139.5t132 77t204.5 26.5h566q116 0 199.5 -25.5t133 -75t75.5 -135t26 -207.5v-774q0 -123 -26 -208.5t-74 -134t-132 -75t-202 -26.5h-566q-121 0 -204 26t-130.5 75t-73.5 134.5t-26 208.5zM283 1846q0 40 13.5 75.5t43.5 66.5q58 61 140 61q80 0 140 -61 q58 -65 58 -141q0 -84 -60 -144q-62 -58 -136 -57q-86 0 -142.5 59.5t-56.5 140.5zM757 1846q0 78 55 142q59 61 139 61q38 0 72.5 -14t70.5 -45q57 -69 57 -142q0 -83 -60 -145q-62 -58 -138 -57q-80 0 -139 58q-27 29 -42 65.5t-15 76.5z" />
<glyph unicode="&#xf7;" horiz-adv-x="1428" d="M206 575v489h1023v-489h-1023zM481 346q0 102 67 172q71 74 169 74q95 0 166 -72t71 -174q0 -50 -17 -93t-53 -79q-70 -72 -167 -72q-98 0 -167 72t-69 172zM481 1292q0 100 68.5 172t167.5 72q98 0 167.5 -71t69.5 -173q0 -101 -71.5 -172.5t-165.5 -71.5q-96 0 -166 71 t-70 173z" />
<glyph unicode="&#xf8;" d="M0 438v628h489v-253l220 332h-709q0 158 25 249.5t72.5 141.5t131.5 76t205 26h566q116 0 200.5 -25t133 -73.5t74.5 -133t26 -205.5v-763q0 -121 -26 -206t-74.5 -133t-131.5 -73.5t-202 -25.5h-566q-120 0 -203.5 26t-131.5 74t-73.5 131.5t-25.5 206.5zM726 494h86 q19 0 37 -0.5t34 -0.5q44 0 55 8q8 10 8 55q0 14 -0.5 29.5t-0.5 32.5v11v196z" />
<glyph unicode="&#xf9;" d="M0 445v638h489v-445q0 -19 -0.5 -36.5t-0.5 -33.5q0 -26 1.5 -40.5t7.5 -21.5t37 -7q25 0 46.5 1t41.5 2h190q19 0 37 -0.5t34 -0.5q44 0 55 8q8 10 8 56q0 14 -0.5 29.5t-0.5 33.5v11v1026h489v-1220q0 -123 -26 -209.5t-74 -134.5t-132 -74.5t-202 -26.5h-566 q-121 0 -204 26t-130.5 75t-73.5 134.5t-26 209.5zM0 1164v501h489v-501h-489zM386 2016q0 62 57 99q42 28 113 28q42 0 86 -9q113 -24 230 -102q57 -40 96 -82.5t60 -84.5q20 -43 20 -81q0 -60 -54 -98q-44 -30 -114 -30q-20 0 -41 2.5t-47 7.5q-122 26 -228 104 q-111 73 -158 164q-21 46 -20 82z" />
<glyph unicode="&#xfa;" d="M0 445v638h489v-445v-70q0 -26 1.5 -40.5t6.5 -21.5t33 -7q26 0 49 1t43 2h190q19 0 37 -0.5t34 -0.5q44 0 55 8q8 10 8 56q0 14 -0.5 29.5t-0.5 33.5v11v1026h489v-1220q0 -123 -26 -209.5t-74 -134.5t-132 -74.5t-202 -26.5h-566q-121 0 -204 26t-130.5 75t-73.5 134.5 t-26 209.5zM0 1164v501h489v-501h-489zM386 2016q0 62 57 99q42 28 113 28q42 0 86 -9q113 -24 230 -102q57 -40 96 -82.5t60 -84.5q20 -43 20 -81q0 -60 -54 -98q-44 -30 -114 -30q-20 0 -41 2.5t-47 7.5q-122 26 -228 104q-111 73 -158 164q-21 46 -20 82z" />
<glyph unicode="&#xfb;" d="M0 440v632h489v-440q0 -19 -0.5 -36.5t-0.5 -33.5q0 -26 1.5 -40.5t7.5 -21t37 -6.5q14 0 48 1t40 1h190q18 0 35 -0.5t32 -0.5q24 0 38 1.5t21 7.5q8 9 8 55q0 14 -0.5 30t-0.5 33v11v1014h489v-1207q0 -122 -26 -207t-74.5 -133t-131.5 -74t-202 -26h-566 q-120 0 -203.5 26t-131.5 74.5t-73.5 133t-25.5 206.5zM0 1151v496h489v-496h-489zM206 1632l511 518l513 -518h-347l-166 167l-166 -167h-345z" />
<glyph unicode="&#xfc;" d="M0 444v637h489v-444q0 -19 -0.5 -37t-0.5 -34q0 -26 1.5 -40.5t7.5 -21t37 -6.5q14 0 48 1t40 1h190q18 0 35 -0.5t32 -0.5q24 0 38 1.5t21 7.5q8 10 8 56q0 14 -0.5 30t-0.5 32v12v1023h489v-1217q0 -123 -26 -208.5t-74 -134t-132 -75t-202 -26.5h-566q-121 0 -204 26 t-130.5 75t-73.5 134.5t-26 208.5zM0 1161v500h489v-500h-489zM283 1846q0 40 13.5 75.5t43.5 66.5q58 61 140 61q80 0 140 -61q58 -65 58 -141q0 -84 -60 -144q-62 -58 -136 -57q-86 0 -142.5 59.5t-56.5 140.5zM757 1846q0 78 55 142q59 61 139 61q38 0 72.5 -14t70.5 -45 q57 -69 57 -142q0 -83 -60 -145q-62 -58 -138 -57q-80 0 -139 58q-27 29 -42 65.5t-15 76.5z" />
<glyph unicode="&#xfd;" d="M0 1164v502h489v-502h-489zM16 1083h630l71 -73l228 234v422h489v-565l-473 -486v-615h-487v615zM386 1784q0 38 20 82q39 84 156 166q58 38 115 63.5t109 37t93 11.5q67 0 112 -29q55 -38 55 -101q0 -37 -20 -80q-23 -44 -61.5 -85t-94.5 -79q-106 -73 -229 -104 q-46 -10 -87 -10q-68 0 -114 30q-54 37 -54 98z" />
<glyph unicode="&#xfe;" d="M0 0v1638h489v-286h511q118 0 202 -26t132 -73.5t74 -131.5t26 -207v-190q0 -121 -26 -205.5t-74 -132.5t-131.5 -74t-202.5 -26h-511v-286h-489zM489 780h417q15 0 28.5 -3t15.5 -1t0 9q-6 25 -5 36q0 14 2.5 27.5t1.5 14.5q-2 2 -16.5 -1.5t-27.5 -3.5h-416v-78z" />
<glyph unicode="&#xff;" d="M0 1161v500h489v-500h-489zM16 1081h630l71 -74l228 234v420h489v-563l-473 -484v-614h-487v614zM283 1846q0 40 13.5 75.5t43.5 66.5q58 61 140 61q80 0 140 -61q58 -65 58 -141q0 -84 -60 -144q-62 -58 -136 -57q-86 0 -142.5 59.5t-56.5 140.5zM757 1846q0 78 55 142 q59 61 139 61q38 0 72.5 -14t70.5 -45q57 -69 57 -142q0 -83 -60 -145q-62 -58 -138 -57q-80 0 -139 58q-27 29 -42 65.5t-15 76.5z" />
<glyph unicode="&#x152;" horiz-adv-x="1812" d="M0 438v763q0 121 25 204.5t74 132t133.5 74.5t205.5 26h1200v-493h-572v-79h382v-493h-382v-79h572v-494h-628h-572q-118 0 -205 26t-134 74.5t-73 133.5t-26 204zM492 541q0 -33 8 -41q6 -6 34 -6.5t39 -0.5v653h-48q-18 -2 -25 -9t-7 -48v-37.5t1 -41.5v-382 q0 -19 -0.5 -40.5t-1.5 -46.5z" />
<glyph unicode="&#x153;" horiz-adv-x="1812" d="M0 438v763q0 121 25 204.5t74 132t133.5 74.5t205.5 26h1200v-493h-572v-79h382v-493h-382v-79h572v-494h-628h-572q-118 0 -205 26t-134 74.5t-73 133.5t-26 204zM492 541q0 -33 8 -41q6 -6 34 -6.5t39 -0.5v653h-48q-18 -2 -25 -9t-7 -48v-37.5t1 -41.5v-382 q0 -19 -0.5 -40.5t-1.5 -46.5z" />
<glyph unicode="&#x178;" d="M0 1161v500h489v-500h-489zM16 1081h630l71 -74l228 234v420h489v-563l-473 -484v-614h-487v614zM283 1846q0 40 13.5 75.5t43.5 66.5q58 61 140 61q80 0 140 -61q58 -65 58 -141q0 -84 -60 -144q-62 -58 -136 -57q-86 0 -142.5 59.5t-56.5 140.5zM757 1846q0 78 55 142 q59 61 139 61q38 0 72.5 -14t70.5 -45q57 -69 57 -142q0 -83 -60 -145q-62 -58 -138 -57q-80 0 -139 58q-27 29 -42 65.5t-15 76.5z" />
<glyph unicode="&#x2c6;" horiz-adv-x="1464" d="M307 1229l410 409l410 -409h-277l-133 133l-132 -133h-278z" />
<glyph unicode="&#x2dc;" horiz-adv-x="1272" d="M410 1386q0 87 12.5 133t39.5 71q25 22 67 35t101 13q114 0 170 -48q39 -35 50 -111h174q0 -86 -13 -131.5t-39 -69.5q-26 -22 -67 -35.5t-101 -13.5q-118 0 -170 48q-20 17 -32.5 44t-17.5 65h-174z" />
<glyph unicode="&#x2000;" horiz-adv-x="1176" />
<glyph unicode="&#x2001;" horiz-adv-x="2353" />
<glyph unicode="&#x2002;" horiz-adv-x="1176" />
<glyph unicode="&#x2003;" horiz-adv-x="2353" />
<glyph unicode="&#x2004;" horiz-adv-x="784" />
<glyph unicode="&#x2005;" horiz-adv-x="588" />
<glyph unicode="&#x2006;" horiz-adv-x="392" />
<glyph unicode="&#x2007;" horiz-adv-x="392" />
<glyph unicode="&#x2008;" horiz-adv-x="294" />
<glyph unicode="&#x2009;" horiz-adv-x="470" />
<glyph unicode="&#x200a;" horiz-adv-x="130" />
<glyph unicode="&#x2010;" horiz-adv-x="1228" d="M0 614v410h1024v-410h-1024z" />
<glyph unicode="&#x2011;" horiz-adv-x="1228" d="M0 614v410h1024v-410h-1024z" />
<glyph unicode="&#x2012;" horiz-adv-x="1228" d="M0 614v410h1024v-410h-1024z" />
<glyph unicode="&#x2013;" d="M0 614v411h1434v-411h-1434z" />
<glyph unicode="&#x2014;" horiz-adv-x="1908" d="M0 614v411h2049v-411h-2049z" />
<glyph unicode="&#x2018;" horiz-adv-x="618" d="M6 1451q0 38 4 71q8 60 32.5 88t60.5 28q27 0 56.5 -23.5t59.5 -74.5q22 -39 39.5 -89.5t30.5 -115.5t13 -122q0 -22 -1.5 -40.5t-3.5 -32.5q-10 -59 -35 -87.5t-59 -28.5q-28 0 -56 22q-32 25 -60 76q-23 42 -40 90.5t-28 108.5q-14 68 -13 130z" />
<glyph unicode="&#x2019;" horiz-adv-x="618" d="M6 1210q0 30 3 63t10 69q11 60 27.5 107.5t42.5 94t56 70.5t59 24q34 0 58.5 -28t34.5 -88q2 -17 3.5 -35t1.5 -38q0 -56 -13 -129q-23 -116 -69 -198q-27 -50 -57 -74t-59 -24q-34 0 -58 26q-26 29 -36 89q-5 33 -4 71z" />
<glyph unicode="&#x201a;" horiz-adv-x="606" d="M0 0q0 118 36 203q22 53 52 78.5t65 25.5q33 0 63 -25t54 -77q37 -89 37 -204q0 -59 -8.5 -108t-29.5 -98t-51.5 -74.5t-63.5 -25.5q-36 0 -65.5 25t-51.5 79q-37 86 -37 201z" />
<glyph unicode="&#x201c;" horiz-adv-x="1080" d="M6 1454q0 39 8 71q14 58 47 85.5t83 27.5q38 0 78.5 -22.5t83.5 -70.5q66 -76 107 -199q20 -70 20 -136q0 -38 -7 -72q-16 -58 -49.5 -86t-80.5 -28q-42 0 -82 22.5t-81 71.5q-34 40 -60.5 89.5t-45.5 109.5q-22 70 -21 137zM386 1454q0 39 8 71q15 58 47.5 85.5 t81.5 27.5q39 0 81 -23t82 -71q68 -82 106 -198q22 -70 22 -136q0 -40 -8 -72q-15 -58 -48 -86t-83 -28q-41 0 -81.5 22.5t-80.5 71.5q-34 41 -60.5 90.5t-45.5 108.5q-22 70 -21 137z" />
<glyph unicode="&#x201d;" horiz-adv-x="1080" d="M6 1210q0 62 21 136q18 59 44 107.5t62 91.5q41 48 82 70.5t82 22.5q48 0 81.5 -27.5t47.5 -85.5q8 -32 8 -72q0 -61 -22 -135q-33 -116 -104 -201q-42 -48 -82.5 -70.5t-81.5 -22.5q-49 0 -81 26q-34 29 -49 87q-8 32 -8 73zM386 1214q0 31 4.5 62.5t16.5 69.5 q34 119 107 199q40 47 81 70t81 23q49 0 82.5 -27.5t47.5 -85.5q9 -35 8 -73q0 -60 -21 -134q-35 -117 -107 -200q-40 -48 -81 -71t-82 -23q-46 0 -79 27t-49 86q-10 36 -9 77z" />
<glyph unicode="&#x201e;" horiz-adv-x="990" d="M0 -101q0 112 43 203q26 52 62 78t77 26q40 0 76 -25.5t64 -78.5q44 -84 44 -202t-44 -205q-26 -52 -62 -77.5t-77 -25.5q-42 0 -76 24q-37 26 -63 80q-44 86 -44 203zM351 -101q0 118 43 203q27 53 62 78.5t77 25.5q41 0 76.5 -25.5t62.5 -78.5q22 -42 33.5 -93.5 t11.5 -108.5q0 -114 -44 -204q-26 -54 -62 -79t-77 -25q-42 0 -77 25t-63 78q-43 83 -43 204z" />
<glyph unicode="&#x2022;" horiz-adv-x="1080" d="M513 820q0 82 58 144q62 60 145 60q43 0 78.5 -14t66.5 -45q61 -61 61 -145t-62 -146q-29 -29 -65.5 -44.5t-76.5 -15.5q-86 0 -145.5 60.5t-59.5 145.5z" />
<glyph unicode="&#x2026;" d="M0 153q0 63 56.5 108.5t138.5 45.5q80 0 138.5 -45t58.5 -108q0 -66 -59 -109q-56 -45 -136 -45q-82 0 -139.5 45.5t-57.5 107.5zM470 154q0 64 57.5 108.5t136.5 44.5q39 0 73.5 -10.5t65.5 -34.5q59 -46 59 -108q0 -66 -59 -110t-137 -44q-79 0 -137.5 45t-58.5 109z M939 154q0 32 13.5 58t44.5 49q56 46 137 46q79 0 139 -45q30 -23 44 -49t14 -59q0 -66 -59 -109q-29 -22 -63.5 -33.5t-72.5 -11.5q-79 0 -138 45t-59 109z" />
<glyph unicode="&#x202f;" horiz-adv-x="470" />
<glyph unicode="&#x2039;" horiz-adv-x="1182" d="M0 821l922 715v-392l-406 -324l406 -326v-392z" />
<glyph unicode="&#x203a;" horiz-adv-x="1182" d="M0 102v392l406 326l-406 324v392l922 -715z" />
<glyph unicode="&#x205f;" horiz-adv-x="588" />
<glyph unicode="&#x2122;" d="M0 1354v284h714v-284h-216v-534h-282v534h-216zM634 820v550h283v-550h-283zM634 1354v284h300l100 -139l99 139h301v-818h-283v401l24 37v-438h-283v438l-62 96h-196z" />
<glyph unicode="&#x25fc;" horiz-adv-x="1640" d="M0 0v1640h1640v-1640h-1640z" />
</font>
</defs>
</svg>
