<?xml version="1.0" standalone="no"?>
<!DOCTYPE svg PUBLIC "-//W3C//DTD SVG 1.1//EN" "http://www.w3.org/Graphics/SVG/1.1/DTD/svg11.dtd" >
<svg xmlns="http://www.w3.org/2000/svg">
<metadata></metadata>
<defs>
<font id="fjallaoneregular" horiz-adv-x="0" >
<font-face units-per-em="2048" ascent="1638" descent="-410" />
<missing-glyph horiz-adv-x="438" />
<glyph unicode="&#xfb01;" horiz-adv-x="1144" d="M45 1185v192h119v99q0 87 15 152t40 104t63 63t78.5 32.5t92.5 8.5q94 0 158 -34v-178q-38 11 -84 11q-51 0 -82.5 -37.5t-31.5 -121.5v-99h191v-192h-191v-1185h-249v1185h-119zM737 1739q0 86 38.5 123t113.5 37q153 0 153 -160q0 -78 -40 -121.5t-114 -43.5 q-71 0 -111 43t-40 122zM757 0v1377h253v-1377h-253z" />
<glyph unicode="&#xfb02;" horiz-adv-x="1147" d="M45 1185v192h119v99q0 87 15 152t40 104t63 63t78.5 32.5t92.5 8.5q94 0 158 -34v-178q-38 11 -84 11q-51 0 -82.5 -37.5t-31.5 -121.5v-99h191v-192h-191v-1185h-249v1185h-119zM760 0v1819h253v-1819h-253z" />
<glyph />
<glyph />
<glyph horiz-adv-x="682" />
<glyph unicode="&#x9;" />
<glyph unicode="&#xa;" />
<glyph unicode="&#xd;" />
<glyph />
<glyph />
<glyph />
<glyph />
<glyph />
<glyph />
<glyph />
<glyph unicode=" "  horiz-adv-x="438" />
<glyph unicode="&#x09;" horiz-adv-x="438" />
<glyph unicode="&#xa0;" horiz-adv-x="438" />
<glyph unicode="!" horiz-adv-x="690" d="M191 177q0 196 156 196q76 0 116.5 -49.5t40.5 -146.5q0 -91 -42 -141t-116 -50q-72 0 -113.5 49.5t-41.5 141.5zM208 1813h273l-31 -1258h-207z" />
<glyph unicode="&#x22;" horiz-adv-x="1123" d="M206 1876h249l-21 -696h-203zM668 1876h249l-21 -696h-203z" />
<glyph unicode="#" horiz-adv-x="1108" d="M96 385v182h154l19 242h-133v182h146l28 378h179l-28 -378h238l28 378h179l-28 -378h134v-182h-147l-19 -242h126v-182h-139l-28 -385h-179l28 385h-238l-28 -385h-179l28 385h-141zM429 567h239l18 242h-239z" />
<glyph unicode="$" horiz-adv-x="1006" d="M97 346q0 93 26 202h201v-82q0 -285 171 -285q147 0 147 147q0 127 -120 280l-263 339q-76 97 -113.5 189t-37.5 200q0 152 84 254.5t232 125.5v228h186v-230q79 -14 137 -49.5t90.5 -85.5t47.5 -104t15 -114q0 -61 -27 -204h-200v82q0 135 -43.5 208t-123.5 73 q-71 0 -109.5 -40t-38.5 -109q0 -54 21.5 -100.5t63.5 -102.5l295 -382q88 -114 129 -210t41 -208q0 -147 -79.5 -245t-217.5 -127v-251h-186v243q-91 9 -157 42.5t-102 84t-52.5 107.5t-16.5 124z" />
<glyph unicode="%" horiz-adv-x="1885" d="M156 1221v107q0 105 20.5 183.5t52 122.5t77 71t86 35t88.5 8q38 0 71.5 -6t72 -21t68 -45t55 -74.5t39 -114.5t13.5 -159v-107q0 -105 -21 -185.5t-52.5 -126.5t-76 -75t-85 -38.5t-85.5 -9.5q-50 0 -92 9t-86.5 37.5t-75 74.5t-50 126.5t-19.5 187.5zM362 1169 q0 -117 27.5 -170.5t91.5 -53.5q61 0 87 53.5t26 170.5v194q0 118 -26 172t-87 54q-64 0 -91.5 -54t-27.5 -172v-194zM625 0l460 1727h181l-459 -1727h-182zM1087 420v107q0 105 20.5 183.5t52 122.5t76.5 71t85.5 35t88.5 8q38 0 71.5 -6t72 -21t68 -45t55 -74.5t39 -114.5 t13.5 -159v-107q0 -105 -21 -185.5t-52.5 -126.5t-76 -75t-85 -38.5t-85.5 -9.5q-50 0 -92 9t-86 37.5t-74.5 74.5t-50 126.5t-19.5 187.5zM1292 368q0 -117 27.5 -170.5t91.5 -53.5q61 0 87 53.5t26 170.5v194q0 118 -26 172t-87 54q-64 0 -91.5 -54t-27.5 -172v-194z" />
<glyph unicode="&#x26;" horiz-adv-x="1211" d="M55 410q0 33 5.5 67t12.5 62t21.5 61t25 55.5t32 54t32.5 47.5t35.5 46t32.5 40t33 38t28 32l27 29l-34 61q-133 239 -133 429q0 170 109 274t269 104q78 0 140 -20.5t99 -52.5t61.5 -74t34 -81.5t9.5 -79.5q0 -51 -9.5 -100.5t-30 -95.5t-39 -81.5t-50.5 -77 t-49.5 -63.5t-50.5 -59t-40 -45l-22 -25l258 -469q36 114 36 238q0 69 -4 117h209q10 -58 10 -117q0 -233 -139 -441l156 -282h-268l-56 100q-152 -117 -315 -117q-196 0 -316 113t-120 313zM312 445q0 -68 23.5 -126t78.5 -98.5t132 -40.5q96 0 174 76l-284 512 q-124 -155 -124 -323zM410 1432q0 -66 22.5 -133.5t78.5 -173.5l17 18q27 31 37 43t37 49.5t39 65.5t24 71t12 86q0 72 -36.5 110t-89.5 38q-56 0 -98.5 -41.5t-42.5 -132.5z" />
<glyph unicode="'" horiz-adv-x="661" d="M206 1876h249l-21 -696h-203z" />
<glyph unicode="(" horiz-adv-x="776" d="M131 760v197q0 156 12 287.5t31.5 227.5t50 173t61 127.5t71.5 87.5t75.5 56.5t78.5 30.5t74 13.5t69 2.5v-173q-144 0 -218.5 -199.5t-74.5 -587.5v-291q0 -402 76 -598.5t217 -196.5v-174q-39 0 -69 2.5t-74 13.5t-78 30t-75.5 56t-72 88t-61 128.5t-50 175t-31.5 231 t-12 292.5z" />
<glyph unicode=")" horiz-adv-x="776" d="M121 -83q142 0 218 196.5t76 598.5v291q0 388 -74.5 587.5t-219.5 199.5v173q39 0 69 -2.5t74 -13.5t78.5 -30.5t75.5 -56.5t72 -87.5t61 -127.5t49.5 -173t31.5 -227.5t12 -287.5v-197q0 -159 -12 -292.5t-31.5 -231t-50 -175t-61 -128.5t-71.5 -88t-75 -56t-78.5 -30 t-74.5 -13.5t-69 -2.5v174z" />
<glyph unicode="*" horiz-adv-x="1048" d="M79 1300l71 239l299 -162l-46 350h246l-54 -350l301 157l73 -239l-331 -56l235 -253l-200 -146l-152 313l-155 -309l-199 149l237 246z" />
<glyph unicode="+" horiz-adv-x="835" d="M45 691v196h272v313h199v-313h274v-196h-274v-323h-199v323h-272z" />
<glyph unicode="," horiz-adv-x="512" d="M55 -327l100 677h257l-146 -677h-211z" />
<glyph unicode="-" horiz-adv-x="997" d="M126 685v203h745v-203h-745z" />
<glyph unicode="." horiz-adv-x="501" d="M91 179q0 198 156 198q75 0 116 -50t41 -148q0 -91 -42 -142t-116 -51q-72 0 -113.5 50t-41.5 143z" />
<glyph unicode="/" horiz-adv-x="552" d="M10 -326l313 2210h219l-313 -2210h-219z" />
<glyph unicode="0" horiz-adv-x="1047" d="M105 498v722q0 93 15.5 169t40.5 127.5t61 90t72.5 60.5t80 35t78.5 17t73 4q416 0 416 -503v-722q0 -93 -15.5 -169.5t-41 -128.5t-61.5 -92t-72.5 -62.5t-79.5 -37t-77 -19t-69 -4.5q-39 0 -75 4.5t-79 19t-80 37t-72.5 62.5t-60 92t-39.5 128.5t-15 169.5zM370 389 q0 -105 38.5 -153.5t117.5 -48.5q77 0 115 48.5t38 153.5v925q0 110 -38 162t-115 52q-79 0 -117.5 -52t-38.5 -162v-925z" />
<glyph unicode="1" horiz-adv-x="830" d="M26 1304l388 404h193l-1 -2l1 1v-1512h197v-195h-652v195h198v1165l-212 -187z" />
<glyph unicode="2" horiz-adv-x="992" d="M102 0v152l377 726q97 186 132.5 292.5t35.5 180.5q0 102 -35.5 143t-111.5 41q-167 0 -167 -281v-97h-200q-27 143 -27 204q0 67 23.5 130t69 115.5t123.5 84.5t178 32q420 0 420 -387q0 -102 -40 -207.5t-144 -284.5l-337 -640h499v-204h-796z" />
<glyph unicode="3" horiz-adv-x="1035" d="M96 1361q0 67 24.5 130t71.5 115.5t124.5 84.5t174.5 32q213 0 312 -96t99 -282v-105q0 -133 -60 -218.5t-150 -128.5v-8q110 -37 172.5 -122t62.5 -242v-113q0 -114 -33.5 -198t-93.5 -132t-134 -70.5t-164 -22.5q-195 0 -298.5 94.5t-103.5 268.5q0 94 25 201h202v-87 q0 -282 175 -282q161 0 161 198v189q0 113 -41.5 169t-137.5 56h-109v185h109q69 0 111.5 47.5t42.5 147.5v179q0 184 -147 184q-80 0 -124 -73t-44 -208v-97h-200q-27 127 -27 204z" />
<glyph unicode="4" horiz-adv-x="1100" d="M81 306v136l498 1266h309v-1199h158v-203h-158v-306h-241v306h-566zM345 509h302v252l24 644h-30z" />
<glyph unicode="5" horiz-adv-x="1030" d="M126 351q0 91 25 198h202v-140q0 -121 36 -175t116 -54q79 0 114.5 57.5t35.5 171.5v330q0 118 -36.5 161t-104.5 43q-99 0 -162 -107h-191v872h734v-229h-518v-422q42 47 105.5 74.5t132.5 27.5q157 0 232 -105.5t75 -316.5v-290q0 -102 -22.5 -182.5t-60 -132 t-90 -85.5t-110 -48t-122.5 -14q-188 0 -289.5 97.5t-101.5 268.5z" />
<glyph unicode="6" horiz-adv-x="1050" d="M108 507v702q0 98 16.5 177t42.5 132t64.5 92t75.5 60t83.5 33.5t81.5 16t75 3.5q100 0 176 -26t120 -72t66 -103t22 -124q0 -78 -27 -161h-197v52q0 102 -17.5 158t-50.5 76t-92 20q-177 0 -177 -246v-329q92 99 242 99q50 0 94.5 -11t90 -40.5t77.5 -75.5t52.5 -121.5 t20.5 -173.5v-166q0 -262 -105 -378t-300 -116q-217 0 -325.5 122.5t-108.5 399.5zM370 410q0 -118 41 -174t128 -56q149 0 149 220v254q0 118 -39.5 168.5t-113.5 50.5q-96 0 -165 -93v-370z" />
<glyph unicode="7" horiz-adv-x="848" d="M41 1480v229h780v-137l-470 -1572h-281l473 1480h-502z" />
<glyph unicode="8" horiz-adv-x="1042" d="M87 414v105q0 260 212 365v8q-188 99 -188 327v120q0 96 29 168t71 112t101 64.5t108 32t102 7.5q54 0 103 -7.5t108 -32t101 -64t71 -111.5t29 -168v-120q0 -228 -188 -327v-8q212 -104 212 -365v-105q0 -102 -26 -179.5t-67.5 -124t-100.5 -76t-117.5 -40t-125.5 -10.5 t-125 10.5t-116.5 39.5t-99.5 75.5t-67 124t-26 179.5zM350 393q0 -213 171 -213q174 0 174 214v188q0 209 -161 209h-25q-75 0 -117 -52t-42 -158v-188zM372 1177q0 -108 35.5 -154.5t102.5 -46.5h24q140 0 140 202v141q0 216 -152 216q-78 0 -114 -54.5t-36 -163.5v-140z " />
<glyph unicode="9" horiz-adv-x="1039" d="M85 1063v166q0 262 105 378t300 116q108 0 186 -26.5t135 -86t85 -159t28 -240.5v-712q0 -98 -16 -177t-41.5 -132t-63 -92t-74 -60t-82 -33.5t-79.5 -16t-73 -3.5q-103 0 -180.5 26t-123 72t-68 103t-22.5 124q0 79 27 161h197v-37q0 -102 19 -158t54 -76t97 -20 q167 0 167 246v314q-92 -99 -239 -99q-50 0 -95 11t-90.5 40.5t-78.5 75.5t-53.5 121.5t-20.5 173.5zM344 1054q0 -118 39.5 -168.5t113.5 -50.5q96 0 165 93v398q0 115 -40 162.5t-129 47.5q-149 0 -149 -220v-262z" />
<glyph unicode=":" horiz-adv-x="501" d="M91 179q0 198 156 198q75 0 116 -50t41 -148q0 -91 -42 -142t-116 -51q-72 0 -113.5 50t-41.5 143zM91 1151q0 198 156 198q75 0 116 -50t41 -148q0 -91 -42 -142t-116 -51q-72 0 -113.5 50t-41.5 143z" />
<glyph unicode=";" horiz-adv-x="501" d="M55 -327l100 677h257l-146 -677h-211zM91 1151q0 198 156 198q75 0 116 -50t41 -148q0 -91 -42 -142t-116 -51q-72 0 -113.5 50t-41.5 143z" />
<glyph unicode="&#x3c;" horiz-adv-x="775" d="M45 715v147l644 400v-235l-416 -235v-8l416 -236v-234z" />
<glyph unicode="=" horiz-adv-x="916" d="M86 488v195h744v-195h-744zM86 895v195h744v-195h-744z" />
<glyph unicode="&#x3e;" horiz-adv-x="775" d="M35 314v234l416 236v8l-416 235v235l644 -400v-147z" />
<glyph unicode="?" horiz-adv-x="1026" d="M112 1465q0 161 100 261.5t298 100.5q202 0 307.5 -103.5t105.5 -284.5q0 -96 -35.5 -183.5t-115.5 -195.5l-80 -108q-54 -74 -67 -117.5t-13 -133.5v-144h-221l1 203q0 84 11.5 130t53.5 113l118 186q82 132 82 250q0 83 -42.5 133.5t-114.5 50.5q-157 0 -157 -280v-82 h-204q-27 143 -27 204zM360 177q0 196 156 196q76 0 116.5 -49.5t40.5 -146.5q0 -91 -42 -141t-116 -50q-72 0 -113.5 49.5t-41.5 141.5z" />
<glyph unicode="@" horiz-adv-x="1649" d="M90 513v432q0 151 24 277t64.5 215t99 157.5t121.5 110.5t138 68.5t143.5 36.5t142.5 10q78 0 146 -8t144.5 -32t139 -62.5t121 -103.5t98 -151.5t63.5 -210.5t24 -275v-212q0 -99 -5.5 -178.5t-18.5 -155.5t-36.5 -131.5t-57.5 -98.5t-83.5 -64.5t-112.5 -21.5 q-103 0 -164 47t-89 146q-34 -92 -94 -142t-134 -50q-28 0 -50 2.5t-54 13t-56.5 28.5t-51 54t-43.5 85t-28.5 124.5t-11.5 170.5v243q0 118 20 206t48.5 135.5t69 76t73 36.5t68.5 8q126 0 200 -124l19 109h196v-834q0 -151 91 -151q25 0 42.5 14.5t33 54t23.5 122t8 207.5 v280q0 103 -12 190.5t-31.5 151t-50 115t-61.5 85t-72.5 58t-77 37.5t-80.5 20.5t-77.5 9.5t-73.5 2q-52 0 -96.5 -5t-101.5 -23t-102.5 -47.5t-91.5 -82.5t-76.5 -125t-50 -179t-19.5 -239v-471q0 -106 12.5 -195.5t33.5 -155t54 -118.5t67 -88.5t79.5 -61t85 -39.5 t90.5 -22.5t89 -10.5t86 -2q65 0 142.5 11.5t127.5 31.5v-160q-39 -27 -136.5 -47t-190.5 -20q-63 0 -122 7.5t-135.5 31.5t-141 63.5t-128.5 110.5t-109 164t-73 231.5t-28 307.5zM709 546q0 -94 15 -147.5t38 -70t59 -16.5q63 0 102 83v622q-37 89 -101 89 q-24 0 -42.5 -9.5t-35.5 -34t-26 -74.5t-9 -124v-318z" />
<glyph unicode="A" horiz-adv-x="967" d="M19 0l315 1708h298l316 -1708h-262l-47 306h-312l-45 -306h-263zM357 501h252l-120 851h-11z" />
<glyph unicode="B" horiz-adv-x="1047" d="M146 0v1708h262q58 0 103.5 -2.5t103 -12t101 -25t87.5 -45t72.5 -69t46.5 -99.5t18 -134v-83q0 -130 -68 -222t-160 -114v-8q125 -23 190.5 -119.5t65.5 -250.5v-87q0 -91 -20 -161.5t-58.5 -117.5t-86.5 -79t-113.5 -48.5t-129 -23.5t-142.5 -7h-272zM400 180h74 q108 0 169.5 58t61.5 174v133q0 125 -53.5 187t-177.5 62h-74v-614zM400 977h50q232 0 232 223v70q0 124 -54 186.5t-178 62.5h-50v-542z" />
<glyph unicode="C" horiz-adv-x="936" d="M99 556v605q0 107 15 193t39.5 143.5t60 100.5t71 66.5t79 37t77 17.5t72.5 4q98 0 169.5 -28t111.5 -79.5t58 -114t18 -140.5q0 -95 -22 -204h-210v87q0 281 -122 281q-74 0 -109.5 -64.5t-35.5 -222.5v-780q0 -157 31.5 -217t111.5 -60q54 0 90.5 50.5t36.5 147.5v167 h237v-158q0 -401 -364 -403q-39 0 -74 4.5t-78.5 19.5t-79 39t-71 68t-59 102.5t-38.5 145t-15 192.5z" />
<glyph unicode="D" horiz-adv-x="1061" d="M146 0v1708h269q67 0 109.5 -2t108 -14.5t107.5 -35t91.5 -67t77.5 -107.5t47.5 -160t19.5 -220v-496q0 -123 -19.5 -220t-47.5 -160t-77.5 -107.5t-91.5 -67t-107.5 -35t-107.5 -14.5t-110 -2h-269zM405 181h66q58 0 96.5 11.5t66.5 37.5t43 74.5t21.5 114.5t6.5 166 v530q0 100 -6.5 166t-21.5 114.5t-43 74.5t-66.5 37.5t-96.5 11.5h-66v-1338z" />
<glyph unicode="E" horiz-adv-x="830" d="M146 0v1708h633v-204h-374v-511h289v-204h-289v-585h384v-204h-643z" />
<glyph unicode="F" horiz-adv-x="826" d="M146 0v1708h653v-204h-394v-511h309v-204h-309v-789h-259z" />
<glyph unicode="G" horiz-adv-x="1047" d="M109 556v605q0 107 16 193t41.5 143.5t64 100.5t75.5 66.5t83.5 37t81.5 17.5t76 4q101 0 175 -28t117 -79t63 -114.5t20 -140.5t-24 -204h-207v81q0 281 -151 281q-84 0 -122 -63.5t-38 -223.5v-774q0 -155 37 -216t121 -61q82 0 123 80t41 211v223h-133v170h385v-865 h-172l-28 162q-48 -94 -111.5 -136t-151.5 -42q-44 0 -87 9.5t-99 45t-97 94t-70 168t-29 255.5z" />
<glyph unicode="H" horiz-adv-x="1119" d="M146 0v1708h259v-715h307v715h259v-1708h-259v789h-307v-789h-259z" />
<glyph unicode="I" horiz-adv-x="551" d="M146 0v1708h259v-1708h-259z" />
<glyph unicode="J" horiz-adv-x="850" d="M12 362q0 124 28 257h207l-3 -208q0 -130 23.5 -180.5t80.5 -50.5q50 0 75 44t25 154l3 1330h259v-1294q0 -102 -20 -179.5t-53 -124.5t-81 -76t-97 -39.5t-108 -10.5q-93 0 -161 29.5t-105.5 83t-55 119t-17.5 146.5z" />
<glyph unicode="K" horiz-adv-x="1005" d="M146 0v1708h259v-746h8l296 746h258l-330 -801l367 -907h-277l-314 813h-8v-813h-259z" />
<glyph unicode="L" horiz-adv-x="776" d="M146 0v1708h259v-1504h353v-204h-612z" />
<glyph unicode="M" horiz-adv-x="1442" d="M146 0v1708h338l164 -661q24 -99 70 -397h8q46 298 70 397l169 661h331v-1708h-242v565q0 475 27 770h-19l-258 -1115h-164l-260 1115h-19q27 -295 27 -770v-565h-242z" />
<glyph unicode="N" horiz-adv-x="1127" d="M146 0v1708h210l414 -1143h6q-1 11 -6 66.5t-7.5 89.5t-6.5 94t-5.5 127.5t-1.5 142.5v623h232v-1708h-212l-412 1113h-8q0 -4 7.5 -92.5t10 -134t6 -154.5t3.5 -230v-502h-230z" />
<glyph unicode="O" horiz-adv-x="1044" d="M99 556v605q0 107 15.5 193t40.5 143.5t61.5 100.5t72.5 66.5t81 37t79.5 17.5t74.5 4q39 0 72 -3.5t78 -17t80.5 -36t72.5 -65t62 -100t40.5 -145t15.5 -195.5v-605q0 -105 -16 -191t-41.5 -144t-62 -102t-73 -69t-80 -40t-78 -20t-70.5 -5q-40 0 -76 4.5t-80.5 19.5 t-81 39t-72.5 68t-60.5 102.5t-39.5 145t-15 192.5zM370 455q0 -154 36 -214.5t118 -60.5q79 0 115 60.5t36 214.5v777q0 160 -36 223.5t-115 63.5q-81 0 -117.5 -63.5t-36.5 -223.5v-777z" />
<glyph unicode="P" horiz-adv-x="982" d="M146 0v1708h259q52 0 92 -2.5t98 -14.5t101 -32.5t90 -60.5t77 -94t49.5 -137.5t19.5 -187.5v-60q0 -114 -18 -205.5t-46.5 -153t-71 -107t-85 -70.5t-95.5 -40t-95 -19t-91 -4h-25v-520h-259zM405 710h13q139 0 193.5 82.5t54.5 278.5v154q0 158 -53 226t-195 68h-13 v-809z" />
<glyph unicode="Q" horiz-adv-x="1064" d="M109 556v605q0 107 15.5 193t40.5 143.5t61.5 100.5t72.5 66.5t81 37t79.5 17.5t74.5 4q39 0 72 -3.5t78 -17t80.5 -36t72.5 -65t62 -100t40.5 -145t15.5 -195.5v-605q0 -114 -18.5 -206t-48 -151t-71.5 -102t-82.5 -64.5t-87.5 -33.5v-15q0 -92 41.5 -122.5t137.5 -30.5 q38 0 54 1v-140q-85 -38 -183 -38q-32 0 -60.5 3.5t-69 20t-69 43.5t-49 80.5t-20.5 126.5v67q-320 63 -320 561zM380 455q0 -154 36 -214.5t118 -60.5q79 0 115 60.5t36 214.5v777q0 160 -36 223.5t-115 63.5q-81 0 -117.5 -63.5t-36.5 -223.5v-777z" />
<glyph unicode="R" horiz-adv-x="1048" d="M146 0v1708h281q51 0 90.5 -2.5t96 -13.5t99 -30t88.5 -55.5t75.5 -86.5t49 -127t19.5 -173v-43q0 -383 -221 -494l274 -683h-274l-227 639h-97v-639h-254zM400 826h39q137 0 191.5 66.5t54.5 237.5v135q0 136 -54 195t-192 59h-39v-693z" />
<glyph unicode="S" horiz-adv-x="956" d="M80 346q0 93 26 202h201v-83q0 -144 38.5 -214.5t129.5 -70.5q74 0 113 41t39 118q0 80 -24.5 140.5t-95.5 150.5l-270 321q-150 193 -150 385q0 174 105 280.5t288 106.5q108 0 187.5 -31.5t122 -85.5t62 -114.5t19.5 -130.5q0 -21 -1.5 -40.5t-5 -43t-5.5 -36t-8 -43.5 t-8 -41h-200v81q0 281 -166 281q-71 0 -108 -40t-37 -109q0 -67 19 -112t62 -102l301 -364q86 -112 128 -210t42 -204q0 -182 -110 -288t-297 -106q-90 0 -160 20.5t-114 54.5t-72 81.5t-39.5 97.5t-11.5 108z" />
<glyph unicode="T" horiz-adv-x="866" d="M29 1504v204h808v-204h-274v-1504h-259v1504h-275z" />
<glyph unicode="U" horiz-adv-x="1094" d="M140 525v1183h261v-1252q0 -156 33 -216t111 -60q79 0 115 61t36 215v1252h258v-1183q0 -81 -9.5 -150.5t-25 -120.5t-39 -92t-48 -68.5t-56 -48t-59 -32t-61 -18t-58 -8.5t-53.5 -2q-38 0 -69.5 3.5t-75 16t-77.5 34.5t-69.5 63t-59.5 96t-39 139t-15 188z" />
<glyph unicode="V" horiz-adv-x="955" d="M19 1708h265l188 -1353h11l189 1353h264l-311 -1708h-296z" />
<glyph unicode="W" horiz-adv-x="1479" d="M37 1708h248l115 -1032l13 -241h25l24 271l184 1002h207l176 -1002l20 -271h26l12 241l105 1032h249l-239 -1708h-263l-141 821l-44 357h-20l-43 -357l-148 -821h-260z" />
<glyph unicode="X" horiz-adv-x="939" d="M33 0l312 860l-312 848h277l159 -546h10l159 546h268l-313 -849l313 -859h-267l-162 549h-17l-169 -549h-258z" />
<glyph unicode="Y" horiz-adv-x="959" d="M5 1708h261l209 -817h12l207 817h260l-346 -1139v-569h-259v569z" />
<glyph unicode="Z" horiz-adv-x="865" d="M39 0v137l506 1367h-430v204h721v-137l-507 -1367h477v-204h-767z" />
<glyph unicode="[" horiz-adv-x="776" d="M139 -256v2219h505v-192h-283v-1837h283v-190h-505z" />
<glyph unicode="\" horiz-adv-x="552" d="M10 1884h219l313 -2210h-219z" />
<glyph unicode="]" horiz-adv-x="776" d="M131 -66h284v1837h-284v192h505v-2219h-505v190z" />
<glyph unicode="^" horiz-adv-x="959" d="M35 277l323 1448h233l333 -1448h-219l-162 790l-51 335h-25l-54 -335l-159 -790h-219z" />
<glyph unicode="_" horiz-adv-x="1381" d="M-5 -172h1391v-163h-1391v163z" />
<glyph unicode="`" horiz-adv-x="687" d="M114 1846l169 137l290 -416l-125 -105z" />
<glyph unicode="a" horiz-adv-x="924" d="M54 316q0 163 78 265t244 184q72 36 170 72v182q0 37 -1.5 61t-8 51t-18.5 42t-34 25t-53 10q-61 0 -100.5 -48.5t-39.5 -158.5v-60h-193q-18 78 -18 136q0 150 98.5 233t260.5 83q199 0 276 -85.5t77 -276.5v-1031h-188l-18 118q-42 -61 -111.5 -97t-154.5 -36 q-124 0 -195 93t-71 238zM302 355q0 -82 32 -128.5t98 -46.5q64 0 114 57v431q-70 -29 -99 -48q-62 -38 -103.5 -105t-41.5 -160z" />
<glyph unicode="b" horiz-adv-x="989" d="M130 0v1819h253v-367l-8 -182l1 -1q88 123 229 123q23 0 43 -2.5t50.5 -14t55 -30.5t51 -56.5t44.5 -88t30 -128.5t12 -174v-417q0 -497 -296 -497q-157 0 -246 144l-21 -128h-198zM383 279q43 -99 126 -99q62 0 94.5 54t32.5 197v527q0 143 -32 196.5t-94 53.5 q-80 0 -127 -93v-836z" />
<glyph unicode="c" horiz-adv-x="871" d="M94 564v260q0 109 14.5 197t37.5 146t57 101.5t67 66.5t74 37t71.5 17.5t65.5 3.5q146 0 231 -76.5t85 -226.5q0 -83 -17 -149h-202v46q0 221 -105 221q-64 0 -93.5 -67t-29.5 -239v-391q0 -183 28 -257t101 -74q43 0 71 44.5t28 145.5v43h218v-53q0 -193 -85.5 -284 t-259.5 -91q-176 0 -266.5 144.5t-90.5 434.5z" />
<glyph unicode="d" horiz-adv-x="988" d="M98 481v437q0 95 13 171.5t32 125t48.5 84t55 53t58.5 27.5t52 11.5t43 1.5q69 0 125 -33.5t88 -81.5l1 1l-8 174v367h252v-1819h-197l-22 128q-87 -144 -245 -144q-296 0 -296 497zM352 431q0 -98 17.5 -155.5t44 -76.5t66.5 -19q83 0 126 99v828q-46 101 -127 101 q-30 0 -51.5 -10.5t-39.5 -36.5t-27 -76.5t-9 -125.5v-528z" />
<glyph unicode="e" horiz-adv-x="922" d="M94 564v260q0 109 15 197t38 146t57.5 101.5t68.5 66.5t76 37t73.5 17.5t68.5 3.5q57 0 106 -12.5t94.5 -43.5t77 -79t50.5 -123t19 -172q0 -177 -33 -322h-457v-140q0 -182 31 -251.5t116 -69.5q52 0 86 44.5t34 145.5v43h211v-53q0 -192 -92 -283.5t-272 -91.5 q-182 0 -275 139t-93 440zM348 811h254q4 39 4 141q0 134 -31.5 195t-95.5 61q-69 0 -100 -70t-31 -243v-84z" />
<glyph unicode="f" horiz-adv-x="616" d="M45 1197v180h119v99q0 108 22 181.5t65 111t93 52.5t119 15q100 0 168 -34v-178q-42 11 -94 11q-55 0 -89.5 -37.5t-34.5 -121.5v-99h191v-180h-191v-1197h-249v1197h-119z" />
<glyph unicode="g" horiz-adv-x="993" d="M98 556v362q0 93 12 167.5t30 123t45.5 84t53 54t58 29.5t55 13.5t48.5 2.5q162 0 238 -150l23 136h197v-1322q0 -239 -94 -370t-290 -131q-73 0 -129 12.5t-103.5 41.5t-72.5 83.5t-25 133.5q0 34 13 80h179q0 -87 32.5 -125t102.5 -38q65 0 104 44.5t39 160.5v217 q-83 -107 -220 -107q-296 0 -296 498zM352 506q0 -143 33 -197.5t95 -54.5q83 0 126 100v753q-46 101 -127 101q-30 0 -51.5 -10.5t-39.5 -36.5t-27 -76.5t-9 -125.5v-453z" />
<glyph unicode="h" horiz-adv-x="1022" d="M130 0v1819h253v-324l-13 -236q98 134 268 134q121 0 186.5 -86t65.5 -252v-1055h-253v1046q0 88 -27 125t-83 37q-38 0 -76.5 -26t-67.5 -70v-1112h-253z" />
<glyph unicode="i" horiz-adv-x="521" d="M114 1739q0 86 38.5 123t113.5 37q153 0 153 -160q0 -78 -40 -121.5t-114 -43.5q-71 0 -111 43t-40 122zM134 0v1377h253v-1377h-253z" />
<glyph unicode="j" horiz-adv-x="521" d="M-7 -273q20 -2 32 -2q109 0 109 159v1493h253v-1461q0 -87 -15 -152.5t-39.5 -104.5t-61 -62.5t-73.5 -32t-83 -8.5q-69 0 -122 24v147zM114 1739q0 86 38.5 123t113.5 37q153 0 153 -160q0 -78 -40 -121.5t-114 -43.5q-71 0 -111 43t-40 122z" />
<glyph unicode="k" horiz-adv-x="942" d="M134 0v1819h253v-1047h8l276 605h243l-306 -630l335 -747h-258l-290 683h-8v-683h-253z" />
<glyph unicode="l" horiz-adv-x="521" d="M134 0v1819h253v-1819h-253z" />
<glyph unicode="m" horiz-adv-x="1520" d="M130 0v1377h196l22 -147v-1q103 164 286 164q165 0 222 -156q104 156 281 156q121 0 186 -86t65 -252v-1055h-253v1046q0 89 -27 125.5t-90 36.5q-34 0 -69.5 -25.5t-64.5 -70.5q1 -12 1 -36v-1076h-253v1046q0 89 -27 125.5t-90 36.5q-34 0 -69 -25t-63 -69v-1114h-253z " />
<glyph unicode="n" horiz-adv-x="1020" d="M130 0v1377h195l23 -147v-1q103 164 288 164q121 0 186.5 -86t65.5 -252v-1055h-253v1046q0 88 -27 125t-83 37q-38 0 -75.5 -25t-66.5 -69v-1114h-253z" />
<glyph unicode="o" horiz-adv-x="950" d="M94 591v216q0 111 12.5 200.5t33 150t52 104.5t63 69t73 39.5t75 18.5t75.5 4q41 0 73.5 -4t73.5 -18t71.5 -38t62 -68t52 -104.5t33 -150.5t12.5 -203v-216q0 -111 -13 -201.5t-34 -152.5t-52.5 -108.5t-63.5 -73.5t-71.5 -43.5t-73 -21.5t-71.5 -5q-61 0 -108.5 10 t-101.5 47t-89.5 100t-59.5 177.5t-24 271.5zM348 523q0 -192 29.5 -267.5t101.5 -75.5q69 0 96 75t27 268v339q0 193 -27.5 269.5t-95.5 76.5q-72 0 -101.5 -77t-29.5 -269v-339z" />
<glyph unicode="p" horiz-adv-x="990" d="M130 -445v1822h198l23 -145q97 160 255 160q23 0 43 -2.5t50.5 -14t55 -30.5t51 -56.5t44.5 -88t30 -128.5t12 -174v-417q0 -96 -12 -174t-30 -128.5t-45.5 -88.5t-52.5 -57.5t-57 -31t-53 -14t-46 -2.5q-139 0 -221 106l8 -169v-367h-253zM383 281q43 -101 127 -101 q62 0 94.5 54t32.5 197v527q0 143 -32 196.5t-94 53.5q-81 0 -128 -95v-832z" />
<glyph unicode="q" horiz-adv-x="988" d="M98 481v417q0 96 12 174t30 128.5t44.5 88t51 56.5t55 30.5t50.5 14t43 2.5q158 0 253 -158l24 143h197v-1823h-252v367l7 168q-82 -104 -219 -104q-25 0 -46 2.5t-53 14t-57 31t-52.5 57.5t-45.5 88.5t-30 128.5t-12 174zM352 431q0 -98 17.5 -155.5t44 -76.5t66.5 -19 q83 0 126 99v828q-46 101 -127 101q-62 0 -94.5 -53.5t-32.5 -197.5v-526z" />
<glyph unicode="r" horiz-adv-x="788" d="M130 0v1377h185l22 -140q40 76 95 116t113 40q213 0 213 -268q0 -87 -34 -187h-176v128q0 142 -67 142q-61 0 -98 -74v-1134h-253z" />
<glyph unicode="s" horiz-adv-x="829" d="M76 288q0 79 25 154h178q0 -149 32 -205.5t115 -56.5q54 0 81.5 30.5t27.5 75.5q0 41 -20 77.5t-66 92.5l-185 218q-90 113 -137.5 205t-47.5 200q0 78 27.5 139t74.5 98.5t107 57t129 19.5q153 0 240 -73t87 -213q0 -72 -25 -170h-175q-2 147 -26.5 209t-96.5 62 q-61 0 -88 -34.5t-27 -84.5q0 -44 20.5 -84t63.5 -94l202 -237q35 -45 53 -69t50.5 -78t48.5 -108.5t16 -111.5q0 -148 -92.5 -235t-258.5 -87q-72 0 -130.5 16t-105 50t-72 94t-25.5 143z" />
<glyph unicode="t" horiz-adv-x="675" d="M52 1197v180h129l51 357h180v-357h220v-180h-220v-876q0 -83 28.5 -112t80.5 -29q65 0 120 34v-140q-74 -90 -210 -90q-46 0 -83 8.5t-73.5 32t-61 62.5t-39.5 104t-15 152v854h-107z" />
<glyph unicode="u" horiz-adv-x="1021" d="M132 322v1055h253v-1035q0 -88 27 -125t83 -37q80 0 139 81v1116h253v-1377h-193l-25 147h-1q-103 -163 -284 -163q-121 0 -186.5 85.5t-65.5 252.5z" />
<glyph unicode="v" horiz-adv-x="874" d="M16 1377h252l133 -732l33 -293h8l38 293l132 732h244l-314 -1377h-216z" />
<glyph unicode="w" horiz-adv-x="1338" d="M35 1377h241l99 -746l24 -279h8l30 279l132 746h213l136 -746l37 -279h8l17 279l87 746h236l-223 -1377h-233l-143 766l-32 211h-8l-29 -211l-130 -766h-243z" />
<glyph unicode="x" horiz-adv-x="902" d="M25 0l286 699l-272 678h259l147 -451h2l156 451h242l-261 -654l293 -723h-259l-170 475h-8l-172 -475h-243z" />
<glyph unicode="y" horiz-adv-x="898" d="M18 1377h257l145 -762l42 -263h8l29 263l117 762h249l-290 -1428q-39 -204 -123.5 -299t-241.5 -95q-65 0 -133 25l1 155q24 -4 47 -4q86 0 142 53q71 65 77 208z" />
<glyph unicode="z" horiz-adv-x="703" d="M22 0v126l386 1059h-353v192h624v-126l-387 -1059h389v-192h-659z" />
<glyph unicode="{" horiz-adv-x="896" d="M76 767v179l51 3q80 5 118 51.5t38 160.5v419q0 195 93 289.5t239 94.5q65 0 150 -26v-154h-38q-123 0 -171 -30t-48 -108v-401q0 -155 -35.5 -245t-126.5 -131v-26q89 -41 125.5 -131.5t36.5 -243.5v-405q0 -78 48 -108.5t171 -30.5h38v-153q-83 -27 -150 -27 q-146 0 -238.5 94.5t-92.5 290.5v422q0 115 -38 161.5t-118 51.5z" />
<glyph unicode="|" horiz-adv-x="714" d="M247 -326v2210h220v-2210h-220z" />
<glyph unicode="}" horiz-adv-x="896" d="M131 -76h38q123 0 171 30.5t48 108.5v405q0 153 36.5 243.5t124.5 131.5v26q-90 41 -125.5 131t-35.5 245v401q0 78 -48 108t-171 30h-38v154q85 26 150 26q146 0 239 -94.5t93 -289.5v-419q0 -114 38 -160.5t118 -51.5l51 -3v-179l-52 -3q-80 -5 -118 -51.5t-38 -161.5 v-422q0 -196 -92.5 -290.5t-238.5 -94.5q-67 0 -150 27v153z" />
<glyph unicode="~" horiz-adv-x="1304" d="M130 450q-8 101 4 179.5t39 129t68 83t87 45.5t100 13t101.5 -17t81 -44.5t63.5 -61t54.5 -67t47 -61t48.5 -44.5t52 -17q69 0 94.5 72.5t1.5 208.5h192q21 -117 7.5 -205.5t-54 -147t-96.5 -88t-121 -29.5q-76 0 -140 32t-106 77.5t-77.5 90.5t-71.5 77t-71 32 q-74 0 -105 -70.5t-13 -187.5h-186z" />
<glyph />
<glyph unicode="&#xa1;" horiz-adv-x="690" d="M191 1212q0 92 41.5 141.5t113.5 49.5q74 0 116 -50t42 -141q0 -97 -40.5 -146.5t-116.5 -49.5q-156 0 -156 196zM208 -424l35 1258h207l31 -1258h-273z" />
<glyph unicode="&#xa2;" horiz-adv-x="899" d="M113 564v260q0 489 281 557v242h186v-237q110 -19 172 -93.5t62 -202.5q0 -83 -17 -149h-192v46q0 105 -29 163t-84 58q-64 0 -94.5 -70.5t-30.5 -242.5v-394q0 -181 28.5 -251t102.5 -70q44 0 75.5 45t31.5 145v53h205v-63q0 -160 -56.5 -249t-172.5 -115v-254h-186v250 q-141 26 -211.5 165t-70.5 407z" />
<glyph unicode="&#xa3;" horiz-adv-x="1006" d="M66 701v179h129v344q0 252 93 375.5t293 123.5q91 0 161 -29t110 -79.5t60 -111.5t20 -132q0 -94 -26 -214h-201v71q0 292 -131 292q-65 0 -94.5 -64.5t-29.5 -231.5v-344h279v-179h-279v-138q0 -244 -78 -359h536v-204h-810v152q18 8 32.5 20.5t24.5 32.5t17.5 37 t11.5 47t7 50t3.5 59t1 59.5t0 66.5t-0.5 67v110h-129z" />
<glyph unicode="&#xa4;" horiz-adv-x="1287" d="M116 513l181 161q-36 86 -36 184q0 107 38 198l-183 164l138 155l175 -162q84 52 199 52q126 0 219 -61l185 171l139 -155l-197 -175q36 -84 36 -187q0 -89 -35 -171l196 -174l-139 -155l-184 170q-93 -64 -220 -64q-115 0 -201 54l-173 -160zM486 855q0 -68 37 -116 t105 -48q77 0 120.5 49.5t43.5 114.5q0 79 -42.5 131.5t-121.5 52.5q-70 0 -106 -53t-36 -131z" />
<glyph unicode="&#xa5;" horiz-adv-x="1006" d="M38 1708h261l198 -716h12l198 716h261l-337 -981h235v-180h-235v-151h235v-179h-235v-217h-258v217h-236v179h236v151h-236v180h236z" />
<glyph unicode="&#xa6;" horiz-adv-x="714" d="M247 -326v1009h220v-1009h-220zM247 940v944h220v-944h-220z" />
<glyph unicode="&#xa7;" horiz-adv-x="1062" d="M136 791q0 107 49 192t136 137q-82 92 -118.5 176.5t-36.5 185.5q0 154 101.5 249.5t275.5 95.5q91 0 161.5 -28.5t111 -76t61 -103.5t20.5 -116q0 -95 -27 -206h-180v109q0 116 -41.5 176t-105.5 60q-65 0 -101 -45t-36 -115q0 -58 35 -112.5t129 -148.5l156 -161 q106 -108 153 -193t47 -201q0 -107 -49 -192.5t-136 -137.5q82 -93 119 -176.5t37 -184.5q0 -153 -102 -248.5t-276 -95.5q-91 0 -161.5 28.5t-111 76t-60.5 103t-20 116.5q0 94 27 205h180v-109q0 -116 41 -175.5t105 -59.5q65 0 101 45t36 114q0 59 -34.5 112.5 t-128.5 149.5l-157 160q-107 109 -153.5 193.5t-46.5 200.5zM362 823q0 -60 30.5 -114.5t101.5 -124.5l125 -123q82 68 82 174q0 60 -30.5 114.5t-101.5 123.5l-127 123q-80 -68 -80 -173z" />
<glyph unicode="&#xa8;" horiz-adv-x="948" d="M114 1728q0 89 30 130t107 41q80 0 112.5 -40.5t32.5 -130.5q0 -81 -33 -121.5t-112 -40.5q-75 0 -106 39.5t-31 122.5zM552 1728q0 89 29.5 130t106.5 41q80 0 113 -40.5t33 -130.5q0 -81 -33.5 -121.5t-112.5 -40.5q-75 0 -105.5 39t-30.5 123z" />
<glyph unicode="&#xa9;" horiz-adv-x="1458" d="M104 694v336q0 129 22.5 234.5t59.5 178t90 127.5t107.5 86.5t119.5 51t118.5 26t110.5 6.5q56 0 108 -6t116.5 -25t118.5 -50t107 -85.5t90 -127t59.5 -179.5t22.5 -237v-336q0 -130 -23 -237t-60 -179.5t-90 -127t-107.5 -85t-119 -49.5t-116.5 -25t-108 -6 q-57 0 -110.5 6.5t-118 26t-119 51t-107.5 86t-89.5 127t-59 178t-22.5 234.5zM260 670q0 -102 17 -185t44 -139.5t66.5 -98.5t80 -65.5t89.5 -38t88.5 -19t84.5 -4.5q44 0 82.5 4t88 18t89 37t80 65t68 98.5t45 140.5t17.5 187v384q0 103 -17 187t-44 140.5t-67.5 98.5 t-80.5 65t-89 37t-87.5 18t-82.5 4q-472 0 -472 -550v-384zM421 736v257q0 83 12.5 150t32 111.5t48.5 78t58 51.5t64 29t62 14t57 3q75 0 132 -23t87.5 -61t45 -80t14.5 -87q0 -64 -18 -159h-164v56q0 187 -102 187q-58 0 -85.5 -50t-27.5 -173v-367q0 -120 28.5 -167 t90.5 -47q44 0 70.5 38t26.5 114v85h185v-74q0 -160 -72.5 -244.5t-209.5 -85.5q-335 0 -335 444z" />
<glyph unicode="&#xaa;" horiz-adv-x="836" d="M69 905q0 242 314 371q72 32 116 44v159q0 58 -20.5 88t-70.5 30q-122 0 -122 -159v-46h-182q-14 65 -14 122q0 102 80.5 174.5t238.5 72.5q96 0 162 -24t98.5 -68t45 -90.5t12.5 -106.5v-804h-172l-17 72q-38 -38 -102 -64.5t-127 -26.5q-62 0 -110 21.5t-75.5 58.5 t-41 81.5t-13.5 94.5zM287 949q0 -61 30 -98t83 -37q54 0 99 38v323q-44 -15 -66 -25q-56 -23 -101 -75.5t-45 -125.5z" />
<glyph unicode="&#xab;" horiz-adv-x="1336" d="M144 717v150l389 406l137 -124l-283 -359l279 -360l-137 -125zM651 717v150l389 406l137 -124l-283 -359l279 -360l-137 -125z" />
<glyph unicode="&#xac;" horiz-adv-x="991" d="M45 692v195h860v-519h-198v324h-662z" />
<glyph unicode="&#xad;" horiz-adv-x="1707" />
<glyph unicode="&#xae;" horiz-adv-x="1479" d="M104 879v166q0 125 24 229t62.5 174.5t93.5 124.5t111 85t121.5 50t118 25.5t107.5 6.5q53 0 104.5 -6t116.5 -24.5t120.5 -49t111 -84t94 -124.5t62.5 -175.5t24 -231.5v-166q0 -127 -24 -231.5t-63 -175.5t-94.5 -124.5t-111.5 -84t-121 -49t-116.5 -24.5t-104.5 -6 q-55 0 -107.5 6.5t-117.5 26t-121 50.5t-111 85t-93.5 124.5t-62 174t-23.5 228.5zM260 871q0 -541 480 -541q46 0 87 4.5t91 18.5t90.5 37.5t81 65t68 97t45 137t17.5 181.5v182q0 100 -17 181.5t-44 137t-67.5 97t-81.5 65t-91 37.5t-90.5 18.5t-86.5 4.5q-47 0 -89 -5 t-92 -19.5t-91.5 -38.5t-81.5 -66t-67 -97t-44 -135.5t-17 -179.5v-182zM478 562v825h183q39 0 68.5 -1.5t70.5 -7t71 -15t62.5 -28.5t53 -45t33.5 -65.5t13 -89.5v-30q0 -74 -33.5 -129t-95.5 -83l187 -331h-207l-128 280h-95v-280h-183zM661 968h31q77 0 109 32t32 102v42 q0 58 -32 87.5t-109 29.5h-31v-293z" />
<glyph unicode="&#xaf;" horiz-adv-x="851" d="M114 1633v193h623v-193h-623z" />
<glyph unicode="&#xb0;" horiz-adv-x="889" d="M106 1428q0 73 20 137.5t59.5 116.5t105 82.5t148.5 30.5q111 0 190.5 -52.5t116.5 -134t37 -180.5q0 -52 -13.5 -103t-41.5 -96.5t-68 -80.5t-97 -55.5t-124 -20.5q-81 0 -146 30t-105 80.5t-61 113.5t-21 132zM306 1425q0 -66 34 -113t96 -47q70 0 108.5 48t38.5 112 q0 75 -38 126t-109 51q-64 0 -97 -51t-33 -126z" />
<glyph unicode="&#xb1;" horiz-adv-x="916" d="M86 169v195h744v-195h-744zM86 860v195h271v314h199v-314h274v-195h-274v-323h-199v323h-271z" />
<glyph unicode="&#xb2;" horiz-adv-x="864" d="M109 1504q0 116 82 186.5t227 70.5q45 0 84.5 -5.5t84 -23.5t76.5 -47t53 -79.5t21 -117.5q0 -80 -31 -158t-114 -196l-198 -284h344v-173h-622v118l266 398q71 103 93.5 168.5t22.5 126.5q0 108 -91 108q-45 0 -72.5 -39.5t-27.5 -111.5v-53h-184q-14 81 -14 112z" />
<glyph unicode="&#xb3;" horiz-adv-x="861" d="M86 913q0 55 14 133h186v-46q0 -170 115 -170q112 0 112 116v73q0 71 -32 105t-84 34h-80v135h80q47 0 76.5 30.5t29.5 94.5v71q0 108 -102 108q-105 0 -105 -159v-46h-182q-14 65 -14 122q0 102 78 174.5t231 72.5q46 0 87 -6t84.5 -24t74 -46t50.5 -75.5t20 -109.5v-63 q-17 -157 -132 -207v-8q67 -28 104.5 -84t37.5 -127v-65q0 -67 -21.5 -118t-54.5 -81t-79 -49t-88.5 -25.5t-90.5 -6.5q-158 0 -236.5 72.5t-78.5 174.5z" />
<glyph unicode="&#xb4;" horiz-adv-x="687" d="M114 1567l290 416l169 -137l-334 -384z" />
<glyph unicode="&#xb5;" horiz-adv-x="1036" d="M121 1377h262v-1033q0 -89 28 -126t89 -37q79 0 132 63v1133h266v-1377h-206l-17 96q-31 -47 -83 -79.5t-102 -32.5q-38 0 -67.5 12t-58.5 47l-8 1l7 -372h-241z" />
<glyph unicode="&#xb6;" horiz-adv-x="1101" d="M99 1119v60q0 104 14.5 187.5t37 137.5t57 94t66 60.5t73 32.5t70 14.5t64.5 2.5h31v-1188h-31q-36 0 -64 3t-70 16t-73.5 36t-66 68t-57 106.5t-37 156.5t-14.5 213zM683 0v1708h258v-1708h-258z" />
<glyph unicode="&#xb7;" horiz-adv-x="561" d="M121 793q0 198 156 198q75 0 116 -50t41 -148q0 -91 -42 -142t-116 -51q-72 0 -113.5 50t-41.5 143z" />
<glyph unicode="&#xb8;" horiz-adv-x="594" d="M114 -389l7 151q11 -1 33 -1q75 0 112 37t42 146l2 44l93 148l69 -137l6 -103q5 -81 -10 -142t-39 -92.5t-57.5 -51t-58 -24.5t-48.5 -5q-72 0 -151 30z" />
<glyph unicode="&#xb9;" horiz-adv-x="770" d="M66 1470l265 256h178v-887h134v-162h-483v162h127v611l-133 -112z" />
<glyph unicode="&#xba;" horiz-adv-x="919" d="M127 1039v350q0 87 22 154.5t56.5 107.5t81.5 65.5t91.5 35t92.5 9.5q47 0 91.5 -9.5t91.5 -35.5t81.5 -66t56.5 -108t22 -155v-347q0 -87 -22 -155t-56.5 -108t-81.5 -66t-91.5 -35.5t-91.5 -9.5q-48 0 -92.5 9.5t-91.5 35t-81.5 66t-56.5 108t-22 154.5zM348 1040 q0 -111 27 -160.5t96 -49.5t95.5 49.5t26.5 159.5v348q0 110 -26.5 160t-95.5 50t-96 -49.5t-27 -158.5v-349z" />
<glyph unicode="&#xbb;" horiz-adv-x="1368" d="M167 1149l137 124l389 -406v-150l-385 -412l-137 125l279 360zM688 1149l137 124l389 -406v-150l-385 -412l-137 125l279 360z" />
<glyph unicode="&#xbc;" horiz-adv-x="1825" d="M107 1470l265 256h178v-887h134v-162h-483v162h127v611l-133 -112zM590 0l459 1709h182l-459 -1709h-182zM1002 185v96l373 788h257v-730h87v-154h-87v-184h-222v184h-408zM1223 339h187v37l26 420h-12z" />
<glyph unicode="&#xbd;" horiz-adv-x="1861" d="M107 1470l265 256h178v-887h134v-162h-483v162h127v611l-133 -112zM590 0l459 1709h182l-459 -1709h-182zM1116 827q0 116 82 186.5t227 70.5q45 0 84.5 -5.5t84 -23.5t76.5 -47t53 -79.5t21 -117.5q0 -80 -31 -158t-114 -196l-198 -284h344v-173h-622v118l266 398 q71 103 93.5 168.5t22.5 126.5q0 108 -91 108q-45 0 -72.5 -39.5t-27.5 -111.5v-53h-184q-14 81 -14 112z" />
<glyph unicode="&#xbe;" horiz-adv-x="1869" d="M116 913q0 55 14 133h186v-46q0 -170 115 -170q112 0 112 116v73q0 71 -32 105t-84 34h-80v135h80q47 0 76.5 30.5t29.5 94.5v71q0 108 -102 108q-105 0 -105 -159v-46h-182q-14 65 -14 122q0 102 78 174.5t231 72.5q46 0 87 -6t84.5 -24t74 -46t50.5 -75.5t20 -109.5 v-63q-17 -157 -132 -207v-8q67 -28 104.5 -84t37.5 -127v-65q0 -67 -21.5 -118t-54.5 -81t-79 -49t-88.5 -25.5t-90.5 -6.5q-158 0 -236.5 72.5t-78.5 174.5zM632 0l459 1709h182l-459 -1709h-182zM1046 185v96l373 788h258v-730h86v-154h-86v-184h-223v184h-408zM1267 339 h187v37l27 420h-13z" />
<glyph unicode="&#xbf;" horiz-adv-x="1026" d="M93 -50q0 96 35.5 183.5t115.5 195.5l80 108q54 74 67 117.5t13 133.5v144h221l-1 -203q0 -84 -11.5 -130t-53.5 -113l-118 -186q-82 -132 -82 -250q0 -83 42.5 -133.5t114.5 -50.5q157 0 157 280v82h204q27 -143 27 -204q0 -161 -100 -261.5t-298 -100.5 q-202 0 -307.5 103.5t-105.5 284.5zM343 1212q0 91 42 141t116 50q72 0 113.5 -49.5t41.5 -141.5q0 -196 -156 -196q-76 0 -116.5 49.5t-40.5 146.5z" />
<glyph unicode="&#xc0;" horiz-adv-x="967" d="M19 0l315 1708h298l316 -1708h-262l-47 306h-312l-45 -306h-263zM140 1899l129 167l321 -216l-105 -117zM357 501h252l-120 851h-11z" />
<glyph unicode="&#xc1;" horiz-adv-x="967" d="M19 0l315 1708h298l316 -1708h-262l-47 306h-312l-45 -306h-263zM357 501h252l-120 851h-11zM379 1850l321 216l129 -167l-345 -166z" />
<glyph unicode="&#xc2;" horiz-adv-x="967" d="M19 0l315 1708h298l316 -1708h-262l-47 306h-312l-45 -306h-263zM114 1756l250 310h234l246 -310h-249l-69 130l-40 56l-40 -56l-84 -130h-248zM357 501h252l-120 851h-11z" />
<glyph unicode="&#xc3;" horiz-adv-x="967" d="M19 0l315 1708h298l316 -1708h-262l-47 306h-312l-45 -306h-263zM111 1829q0 126 61 181.5t160 55.5q56 0 97 -16t83 -51q3 -3 21.5 -21t27 -25t24 -19.5t28.5 -17.5t25 -5q50 0 50 58v78h159q11 -66 11 -106q0 -99 -61 -155.5t-147 -56.5q-106 0 -192 69 q-17 15 -39.5 36t-31.5 29t-22.5 14.5t-28.5 6.5q-43 0 -43 -64v-72h-178q-4 60 -4 81zM357 501h252l-120 851h-11z" />
<glyph unicode="&#xc4;" horiz-adv-x="967" d="M19 0l315 1708h298l316 -1708h-262l-47 306h-312l-45 -306h-263zM125 1909q0 82 30 119.5t107 37.5q80 0 112.5 -37t32.5 -120q0 -77 -33.5 -117.5t-111.5 -40.5q-75 0 -106 39.5t-31 118.5zM357 501h252l-120 851h-11zM563 1909q0 82 29.5 119.5t106.5 37.5 q80 0 113 -37t33 -120q0 -76 -34 -117t-112 -41q-75 0 -105.5 39.5t-30.5 118.5z" />
<glyph unicode="&#xc5;" horiz-adv-x="964" d="M18 0l284 1526q-65 39 -99 106t-34 144q0 125 80 207t234 82q157 0 240.5 -81.5t83.5 -207.5q0 -75 -37.5 -143.5t-107.5 -108.5l285 -1524h-260l-47 306h-316l-45 -306h-261zM343 1772q0 -53 36.5 -91t102.5 -38q75 0 116.5 39t41.5 90q0 59 -40.5 95t-117.5 36 q-69 0 -104 -36t-35 -95zM354 501h256l-122 855h-11z" />
<glyph unicode="&#xc6;" horiz-adv-x="1266" d="M11 0l432 1708h797v-205h-394v-508h307v-224h-307v-566h394v-205h-650v306h-255l-63 -306h-261zM374 492h216v864h-37z" />
<glyph unicode="&#xc7;" horiz-adv-x="936" d="M99 556v605q0 107 15 193t39.5 143.5t60 100.5t71 66.5t79 37t77 17.5t72.5 4q98 0 169.5 -28t111.5 -79.5t58 -114t18 -140.5q0 -95 -22 -204h-210v87q0 281 -122 281q-74 0 -109.5 -64.5t-35.5 -222.5v-780q0 -157 31.5 -217t111.5 -60q54 0 90.5 50.5t36.5 147.5v167 h237v-158q0 -401 -364 -403q-39 0 -74 4.5t-78.5 19.5t-79 39t-71 68t-59 102.5t-38.5 145t-15 192.5zM245 -389l7 151q11 -1 33 -1q75 0 112 37t42 146l2 44l93 148l69 -137l6 -103q5 -81 -10 -142t-39 -92.5t-57.5 -51t-58 -24.5t-48.5 -5q-72 0 -151 30z" />
<glyph unicode="&#xc8;" horiz-adv-x="830" d="M135 1899l129 167l321 -216l-105 -117zM146 0v1708h633v-204h-374v-511h289v-204h-289v-585h384v-204h-643z" />
<glyph unicode="&#xc9;" horiz-adv-x="830" d="M146 0v1708h633v-204h-374v-511h289v-204h-289v-585h384v-204h-643zM374 1850l321 216l129 -167l-345 -166z" />
<glyph unicode="&#xca;" horiz-adv-x="830" d="M109 1756l250 310h234l246 -310h-249l-69 130l-40 56l-40 -56l-84 -130h-248zM146 0v1708h633v-204h-374v-511h289v-204h-289v-585h384v-204h-643z" />
<glyph unicode="&#xcb;" horiz-adv-x="830" d="M120 1909q0 82 30 119.5t107 37.5q80 0 112.5 -37t32.5 -120q0 -77 -33.5 -117.5t-111.5 -40.5q-75 0 -106 39.5t-31 118.5zM146 0v1708h633v-204h-374v-511h289v-204h-289v-585h384v-204h-643zM558 1909q0 82 29.5 119.5t106.5 37.5q80 0 113 -37t33 -120 q0 -76 -34 -117t-112 -41q-75 0 -105.5 39.5t-30.5 118.5z" />
<glyph unicode="&#xcc;" horiz-adv-x="551" d="M-70 1899l129 167l321 -216l-105 -117zM146 0v1708h259v-1708h-259z" />
<glyph unicode="&#xcd;" horiz-adv-x="551" d="M146 0v1708h259v-1708h-259zM169 1850l321 216l129 -167l-345 -166z" />
<glyph unicode="&#xce;" horiz-adv-x="551" d="M-96 1756l250 310h234l246 -310h-249l-69 130l-40 56l-40 -56l-84 -130h-248zM146 0v1708h259v-1708h-259z" />
<glyph unicode="&#xcf;" horiz-adv-x="551" d="M-85 1909q0 82 30 119.5t107 37.5q80 0 112.5 -37t32.5 -120q0 -77 -33.5 -117.5t-111.5 -40.5q-75 0 -106 39.5t-31 118.5zM146 0v1708h259v-1708h-259zM353 1909q0 82 29.5 119.5t106.5 37.5q80 0 113 -37t33 -120q0 -76 -34 -117t-112 -41q-75 0 -105.5 39.5 t-30.5 118.5z" />
<glyph unicode="&#xd0;" horiz-adv-x="1037" d="M43 817v202h85v706h278q51 0 91 -3t98.5 -16.5t103 -36.5t92 -67.5t78.5 -106t51.5 -155.5t20.5 -211v-523q0 -94 -12.5 -173t-32.5 -136.5t-51 -104t-63 -77t-74 -53t-77 -34t-80 -18.5t-75.5 -8.5t-69.5 -1.5h-278v817h-85zM387 180h31q137 0 195.5 90t58.5 288v591 q0 190 -57 280t-197 90h-31v-500h158v-202h-158v-637z" />
<glyph unicode="&#xd1;" horiz-adv-x="1123" d="M144 0v1708h210l414 -1143h6q-1 11 -6 66.5t-7.5 89.5t-6.5 94t-5.5 127.5t-1.5 142.5v623h232v-1708h-212l-412 1113h-8q0 -4 7.5 -92.5t10 -134t6 -154.5t3.5 -230v-502h-230zM189 1829q0 126 61 181.5t160 55.5q56 0 97 -16t83 -51q3 -3 21.5 -21t27 -25t24 -19.5 t28.5 -17.5t25 -5q50 0 50 58v78h159q11 -66 11 -106q0 -99 -61 -155.5t-147 -56.5q-106 0 -192 69q-17 15 -39.5 36t-31.5 29t-22.5 14.5t-28.5 6.5q-43 0 -43 -64v-72h-178q-4 60 -4 81z" />
<glyph unicode="&#xd2;" horiz-adv-x="1070" d="M112 556v605q0 107 15.5 193t40.5 143.5t61.5 100.5t72.5 66.5t81 37t79.5 17.5t74.5 4q39 0 72 -3.5t78 -17t80.5 -36t72.5 -65t62 -100t40.5 -145t15.5 -195.5v-605q0 -105 -16 -191t-41.5 -144t-62 -102t-73 -69t-80 -40t-78 -20t-70.5 -5q-40 0 -76 4.5t-80.5 19.5 t-81 39t-72.5 68t-60.5 102.5t-39.5 145t-15 192.5zM188 1899l129 167l321 -216l-105 -117zM383 455q0 -154 36 -214.5t118 -60.5q79 0 115 60.5t36 214.5v777q0 160 -36 223.5t-115 63.5q-81 0 -117.5 -63.5t-36.5 -223.5v-777z" />
<glyph unicode="&#xd3;" horiz-adv-x="1070" d="M112 556v605q0 107 15.5 193t40.5 143.5t61.5 100.5t72.5 66.5t81 37t79.5 17.5t74.5 4q39 0 72 -3.5t78 -17t80.5 -36t72.5 -65t62 -100t40.5 -145t15.5 -195.5v-605q0 -105 -16 -191t-41.5 -144t-62 -102t-73 -69t-80 -40t-78 -20t-70.5 -5q-40 0 -76 4.5t-80.5 19.5 t-81 39t-72.5 68t-60.5 102.5t-39.5 145t-15 192.5zM383 455q0 -154 36 -214.5t118 -60.5q79 0 115 60.5t36 214.5v777q0 160 -36 223.5t-115 63.5q-81 0 -117.5 -63.5t-36.5 -223.5v-777zM427 1850l321 216l129 -167l-345 -166z" />
<glyph unicode="&#xd4;" horiz-adv-x="1070" d="M112 556v605q0 107 15.5 193t40.5 143.5t61.5 100.5t72.5 66.5t81 37t79.5 17.5t74.5 4q39 0 72 -3.5t78 -17t80.5 -36t72.5 -65t62 -100t40.5 -145t15.5 -195.5v-605q0 -105 -16 -191t-41.5 -144t-62 -102t-73 -69t-80 -40t-78 -20t-70.5 -5q-40 0 -76 4.5t-80.5 19.5 t-81 39t-72.5 68t-60.5 102.5t-39.5 145t-15 192.5zM162 1756l250 310h234l246 -310h-249l-69 130l-40 56l-40 -56l-84 -130h-248zM383 455q0 -154 36 -214.5t118 -60.5q79 0 115 60.5t36 214.5v777q0 160 -36 223.5t-115 63.5q-81 0 -117.5 -63.5t-36.5 -223.5v-777z" />
<glyph unicode="&#xd5;" horiz-adv-x="1070" d="M112 556v605q0 107 15.5 193t40.5 143.5t61.5 100.5t72.5 66.5t81 37t79.5 17.5t74.5 4q39 0 72 -3.5t78 -17t80.5 -36t72.5 -65t62 -100t40.5 -145t15.5 -195.5v-605q0 -105 -16 -191t-41.5 -144t-62 -102t-73 -69t-80 -40t-78 -20t-70.5 -5q-40 0 -76 4.5t-80.5 19.5 t-81 39t-72.5 68t-60.5 102.5t-39.5 145t-15 192.5zM159 1829q0 126 61 181.5t160 55.5q56 0 97 -16t83 -51q3 -3 21.5 -21t27 -25t24 -19.5t28.5 -17.5t25 -5q50 0 50 58v78h159q11 -66 11 -106q0 -99 -61 -155.5t-147 -56.5q-106 0 -192 69q-17 15 -39.5 36t-31.5 29 t-22.5 14.5t-28.5 6.5q-43 0 -43 -64v-72h-178q-4 60 -4 81zM383 455q0 -154 36 -214.5t118 -60.5q79 0 115 60.5t36 214.5v777q0 160 -36 223.5t-115 63.5q-81 0 -117.5 -63.5t-36.5 -223.5v-777z" />
<glyph unicode="&#xd6;" horiz-adv-x="1070" d="M112 556v605q0 107 15.5 193t40.5 143.5t61.5 100.5t72.5 66.5t81 37t79.5 17.5t74.5 4q39 0 72 -3.5t78 -17t80.5 -36t72.5 -65t62 -100t40.5 -145t15.5 -195.5v-605q0 -105 -16 -191t-41.5 -144t-62 -102t-73 -69t-80 -40t-78 -20t-70.5 -5q-40 0 -76 4.5t-80.5 19.5 t-81 39t-72.5 68t-60.5 102.5t-39.5 145t-15 192.5zM173 1909q0 82 30 119.5t107 37.5q80 0 112.5 -37t32.5 -120q0 -77 -33.5 -117.5t-111.5 -40.5q-75 0 -106 39.5t-31 118.5zM383 455q0 -154 36 -214.5t118 -60.5q79 0 115 60.5t36 214.5v777q0 160 -36 223.5t-115 63.5 q-81 0 -117.5 -63.5t-36.5 -223.5v-777zM611 1909q0 82 29.5 119.5t106.5 37.5q80 0 113 -37t33 -120q0 -76 -34 -117t-112 -41q-75 0 -105.5 39.5t-30.5 118.5z" />
<glyph unicode="&#xd7;" horiz-adv-x="860" d="M66 551l234 239l-234 239l130 132l234 -239l235 239l130 -132l-235 -239l235 -239l-130 -132l-235 238l-234 -238z" />
<glyph unicode="&#xd8;" horiz-adv-x="1039" d="M99 556v605q0 107 15.5 193t40.5 143.5t61.5 100.5t72.5 66.5t81 37t79.5 17.5t74.5 4q39 0 72 -3.5t78 -17t80.5 -36t72.5 -65t62 -100t40.5 -145t15.5 -195.5v-605q0 -105 -16 -191t-41.5 -144t-62 -102t-73 -69t-80 -40t-78 -20t-70.5 -5q-40 0 -76 4.5t-80.5 19.5 t-81 39t-72.5 68t-60.5 102.5t-39.5 145t-15 192.5zM174 -171l561 2049h125l-561 -2049h-125zM370 455q0 -154 36 -214.5t118 -60.5q79 0 115 60.5t36 214.5v777q0 160 -36 223.5t-115 63.5q-81 0 -117.5 -63.5t-36.5 -223.5v-777z" />
<glyph unicode="&#xd9;" horiz-adv-x="1105" d="M144 525v1183h261v-1252q0 -156 33 -216t111 -60q79 0 115 61t36 215v1252h258v-1183q0 -81 -9.5 -150.5t-25 -120.5t-39 -92t-48 -68.5t-56 -48t-59 -32t-61 -18t-58 -8.5t-53.5 -2q-38 0 -69.5 3.5t-75 16t-77.5 34.5t-69.5 63t-59.5 96t-39 139t-15 188zM216 1899 l129 167l321 -216l-105 -117z" />
<glyph unicode="&#xda;" horiz-adv-x="1105" d="M144 525v1183h261v-1252q0 -156 33 -216t111 -60q79 0 115 61t36 215v1252h258v-1183q0 -81 -9.5 -150.5t-25 -120.5t-39 -92t-48 -68.5t-56 -48t-59 -32t-61 -18t-58 -8.5t-53.5 -2q-38 0 -69.5 3.5t-75 16t-77.5 34.5t-69.5 63t-59.5 96t-39 139t-15 188zM455 1850 l321 216l129 -167l-345 -166z" />
<glyph unicode="&#xdb;" horiz-adv-x="1105" d="M144 525v1183h261v-1252q0 -156 33 -216t111 -60q79 0 115 61t36 215v1252h258v-1183q0 -81 -9.5 -150.5t-25 -120.5t-39 -92t-48 -68.5t-56 -48t-59 -32t-61 -18t-58 -8.5t-53.5 -2q-38 0 -69.5 3.5t-75 16t-77.5 34.5t-69.5 63t-59.5 96t-39 139t-15 188zM190 1756 l250 310h234l246 -310h-249l-69 130l-40 56l-40 -56l-84 -130h-248z" />
<glyph unicode="&#xdc;" horiz-adv-x="1105" d="M144 525v1183h261v-1252q0 -156 33 -216t111 -60q79 0 115 61t36 215v1252h258v-1183q0 -81 -9.5 -150.5t-25 -120.5t-39 -92t-48 -68.5t-56 -48t-59 -32t-61 -18t-58 -8.5t-53.5 -2q-38 0 -69.5 3.5t-75 16t-77.5 34.5t-69.5 63t-59.5 96t-39 139t-15 188zM201 1909 q0 82 30 119.5t107 37.5q80 0 112.5 -37t32.5 -120q0 -77 -33.5 -117.5t-111.5 -40.5q-75 0 -106 39.5t-31 118.5zM639 1909q0 82 29.5 119.5t106.5 37.5q80 0 113 -37t33 -120q0 -76 -34 -117t-112 -41q-75 0 -105.5 39.5t-30.5 118.5z" />
<glyph unicode="&#xdd;" horiz-adv-x="959" d="M5 1708h261l209 -817h12l207 817h260l-346 -1139v-569h-259v569zM375 1850l321 216l129 -167l-345 -166z" />
<glyph unicode="&#xde;" horiz-adv-x="1002" d="M146 0v1708h257v-255h11q39 0 69 -1.5t73.5 -7.5t78 -16t74.5 -29.5t70.5 -46t60.5 -67t49 -91t31 -119t12 -150.5v-61q0 -113 -18 -205t-46.5 -153.5t-71 -107t-85 -70.5t-95.5 -40t-95 -19.5t-91 -4.5h-25v-264h-259zM405 455h13q139 0 193.5 82.5t54.5 279.5v153 q0 158 -53 226.5t-195 68.5h-13v-810z" />
<glyph unicode="&#xdf;" horiz-adv-x="1036" d="M134 -443v1851q0 207 106 313.5t294 106.5q194 0 292 -96t98 -258q0 -81 -23 -157.5t-76 -182.5q-44 -73 -58.5 -112.5t-14.5 -73.5q0 -52 49 -158l92 -197q29 -78 41 -115t22.5 -86.5t10.5 -94.5q0 -63 -15.5 -118t-46.5 -100t-84 -71.5t-123 -26.5q-81 0 -156 30v176 q30 -7 65 -7q42 0 72.5 28t30.5 88q0 74 -62 213l-72 161q-33 73 -49.5 126.5t-16.5 110.5q0 53 19 101t69 132q56 93 72 156t16 140q0 86 -41 139.5t-116 53.5q-64 0 -103 -34.5t-39 -109.5v-1928h-253z" />
<glyph unicode="&#xe0;" horiz-adv-x="924" d="M68 316q0 163 78 265t244 184q72 36 170 72v182q0 37 -1.5 61t-8 51t-18.5 42t-34 25t-53 10q-61 0 -100.5 -48.5t-39.5 -158.5v-60h-193q-18 78 -18 136q0 150 98.5 233t260.5 83q199 0 276 -85.5t77 -276.5v-1031h-188l-18 118q-42 -61 -111.5 -97t-154.5 -36 q-124 0 -195 93t-71 238zM88 1846l169 137l290 -416l-125 -105zM316 355q0 -82 32 -128.5t98 -46.5q64 0 114 57v431q-70 -29 -99 -48q-62 -38 -103.5 -105t-41.5 -160z" />
<glyph unicode="&#xe1;" horiz-adv-x="924" d="M68 316q0 163 78 265t244 184q72 36 170 72v182q0 37 -1.5 61t-8 51t-18.5 42t-34 25t-53 10q-61 0 -100.5 -48.5t-39.5 -158.5v-60h-193q-18 78 -18 136q0 150 98.5 233t260.5 83q199 0 276 -85.5t77 -276.5v-1031h-188l-18 118q-42 -61 -111.5 -97t-154.5 -36 q-124 0 -195 93t-71 238zM297 1567l290 416l169 -137l-334 -384zM316 355q0 -82 32 -128.5t98 -46.5q64 0 114 57v431q-70 -29 -99 -48q-62 -38 -103.5 -105t-41.5 -160z" />
<glyph unicode="&#xe2;" horiz-adv-x="924" d="M62 1485l270 581h174l276 -581h-219l-88 212l-51 172l-50 -172l-94 -212h-218zM68 316q0 163 78 265t244 184q72 36 170 72v182q0 37 -1.5 61t-8 51t-18.5 42t-34 25t-53 10q-61 0 -100.5 -48.5t-39.5 -158.5v-60h-193q-18 78 -18 136q0 150 98.5 233t260.5 83 q199 0 276 -85.5t77 -276.5v-1031h-188l-18 118q-42 -61 -111.5 -97t-154.5 -36q-124 0 -195 93t-71 238zM316 355q0 -82 32 -128.5t98 -46.5q64 0 114 57v431q-70 -29 -99 -48q-62 -38 -103.5 -105t-41.5 -160z" />
<glyph unicode="&#xe3;" horiz-adv-x="924" d="M49 1697q0 131 61 188.5t160 57.5q56 0 97 -18.5t83 -58.5q3 -3 21.5 -21t27 -25t24 -19.5t28.5 -17.5t25 -5q50 0 50 59v87h159q11 -65 11 -106q0 -109 -60.5 -170t-147.5 -61q-59 0 -103.5 19t-88.5 59q-17 15 -39.5 36t-31.5 29t-22.5 14.5t-28.5 6.5q-43 0 -43 -64 v-72h-178q-4 60 -4 82zM68 316q0 163 78 265t244 184q72 36 170 72v182q0 37 -1.5 61t-8 51t-18.5 42t-34 25t-53 10q-61 0 -100.5 -48.5t-39.5 -158.5v-60h-193q-18 78 -18 136q0 150 98.5 233t260.5 83q199 0 276 -85.5t77 -276.5v-1031h-188l-18 118q-42 -61 -111.5 -97 t-154.5 -36q-124 0 -195 93t-71 238zM316 355q0 -82 32 -128.5t98 -46.5q64 0 114 57v431q-70 -29 -99 -48q-62 -38 -103.5 -105t-41.5 -160z" />
<glyph unicode="&#xe4;" horiz-adv-x="924" d="M63 1728q0 89 30 130t107 41q80 0 112.5 -40.5t32.5 -130.5q0 -81 -33 -121.5t-112 -40.5q-75 0 -106 39.5t-31 122.5zM68 316q0 163 78 265t244 184q72 36 170 72v182q0 37 -1.5 61t-8 51t-18.5 42t-34 25t-53 10q-61 0 -100.5 -48.5t-39.5 -158.5v-60h-193 q-18 78 -18 136q0 150 98.5 233t260.5 83q199 0 276 -85.5t77 -276.5v-1031h-188l-18 118q-42 -61 -111.5 -97t-154.5 -36q-124 0 -195 93t-71 238zM316 355q0 -82 32 -128.5t98 -46.5q64 0 114 57v431q-70 -29 -99 -48q-62 -38 -103.5 -105t-41.5 -160zM501 1728 q0 89 29.5 130t106.5 41q80 0 113 -40.5t33 -130.5q0 -81 -33.5 -121.5t-112.5 -40.5q-75 0 -105.5 39t-30.5 123z" />
<glyph unicode="&#xe5;" horiz-adv-x="924" d="M68 316q0 163 78 265t244 184q72 36 170 72v182q0 37 -1.5 61t-8 51t-18.5 42t-34 25t-53 10q-61 0 -100.5 -48.5t-39.5 -158.5v-60h-193q-18 78 -18 136q0 150 98.5 233t260.5 83q199 0 276 -85.5t77 -276.5v-1031h-188l-18 118q-42 -61 -111.5 -97t-154.5 -36 q-124 0 -195 93t-71 238zM108 1757q0 62 19 116.5t56 98t98.5 68.5t140.5 25q156 0 240 -88.5t84 -219.5q0 -57 -20.5 -110.5t-59 -97.5t-102 -71t-142.5 -27q-77 0 -138.5 25.5t-99 69t-57 97.5t-19.5 114zM282 1753q0 -57 36.5 -98t102.5 -41q75 0 116.5 42t41.5 97 q0 65 -41 107t-117 42q-68 0 -103.5 -42.5t-35.5 -106.5zM316 355q0 -82 32 -128.5t98 -46.5q64 0 114 57v431q-70 -29 -99 -48q-62 -38 -103.5 -105t-41.5 -160z" />
<glyph unicode="&#xe6;" horiz-adv-x="1349" d="M42 314q0 162 77 264t242 183q91 46 163 72v177q0 33 -0.5 51t-3.5 45t-10 42t-18.5 30.5t-30.5 22.5t-45 7q-61 0 -100.5 -48.5t-39.5 -157.5v-66h-193q-18 78 -18 136q0 149 98.5 231t260.5 82q164 0 256 -112h8q49 59 115 86t130 27q66 0 121.5 -21t103 -68 t74.5 -133.5t27 -205.5q0 -172 -34 -320h-448v-139q0 -183 30.5 -255t115.5 -72q53 0 88 44.5t35 144.5v50h205v-53q0 -191 -84.5 -282.5t-251.5 -91.5q-191 0 -279 167h-8q-51 -79 -127.5 -123t-161.5 -44q-78 0 -136.5 26.5t-93 72.5t-51 104t-16.5 127zM287 353 q0 -82 32 -129.5t98 -47.5q57 0 107 57v432q-48 -21 -92 -48q-62 -38 -103.5 -104.5t-41.5 -159.5zM777 807h247q4 39 4 146q0 135 -29 194.5t-92 60.5q-69 0 -99.5 -69.5t-30.5 -241.5v-90z" />
<glyph unicode="&#xe7;" horiz-adv-x="871" d="M94 564v260q0 109 14.5 197t37.5 146t57 101.5t67 66.5t74 37t71.5 17.5t65.5 3.5q146 0 231 -76.5t85 -226.5q0 -83 -17 -149h-202v46q0 221 -105 221q-64 0 -93.5 -67t-29.5 -239v-391q0 -183 28 -257t101 -74q43 0 71 44.5t28 145.5v43h218v-53q0 -193 -85.5 -284 t-259.5 -91q-176 0 -266.5 144.5t-90.5 434.5zM185 -384l7 151q11 -1 33 -1q75 0 112 37t42 146l2 44l93 148l69 -137l6 -103q5 -81 -10 -142t-39 -92.5t-57.5 -51t-58 -24.5t-48.5 -5q-72 0 -151 30z" />
<glyph unicode="&#xe8;" horiz-adv-x="924" d="M100 564v260q0 109 15 197t38 146t57.5 101.5t68.5 66.5t76 37t73.5 17.5t68.5 3.5q57 0 106 -12.5t94.5 -43.5t77 -79t50.5 -123t19 -172q0 -177 -33 -322h-457v-140q0 -182 31 -251.5t116 -69.5q52 0 86 44.5t34 145.5v43h211v-53q0 -192 -92 -283.5t-272 -91.5 q-182 0 -275 139t-93 440zM152 1846l169 137l290 -416l-125 -105zM354 811h254q4 39 4 141q0 134 -31.5 195t-95.5 61q-69 0 -100 -70t-31 -243v-84z" />
<glyph unicode="&#xe9;" horiz-adv-x="924" d="M100 564v260q0 109 15 197t38 146t57.5 101.5t68.5 66.5t76 37t73.5 17.5t68.5 3.5q57 0 106 -12.5t94.5 -43.5t77 -79t50.5 -123t19 -172q0 -177 -33 -322h-457v-140q0 -182 31 -251.5t116 -69.5q52 0 86 44.5t34 145.5v43h211v-53q0 -192 -92 -283.5t-272 -91.5 q-182 0 -275 139t-93 440zM354 811h254q4 39 4 141q0 134 -31.5 195t-95.5 61q-69 0 -100 -70t-31 -243v-84zM361 1567l290 416l169 -137l-334 -384z" />
<glyph unicode="&#xea;" horiz-adv-x="924" d="M100 564v260q0 109 15 197t38 146t57.5 101.5t68.5 66.5t76 37t73.5 17.5t68.5 3.5q57 0 106 -12.5t94.5 -43.5t77 -79t50.5 -123t19 -172q0 -177 -33 -322h-457v-140q0 -182 31 -251.5t116 -69.5q52 0 86 44.5t34 145.5v43h211v-53q0 -192 -92 -283.5t-272 -91.5 q-182 0 -275 139t-93 440zM126 1485l270 581h174l276 -581h-219l-88 212l-51 172l-50 -172l-94 -212h-218zM354 811h254q4 39 4 141q0 134 -31.5 195t-95.5 61q-69 0 -100 -70t-31 -243v-84z" />
<glyph unicode="&#xeb;" horiz-adv-x="924" d="M100 564v260q0 109 15 197t38 146t57.5 101.5t68.5 66.5t76 37t73.5 17.5t68.5 3.5q57 0 106 -12.5t94.5 -43.5t77 -79t50.5 -123t19 -172q0 -177 -33 -322h-457v-140q0 -182 31 -251.5t116 -69.5q52 0 86 44.5t34 145.5v43h211v-53q0 -192 -92 -283.5t-272 -91.5 q-182 0 -275 139t-93 440zM127 1728q0 89 30 130t107 41q80 0 112.5 -40.5t32.5 -130.5q0 -81 -33 -121.5t-112 -40.5q-75 0 -106 39.5t-31 122.5zM354 811h254q4 39 4 141q0 134 -31.5 195t-95.5 61q-69 0 -100 -70t-31 -243v-84zM565 1728q0 89 29.5 130t106.5 41 q80 0 113 -40.5t33 -130.5q0 -81 -33.5 -121.5t-112.5 -40.5q-75 0 -105.5 39t-30.5 123z" />
<glyph unicode="&#xec;" horiz-adv-x="521" d="M-73 1846l169 137l290 -416l-125 -105zM134 0v1377h253v-1377h-253z" />
<glyph unicode="&#xed;" horiz-adv-x="521" d="M134 0v1377h253v-1377h-253zM136 1567l290 416l169 -137l-334 -384z" />
<glyph unicode="&#xee;" horiz-adv-x="521" d="M-99 1485l270 581h174l276 -581h-219l-88 212l-51 172l-50 -172l-94 -212h-218zM134 0v1377h253v-1377h-253z" />
<glyph unicode="&#xef;" horiz-adv-x="521" d="M-98 1728q0 89 30 130t107 41q80 0 112.5 -40.5t32.5 -130.5q0 -81 -33 -121.5t-112 -40.5q-75 0 -106 39.5t-31 122.5zM134 0v1377h253v-1377h-253zM340 1728q0 89 29.5 130t106.5 41q80 0 113 -40.5t33 -130.5q0 -81 -33.5 -121.5t-112.5 -40.5q-75 0 -105.5 39 t-30.5 123z" />
<glyph unicode="&#xf0;" horiz-adv-x="970" d="M94 597v198q0 113 14.5 204.5t36.5 151t55 103.5t63.5 67t68 36.5t62.5 16.5t53 3q98 0 116 -10q-37 142 -137 265l-103 -123l-127 106l103 128q-85 49 -179 50v166q157 0 291 -77l111 138l132 -116l-107 -127q157 -157 241.5 -420t84.5 -568v-192q0 -114 -13.5 -206.5 t-34.5 -155.5t-53 -109.5t-64.5 -73t-73 -42t-73.5 -20.5t-72 -5q-43 0 -77.5 4.5t-77 19.5t-75 41t-65 72t-53.5 109t-34 156.5t-13 209.5zM368 520q0 -196 24 -268t99 -72q72 0 94 71.5t22 268.5v638q-28 50 -116 50q-45 0 -70 -23.5t-39 -95.5t-14 -208v-361z" />
<glyph unicode="&#xf1;" horiz-adv-x="1021" d="M131 0v1377h195l23 -147v-1q103 164 288 164q121 0 186.5 -86t65.5 -252v-1055h-253v1046q0 88 -27 125t-83 37q-38 0 -75.5 -25t-66.5 -69v-1114h-253zM163 1697q0 131 61 188.5t160 57.5q56 0 97 -18.5t83 -58.5q3 -3 21.5 -21t27 -25t24 -19.5t28.5 -17.5t25 -5 q50 0 50 59v87h159q11 -65 11 -106q0 -109 -60.5 -170t-147.5 -61q-59 0 -103.5 19t-88.5 59q-17 15 -39.5 36t-31.5 29t-22.5 14.5t-28.5 6.5q-43 0 -43 -64v-72h-178q-4 60 -4 82z" />
<glyph unicode="&#xf2;" horiz-adv-x="958" d="M98 591v216q0 111 12.5 200.5t33 150t52 104.5t63 69t73 39.5t75 18.5t75.5 4q41 0 73.5 -4t73.5 -18t71.5 -38t62 -68t52 -104.5t33 -150.5t12.5 -203v-216q0 -111 -13 -201.5t-34 -152.5t-52.5 -108.5t-63.5 -73.5t-71.5 -43.5t-73 -21.5t-71.5 -5q-61 0 -108.5 10 t-101.5 47t-89.5 100t-59.5 177.5t-24 271.5zM144 1846l169 137l290 -416l-125 -105zM352 523q0 -192 29.5 -267.5t101.5 -75.5q69 0 96 75t27 268v339q0 193 -27.5 269.5t-95.5 76.5q-72 0 -101.5 -77t-29.5 -269v-339z" />
<glyph unicode="&#xf3;" horiz-adv-x="958" d="M98 591v216q0 111 12.5 200.5t33 150t52 104.5t63 69t73 39.5t75 18.5t75.5 4q41 0 73.5 -4t73.5 -18t71.5 -38t62 -68t52 -104.5t33 -150.5t12.5 -203v-216q0 -111 -13 -201.5t-34 -152.5t-52.5 -108.5t-63.5 -73.5t-71.5 -43.5t-73 -21.5t-71.5 -5q-61 0 -108.5 10 t-101.5 47t-89.5 100t-59.5 177.5t-24 271.5zM352 523q0 -192 29.5 -267.5t101.5 -75.5q69 0 96 75t27 268v339q0 193 -27.5 269.5t-95.5 76.5q-72 0 -101.5 -77t-29.5 -269v-339zM353 1567l290 416l169 -137l-334 -384z" />
<glyph unicode="&#xf4;" horiz-adv-x="958" d="M98 591v216q0 111 12.5 200.5t33 150t52 104.5t63 69t73 39.5t75 18.5t75.5 4q41 0 73.5 -4t73.5 -18t71.5 -38t62 -68t52 -104.5t33 -150.5t12.5 -203v-216q0 -111 -13 -201.5t-34 -152.5t-52.5 -108.5t-63.5 -73.5t-71.5 -43.5t-73 -21.5t-71.5 -5q-61 0 -108.5 10 t-101.5 47t-89.5 100t-59.5 177.5t-24 271.5zM118 1485l270 581h174l276 -581h-219l-88 212l-51 172l-50 -172l-94 -212h-218zM352 523q0 -192 29.5 -267.5t101.5 -75.5q69 0 96 75t27 268v339q0 193 -27.5 269.5t-95.5 76.5q-72 0 -101.5 -77t-29.5 -269v-339z" />
<glyph unicode="&#xf5;" horiz-adv-x="958" d="M98 591v216q0 111 12.5 200.5t33 150t52 104.5t63 69t73 39.5t75 18.5t75.5 4q41 0 73.5 -4t73.5 -18t71.5 -38t62 -68t52 -104.5t33 -150.5t12.5 -203v-216q0 -111 -13 -201.5t-34 -152.5t-52.5 -108.5t-63.5 -73.5t-71.5 -43.5t-73 -21.5t-71.5 -5q-61 0 -108.5 10 t-101.5 47t-89.5 100t-59.5 177.5t-24 271.5zM105 1697q0 131 61 188.5t160 57.5q56 0 97 -18.5t83 -58.5q3 -3 21.5 -21t27 -25t24 -19.5t28.5 -17.5t25 -5q50 0 50 59v87h159q11 -65 11 -106q0 -109 -60.5 -170t-147.5 -61q-59 0 -103.5 19t-88.5 59q-17 15 -39.5 36 t-31.5 29t-22.5 14.5t-28.5 6.5q-43 0 -43 -64v-72h-178q-4 60 -4 82zM352 523q0 -192 29.5 -267.5t101.5 -75.5q69 0 96 75t27 268v339q0 193 -27.5 269.5t-95.5 76.5q-72 0 -101.5 -77t-29.5 -269v-339z" />
<glyph unicode="&#xf6;" horiz-adv-x="958" d="M98 591v216q0 111 12.5 200.5t33 150t52 104.5t63 69t73 39.5t75 18.5t75.5 4q41 0 73.5 -4t73.5 -18t71.5 -38t62 -68t52 -104.5t33 -150.5t12.5 -203v-216q0 -111 -13 -201.5t-34 -152.5t-52.5 -108.5t-63.5 -73.5t-71.5 -43.5t-73 -21.5t-71.5 -5q-61 0 -108.5 10 t-101.5 47t-89.5 100t-59.5 177.5t-24 271.5zM119 1728q0 89 30 130t107 41q80 0 112.5 -40.5t32.5 -130.5q0 -81 -33 -121.5t-112 -40.5q-75 0 -106 39.5t-31 122.5zM352 523q0 -192 29.5 -267.5t101.5 -75.5q69 0 96 75t27 268v339q0 193 -27.5 269.5t-95.5 76.5 q-72 0 -101.5 -77t-29.5 -269v-339zM557 1728q0 89 29.5 130t106.5 41q80 0 113 -40.5t33 -130.5q0 -81 -33.5 -121.5t-112.5 -40.5q-75 0 -105.5 39t-30.5 123z" />
<glyph unicode="&#xf7;" horiz-adv-x="835" d="M45 691v196h745v-196h-745zM282 377q0 158 136 158q128 0 128 -158q0 -76 -33.5 -119t-95.5 -43q-61 0 -98 43t-37 119zM283 1205q0 158 136 158q128 0 128 -158q0 -76 -33.5 -119t-95.5 -43q-61 0 -98 43t-37 119z" />
<glyph unicode="&#xf8;" horiz-adv-x="958" d="M94 591v216q0 111 12.5 200.5t33 150t52 104.5t63 69t73 39.5t75 18.5t75.5 4q41 0 73.5 -4t73.5 -18t71.5 -38t62 -68t52 -104.5t33 -150.5t12.5 -203v-216q0 -111 -13 -201.5t-34 -152.5t-52.5 -108.5t-63.5 -73.5t-71.5 -43.5t-73 -21.5t-71.5 -5q-61 0 -108.5 10 t-101.5 47t-89.5 100t-59.5 177.5t-24 271.5zM100 -171l640 1712h117l-640 -1712h-117zM348 523q0 -192 29.5 -267.5t101.5 -75.5q69 0 96 75t27 268v339q0 193 -27.5 269.5t-95.5 76.5q-72 0 -101.5 -77t-29.5 -269v-339z" />
<glyph unicode="&#xf9;" horiz-adv-x="1021" d="M132 322v1055h253v-1035q0 -88 27 -125t83 -37q80 0 139 81v1116h253v-1377h-193l-25 147h-1q-103 -163 -284 -163q-121 0 -186.5 85.5t-65.5 252.5zM187 1846l169 137l290 -416l-125 -105z" />
<glyph unicode="&#xfa;" horiz-adv-x="1021" d="M132 322v1055h253v-1035q0 -88 27 -125t83 -37q80 0 139 81v1116h253v-1377h-193l-25 147h-1q-103 -163 -284 -163q-121 0 -186.5 85.5t-65.5 252.5zM396 1567l290 416l169 -137l-334 -384z" />
<glyph unicode="&#xfb;" horiz-adv-x="1021" d="M132 322v1055h253v-1035q0 -88 27 -125t83 -37q80 0 139 81v1116h253v-1377h-193l-25 147h-1q-103 -163 -284 -163q-121 0 -186.5 85.5t-65.5 252.5zM161 1485l270 581h174l276 -581h-219l-88 212l-51 172l-50 -172l-94 -212h-218z" />
<glyph unicode="&#xfc;" horiz-adv-x="1021" d="M132 322v1055h253v-1035q0 -88 27 -125t83 -37q80 0 139 81v1116h253v-1377h-193l-25 147h-1q-103 -163 -284 -163q-121 0 -186.5 85.5t-65.5 252.5zM162 1728q0 89 30 130t107 41q80 0 112.5 -40.5t32.5 -130.5q0 -81 -33 -121.5t-112 -40.5q-75 0 -106 39.5t-31 122.5z M600 1728q0 89 29.5 130t106.5 41q80 0 113 -40.5t33 -130.5q0 -81 -33.5 -121.5t-112.5 -40.5q-75 0 -105.5 39t-30.5 123z" />
<glyph unicode="&#xfd;" horiz-adv-x="898" d="M25 1377h257l145 -762l42 -263h8l29 263l117 762h249l-290 -1428q-39 -204 -123.5 -299t-241.5 -95q-65 0 -133 25l1 155q118 -17 189 48.5t77 208.5zM338 1567l290 416l169 -137l-334 -384z" />
<glyph unicode="&#xfe;" horiz-adv-x="989" d="M130 -443v2253h253v-365l-8 -181l1 -1q89 122 229 122q23 0 43 -2.5t50.5 -13.5t55 -30.5t51 -56.5t44.5 -87t30 -127.5t12 -173.5v-415q0 -495 -296 -495q-71 0 -131 33.5t-95 77.5l14 -154v-384h-253zM383 279q43 -99 126 -99q62 0 94.5 53.5t32.5 196.5v518 q0 143 -32 196t-94 53q-80 0 -127 -82v-836z" />
<glyph unicode="&#xff;" horiz-adv-x="898" d="M25 1377h257l145 -762l42 -263h8l29 263l117 762h249l-290 -1428q-39 -204 -123.5 -299t-241.5 -95q-65 0 -133 25l1 155q118 -17 189 48.5t77 208.5zM104 1728q0 89 30 130t107 41q80 0 112.5 -40.5t32.5 -130.5q0 -81 -33 -121.5t-112 -40.5q-75 0 -106 39.5t-31 122.5 zM542 1728q0 89 29.5 130t106.5 41q80 0 113 -40.5t33 -130.5q0 -81 -33.5 -121.5t-112.5 -40.5q-75 0 -105.5 39t-30.5 123z" />
<glyph unicode="&#x152;" horiz-adv-x="1370" d="M103 631v446q0 98 12.5 180t32.5 142.5t51.5 108.5t63.5 80t74.5 55t78.5 35.5t81 19.5t76 8.5t71 1.5h654v-205h-394v-508h307v-224h-307v-566h394v-205h-654q-40 0 -71 1.5t-76.5 8.5t-81 19.5t-78 35.5t-74.5 54.5t-63.5 80t-51.5 108.5t-32.5 142.5t-12.5 180.5z M371 582q0 -211 60 -303t200 -92h16v1334h-16q-144 0 -202 -94.5t-58 -303.5v-541z" />
<glyph unicode="&#x153;" horiz-adv-x="1428" d="M98 588v215q0 111 12.5 199.5t33 148.5t51.5 104.5t62.5 69t72.5 39t74.5 18.5t75.5 4q166 0 253 -113h8q100 113 261 113q336 0 336 -428q0 -176 -33 -320h-449v-139q0 -183 31 -255t116 -72q53 0 88 44.5t35 144.5v50h205v-53q0 -194 -84.5 -283.5t-266.5 -89.5 q-73 0 -137.5 30.5t-109.5 82.5h-8q-91 -113 -246 -113q-42 0 -77 5t-75.5 20.5t-72 41.5t-62 72t-50.5 108t-32 152.5t-12 203.5zM352 513q0 -191 28.5 -266t100.5 -75q68 0 94.5 74.5t26.5 266.5v351q0 193 -26.5 268.5t-94.5 75.5q-71 0 -100 -76.5t-29 -267.5v-351z M856 807h248q4 39 4 146q0 135 -29 194.5t-92 60.5q-69 0 -100 -69.5t-31 -241.5v-90z" />
<glyph unicode="&#x178;" horiz-adv-x="959" d="M5 1708h261l209 -817h12l207 817h260l-346 -1139v-569h-259v569zM121 1909q0 82 30 119.5t107 37.5q80 0 112.5 -37t32.5 -120q0 -77 -33.5 -117.5t-111.5 -40.5q-75 0 -106 39.5t-31 118.5zM559 1909q0 82 29.5 119.5t106.5 37.5q80 0 113 -37t33 -120q0 -76 -34 -117 t-112 -41q-75 0 -105.5 39.5t-30.5 118.5z" />
<glyph unicode="&#x2c6;" horiz-adv-x="948" d="M114 1485l270 581h174l276 -581h-219l-88 212l-51 172l-50 -172l-94 -212h-218z" />
<glyph unicode="&#x2dc;" horiz-adv-x="975" d="M114 1646q0 131 61 188.5t160 57.5q56 0 97 -18.5t83 -58.5q3 -3 21.5 -21t27 -25t24 -19.5t28.5 -17.5t25 -5q50 0 50 59v87h159q11 -65 11 -106q0 -109 -60.5 -170t-147.5 -61q-59 0 -103.5 19t-88.5 59q-17 15 -39.5 36t-31.5 29t-22.5 14.5t-28.5 6.5q-43 0 -43 -64 v-72h-178q-4 60 -4 82z" />
<glyph unicode="&#x2000;" horiz-adv-x="1033" />
<glyph unicode="&#x2001;" horiz-adv-x="2066" />
<glyph unicode="&#x2002;" horiz-adv-x="1033" />
<glyph unicode="&#x2003;" horiz-adv-x="2066" />
<glyph unicode="&#x2004;" horiz-adv-x="688" />
<glyph unicode="&#x2005;" horiz-adv-x="516" />
<glyph unicode="&#x2006;" horiz-adv-x="344" />
<glyph unicode="&#x2007;" horiz-adv-x="344" />
<glyph unicode="&#x2008;" horiz-adv-x="258" />
<glyph unicode="&#x2009;" horiz-adv-x="413" />
<glyph unicode="&#x200a;" horiz-adv-x="114" />
<glyph unicode="&#x2010;" horiz-adv-x="997" d="M126 685v203h745v-203h-745z" />
<glyph unicode="&#x2011;" horiz-adv-x="997" d="M126 685v203h745v-203h-745z" />
<glyph unicode="&#x2012;" horiz-adv-x="997" d="M126 685v203h745v-203h-745z" />
<glyph unicode="&#x2013;" horiz-adv-x="1381" d="M126 685v203h1128v-203h-1128z" />
<glyph unicode="&#x2014;" horiz-adv-x="1647" d="M126 685v203h1395v-203h-1395z" />
<glyph unicode="&#x2018;" horiz-adv-x="620" d="M162 1180v224l150 472h197l-79 -397v-299h-268z" />
<glyph unicode="&#x2019;" horiz-adv-x="620" d="M101 1180l79 397v299h268v-224l-150 -472h-197z" />
<glyph unicode="&#x201a;" horiz-adv-x="620" d="M101 -458l79 397v299h268v-224l-150 -472h-197z" />
<glyph unicode="&#x201c;" horiz-adv-x="1092" d="M162 1180v224l150 472h197l-79 -397v-299h-268zM634 1180v224l150 472h197l-79 -397v-299h-268z" />
<glyph unicode="&#x201d;" horiz-adv-x="1088" d="M101 1182l79 397v299h268v-224l-150 -472h-197zM569 1182l79 397v299h268v-224l-150 -472h-197z" />
<glyph unicode="&#x201e;" horiz-adv-x="1092" d="M101 -458l79 397v299h268v-224l-150 -472h-197zM573 -458l79 397v299h268v-224l-150 -472h-197z" />
<glyph unicode="&#x2022;" horiz-adv-x="711" d="M134 764q0 103 55 173.5t161 70.5q109 0 168 -70.5t59 -173.5q0 -92 -60 -162t-167 -70q-103 0 -159.5 68t-56.5 164z" />
<glyph unicode="&#x2026;" horiz-adv-x="1483" d="M91 179q0 198 156 198q75 0 116 -50t41 -148q0 -91 -42 -142t-116 -51q-72 0 -113.5 50t-41.5 143zM581 179q0 198 156 198q75 0 116 -50t41 -148q0 -91 -42 -142t-116 -51q-72 0 -113.5 50t-41.5 143zM1072 179q0 198 156 198q75 0 116 -50t41 -148q0 -91 -42 -142 t-116 -51q-72 0 -113.5 50t-41.5 143z" />
<glyph unicode="&#x202f;" horiz-adv-x="413" />
<glyph unicode="&#x2039;" horiz-adv-x="834" d="M144 717v150l389 406l137 -124l-283 -359l279 -360l-137 -125z" />
<glyph unicode="&#x203a;" horiz-adv-x="834" d="M154 1149l137 124l389 -406v-150l-385 -412l-137 125l279 360z" />
<glyph unicode="&#x205f;" horiz-adv-x="516" />
<glyph unicode="&#x20ac;" horiz-adv-x="1038" d="M4 546v180h154v151h-154v179h154v105q0 107 16 193t41 143.5t62.5 100.5t74.5 66.5t83 37t81 17.5t76 4q190 0 276 -92t86 -245q0 -34 -3 -64t-5 -43t-9.5 -45t-9.5 -40h-200v65q0 136 -35.5 198.5t-106.5 62.5q-80 0 -121 -65t-41 -222v-177h322l-29 -179h-293v-151h267 l-32 -180h-235v-90q0 -153 43.5 -214t136.5 -61q71 0 113.5 46.5t42.5 138.5v73h218v-61q0 -391 -374 -393q-42 0 -79.5 4.5t-84 19t-84 38.5t-75.5 67t-63.5 100t-41.5 142t-17 190h-154z" />
<glyph unicode="&#x2122;" horiz-adv-x="1597" d="M40 1566l1 159h533v-159h-178v-693h-178v693h-178zM686 873v852h227l126 -363l34 -113h16l35 113l137 363h204v-852h-177v86q0 109 2.5 199t4.5 126t7.5 103.5t6.5 76.5h-6l-166 -467h-113l-175 467h-7q1 -9 6.5 -76.5t7.5 -103.5t4.5 -126t2.5 -199v-86h-177z" />
<glyph unicode="&#x25fc;" horiz-adv-x="1375" d="M0 0v1375h1375v-1375h-1375z" />
</font>
</defs>
</svg>
