<?xml version="1.0" standalone="no"?>
<!DOCTYPE svg PUBLIC "-//W3C//DTD SVG 1.1//EN" "http://www.w3.org/Graphics/SVG/1.1/DTD/svg11.dtd" >
<svg xmlns="http://www.w3.org/2000/svg">
<metadata></metadata>
<defs>
<font id="orbitronblack" horiz-adv-x="1695" >
<font-face units-per-em="2048" ascent="1536" descent="-512" />
<missing-glyph horiz-adv-x="659" />
<glyph horiz-adv-x="0" />
<glyph unicode="&#xd;" horiz-adv-x="681" />
<glyph unicode=" "  horiz-adv-x="659" />
<glyph unicode="&#x09;" horiz-adv-x="659" />
<glyph unicode="&#xa0;" horiz-adv-x="659" />
<glyph unicode="!" horiz-adv-x="450" d="M119 0v313h313v-313h-313zM119 412v1063h313v-1063h-313z" />
<glyph unicode="&#x22;" horiz-adv-x="811" d="M74 1034v412h311v-412h-311zM444 1034v412h312v-412h-312z" />
<glyph unicode="#" horiz-adv-x="1632" d="M66 324v313h247l70 217h-260v313h360q27 74 99 308h323l-104 -308h282l99 308h321l-104 -308h137v-313h-236l-69 -217h248v-313h-351q-14 -49 -44.5 -162t-47.5 -162h-317l98 324h-287q-16 -55 -47.5 -170t-42.5 -154h-317l96 324h-153zM633 637h278l70 217h-279z" />
<glyph unicode="$" horiz-adv-x="1613" d="M70 297v135h313v-119h252v260h-268q-123 0 -210 87.5t-87 209.5v308q0 123 87 210t210 87h268v200h315v-200h269q123 0 210 -87t87 -210v-136h-314v119h-252v-274h269q123 0 210 -88t87 -211v-291q0 -121 -87.5 -209t-209.5 -88h-269v-201h-315v201h-268q-123 0 -210 88 t-87 209zM383 887h252v274h-252v-274zM950 313h252v260h-252v-260z" />
<glyph unicode="%" horiz-adv-x="1978" d="M98 1034v148q0 123 78 199.5t201 76.5h166q123 0 200.5 -76.5t77.5 -199.5v-148q0 -123 -77.5 -200.5t-200.5 -77.5h-166q-123 0 -201 77.5t-78 200.5zM274 0v322l1344 1151h104v-320l-1343 -1153h-105zM354 1014h209v188h-209v-188zM1141 297v147q0 123 77.5 200 t198.5 77h166q123 0 201 -77t78 -200v-147q0 -123 -78 -201t-201 -78h-166q-121 0 -198.5 78t-77.5 201zM1397 274h209v191h-209v-191z" />
<glyph unicode="&#x26;" horiz-adv-x="1921" d="M109 297v379q0 45 22.5 94t65.5 78q-14 35 -15 108v220q0 123 88 210t209 87h723q109 0 194 -70t103 -174v-180h-313v108h-690v-221l745 -375v195h313v-330l236 -139v-324l-287 164q-92 -127 -246 -127h-851q-123 0 -210 88t-87 209zM422 313h676q-31 16 -102.5 51.5 t-110.5 55.5l-463 233v-340z" />
<glyph unicode="'" horiz-adv-x="514" d="M121 1032v414h313v-414h-313z" />
<glyph unicode="(" horiz-adv-x="602" d="M106 297v881q0 123 87.5 210t209.5 87h136v-314h-119v-848h119v-313h-136q-123 0 -210 88t-87 209z" />
<glyph unicode=")" horiz-adv-x="608" d="M115 0v313h118v848h-118v314h137q121 0 209 -87.5t88 -209.5v-881q0 -121 -88 -209t-209 -88h-137z" />
<glyph unicode="*" horiz-adv-x="1056" d="M51 981l96 303l224 -76v238h315v-238q20 6 225 76l97 -303l-226 -72l142 -190l-252 -184l-146 190l-135 -190l-256 184l141 190z" />
<glyph unicode="+" horiz-adv-x="931" d="M35 449v313h266v268h313v-268h275v-313h-275v-273h-313v273h-266z" />
<glyph unicode="," horiz-adv-x="497" d="M111 -272v563h313v-258q0 -111 -89 -197t-224 -108z" />
<glyph unicode="-" horiz-adv-x="1058" d="M121 449v313h854v-313h-854z" />
<glyph unicode="." horiz-adv-x="477" d="M111 0v313h313v-313h-313z" />
<glyph unicode="/" horiz-adv-x="1067" d="M12 0v317l944 1158h113v-316l-944 -1159h-113z" />
<glyph unicode="0" horiz-adv-x="1708" d="M117 317v852q0 123 88 214.5t211 91.5h850q123 0 211 -91.5t88 -214.5v-852q0 -123 -89.5 -220t-209.5 -97h-850q-121 0 -210 97.5t-89 219.5zM430 604l653 549h-653v-549zM598 334h653v549z" />
<glyph unicode="1" horiz-adv-x="800" d="M2 913l471 562h326v-1475h-314v997l-4 -4h2l-65 -80h-416z" />
<glyph unicode="2" horiz-adv-x="1699" d="M117 0v571q0 123 88 210t211 87h835v293h-821v-119h-313v136q0 123 88 210t211 87h850q123 0 211 -87.5t88 -209.5v-326q0 -123 -88 -211t-211 -88h-836v-240h1135v-313h-1448z" />
<glyph unicode="3" horiz-adv-x="1691" d="M109 297v115h313v-99h821v273h-893v313h838v262h-766v-114h-313v131q0 123 88 210t211 87h796q123 0 210 -87t87 -210v-295q0 -51 -12 -95q68 -82 67 -186v-305q0 -121 -87 -209t-209 -88h-852q-123 0 -211 88t-88 209z" />
<glyph unicode="4" horiz-adv-x="1495" d="M12 367v280l916 828h280v-793h197v-315h-197v-367h-313v367h-883zM522 682h373v303z" />
<glyph unicode="5" horiz-adv-x="1699" d="M117 297v115h313v-99h821v277h-1134v885h1448v-314h-1135v-256h836q123 0 211 -87t88 -210v-311q0 -121 -88 -209t-211 -88h-850q-123 0 -211 88t-88 209z" />
<glyph unicode="6" horiz-adv-x="1679" d="M117 297v881q0 123 88 210t211 87h925v-314h-911v-256h836q123 0 211 -87t88 -210v-311q0 -121 -88 -209t-211 -88h-850q-123 0 -211 88t-88 209zM430 313h821v277h-821v-277z" />
<glyph unicode="7" horiz-adv-x="1351" d="M6 1163v314h928q123 0 210 -87t87 -210v-1180h-313v1163h-912z" />
<glyph unicode="8" horiz-adv-x="1708" d="M117 297v311q0 66 35 140q-35 74 -35 141v289q0 123 88 210t211 87h850q111 0 196 -70t103 -174v-342q0 -76 -35 -141q35 -63 35 -140v-311q0 -121 -88 -209t-211 -88h-850q-123 0 -211 88t-88 209zM430 313h821v277h-821v-277zM430 885h821v274h-821v-274z" />
<glyph unicode="9" d="M104 313h1141v262h-835q-123 0 -211 88.5t-88 210.5v304q0 123 88 210t211 87h852q123 0 210 -87.5t87 -209.5v-881q0 -121 -87 -209t-210 -88h-852q-109 0 -196 90t-110 223zM426 891h819v270h-819v-270z" />
<glyph unicode=":" horiz-adv-x="505" d="M111 0v313h313v-313h-313zM111 872v316h313v-316h-313z" />
<glyph unicode=";" horiz-adv-x="544" d="M104 872v316h316v-316h-316zM106 -272v563h314v-258q0 -111 -89 -197t-225 -108z" />
<glyph unicode="&#x3c;" horiz-adv-x="968" d="M10 473v262l875 508v-360l-479 -277l479 -278v-363z" />
<glyph unicode="=" horiz-adv-x="1306" d="M121 264v314h1077v-314h-1077zM121 678v313h1077v-313h-1077z" />
<glyph unicode="&#x3e;" horiz-adv-x="972" d="M121 -39v365l477 276l-262 148q-31 16 -105.5 62t-109.5 65v362l876 -506v-264z" />
<glyph unicode="?" horiz-adv-x="1388" d="M63 1161v314h975q125 0 212 -87.5t87 -209.5v-340q0 -123 -87 -211t-212 -88h-460v-142h-316v160q0 123 87 210t210 87h465v307h-961zM262 0v313h316v-313h-316z" />
<glyph unicode="@" horiz-adv-x="1701" d="M117 297v881q0 123 88 210t211 87h850q123 0 211 -87.5t88 -209.5v-736h-787q-123 0 -190.5 66.5t-67.5 189.5v109q0 123 67.5 189.5t190.5 66.5h127q123 0 189.5 -66.5t66.5 -189.5v-129h90v483h-821v-848h1135v-313h-1149q-123 0 -211 88t-88 209zM737 678h207v168 h-207v-168z" />
<glyph unicode="A" horiz-adv-x="1712" d="M119 0v1171q0 127 88 215.5t215 88.5h866q127 0 216 -89.5t89 -214.5v-1171h-321v475h-836v-475h-317zM436 795h836v360h-836v-360z" />
<glyph unicode="B" horiz-adv-x="1703" d="M121 0v1475h1114q125 0 214 -89.5t89 -214.5v-276q0 -57 -14 -94q72 -90 71 -193v-305q0 -125 -89 -214t-216 -89h-1169zM438 319h836v271h-836v-271zM438 909h779v246h-779v-246z" />
<glyph unicode="C" horiz-adv-x="1683" d="M115 303v868q0 127 88 215.5t215 88.5h1167v-320h-1153v-836h1153v-319h-1167q-127 0 -215 88t-88 215z" />
<glyph unicode="D" horiz-adv-x="1708" d="M119 0v1475h1169q127 0 216 -89.5t89 -214.5v-868q0 -125 -89 -214t-216 -89h-1169zM436 319h836v836h-836v-836z" />
<glyph unicode="E" horiz-adv-x="1568" d="M119 0v1475h1362v-320h-1041v-258h838v-319h-838v-259h1041v-319h-1362z" />
<glyph unicode="F" horiz-adv-x="1480" d="M119 0v1475h1362v-320h-1041v-258h838v-319h-838v-578h-321z" />
<glyph unicode="G" horiz-adv-x="1699" d="M115 303v868q0 127 88 215.5t215 88.5h866q127 0 216 -89.5t89 -214.5v-139h-321v123h-836v-836h836v222h-320v319h641v-557q0 -125 -89 -214t-216 -89h-866q-127 0 -215 88t-88 215z" />
<glyph unicode="H" horiz-adv-x="1742" d="M117 0v1475h317v-578h871v578h317v-1475h-317v578h-871v-578h-317z" />
<glyph unicode="I" horiz-adv-x="450" d="M117 0v1475h319v-1475h-319z" />
<glyph unicode="J" horiz-adv-x="1597" d="M8 303v191h318v-175h835v1156h322v-1172q0 -125 -89 -214t-214 -89h-869q-127 0 -215 88t-88 215z" />
<glyph unicode="K" horiz-adv-x="1632" d="M117 0v1475h319v-578h289l184 219l299 359h332v-111l-526 -627l526 -626v-111h-332l-483 578h-289v-578h-319z" />
<glyph unicode="L" horiz-adv-x="1595" d="M117 0v1477h317v-1158h1157v-319h-1474z" />
<glyph unicode="M" horiz-adv-x="1900" d="M115 0v1475h327l500 -596l498 596h329v-1475h-319v989l-508 -606l-510 604v-987h-317z" />
<glyph unicode="N" horiz-adv-x="1703" d="M115 0v1475h327l826 -983v983h321v-1475h-327l-830 987v-987h-317z" />
<glyph unicode="O" d="M111 303v868q0 127 88 215.5t215 88.5h868q125 0 214 -89.5t89 -214.5v-868q0 -125 -89 -214t-214 -89h-868q-127 0 -215 88t-88 215zM428 319h836v836h-836v-836z" />
<glyph unicode="P" horiz-adv-x="1619" d="M115 0v1473h1169q125 0 215 -89.5t90 -214.5v-381q0 -125 -90 -214t-215 -89l-852 -2q6 0 6 -12q-4 0 -6 2v-473h-317zM432 805h836v350h-836v-350z" />
<glyph unicode="Q" horiz-adv-x="1810" d="M111 303v868q0 127 88 215.5t215 88.5h866q127 0 216 -89.5t89 -214.5v-852h168v-319h-1339q-127 0 -215 88t-88 215zM428 319h836v836h-836v-836z" />
<glyph unicode="R" horiz-adv-x="1689" d="M113 0v1473h1169q125 0 215 -89.5t90 -214.5v-381q0 -125 -90 -214t-215 -89h-14l319 -376v-109h-327l-408 485l-422 -2q6 0 6 -12q-4 0 -6 2v-473h-317zM430 805h836v350h-836v-350z" />
<glyph unicode="S" horiz-adv-x="1683" d="M104 303v137h318v-121h835v259h-849q-125 0 -214.5 88t-89.5 215v290q0 127 89.5 215.5t214.5 88.5h868q125 0 214 -89.5t89 -214.5v-137h-322v121h-835v-258h854q125 0 214 -89t89 -214v-291q0 -125 -89 -214t-214 -89h-868q-125 0 -214.5 88t-89.5 215z" />
<glyph unicode="T" horiz-adv-x="1554" d="M41 1155v320h1475v-320h-578v-1155h-320v1155h-577z" />
<glyph unicode="U" d="M111 303v1172h317v-1156h836v1156h321v-1172q0 -125 -89 -214t-214 -89h-868q-127 0 -215 88t-88 215z" />
<glyph unicode="V" horiz-adv-x="2054" d="M72 1475h368l619 -1072l618 1072h367l-854 -1475h-264z" />
<glyph unicode="W" horiz-adv-x="2414" d="M72 1475h338l321 -879l51 137l271 742h293l323 -879l51 137l271 742h336l-537 -1475h-244l-348 948l-131 -360l-215 -588h-244z" />
<glyph unicode="X" horiz-adv-x="1662" d="M94 0v109l527 628l-527 629v109h330l410 -486q59 76 204.5 247t200.5 239h330v-109l-529 -629l529 -626v-111h-330l-410 483l-405 -483h-330z" />
<glyph unicode="Y" horiz-adv-x="1650" d="M35 1475h379l463 -582l460 582h383l-684 -926v-549h-319v551l-268 360z" />
<glyph unicode="Z" horiz-adv-x="1681" d="M104 0v326l988 829h-988v320h1475v-326l-987 -830h987v-319h-1475z" />
<glyph unicode="[" horiz-adv-x="563" d="M111 0v1475h432v-314h-119v-848h119v-313h-432z" />
<glyph unicode="\" horiz-adv-x="1064" d="M10 1159v316h113l944 -1160v-315h-113z" />
<glyph unicode="]" horiz-adv-x="565" d="M104 0v313h117v848h-117v314h433v-1475h-433z" />
<glyph unicode="_" d="M111 -4h1448v-313h-1448v313z" />
<glyph unicode="`" horiz-adv-x="557" d="M66 1946h321l105 -416h-322z" />
<glyph unicode="a" horiz-adv-x="1421" d="M106 297v455h891v122h-891v314h908q123 0 210 -88t87 -209v-891h-908q-123 0 -210 88t-87 209zM420 313h577v164h-577v-164z" />
<glyph unicode="b" horiz-adv-x="1366" d="M111 0v1577h313v-389h594q123 0 210 -88t87 -209v-594q0 -121 -87 -209t-210 -88h-907zM424 313h577v561h-577v-561z" />
<glyph unicode="c" horiz-adv-x="1423" d="M104 297v594q0 121 88.5 209t208.5 88h906v-314h-889v-561h891v-313h-908q-121 0 -209 88t-88 209z" />
<glyph unicode="d" horiz-adv-x="1366" d="M47 297v594q0 121 87 209t210 88h596v389h313v-1577h-909q-123 0 -210 88t-87 209zM362 313h578v561h-578v-561z" />
<glyph unicode="e" horiz-adv-x="1417" d="M104 297v594q0 121 88.5 209t208.5 88h611q123 0 210 -88t87 -209v-455h-891v-123h891v-313h-908q-121 0 -209 88t-88 209zM418 711h577v163h-577v-163z" />
<glyph unicode="f" horiz-adv-x="901" d="M109 0v1280q0 121 87 209t212 88h454v-315h-440v-74h440v-314h-440v-874h-313z" />
<glyph unicode="g" horiz-adv-x="1398" d="M84 297v594q0 121 88 209t211 88h610q123 0 210 -88t87 -209v-1063q0 -123 -87 -210t-210 -87h-721v315h705v154h-594q-123 0 -211 88t-88 209zM397 313h580v561h-580v-561z" />
<glyph unicode="h" horiz-adv-x="1368" d="M111 0v1577h313v-389h594q121 0 209 -88t88 -209v-891h-314v874h-577v-874h-313z" />
<glyph unicode="i" horiz-adv-x="468" d="M106 0v1188h314v-1188h-314zM106 1262v315h314v-315h-314z" />
<glyph unicode="j" horiz-adv-x="489" d="M-383 -111h502v1299h313v-1317q0 -123 -88 -210t-211 -87h-516v315zM119 1262v315h313v-315h-313z" />
<glyph unicode="k" horiz-adv-x="1323" d="M111 0v1577h313v-825h160l403 436h316v-107l-443 -487l443 -488v-106h-316l-403 436h-160v-436h-313z" />
<glyph unicode="l" horiz-adv-x="690" d="M106 297v1282h316v-1266h240v-313h-259q-121 0 -209 88t-88 209z" />
<glyph unicode="m" horiz-adv-x="2002" d="M111 0v1188h1429q123 0 210 -88t87 -209v-891h-311v874h-393v-874h-316v874h-393v-874h-313z" />
<glyph unicode="n" horiz-adv-x="1425" d="M111 0v1188h907q123 0 210 -88t87 -209v-891h-314v874h-577v-874h-313z" />
<glyph unicode="o" horiz-adv-x="1417" d="M104 297v594q0 121 88 209t209 88h611q123 0 210 -88t87 -209v-594q0 -121 -87 -209t-210 -88h-611q-121 0 -209 88t-88 209zM418 313h577v561h-577v-561z" />
<glyph unicode="p" horiz-adv-x="1359" d="M111 -471v1659h907q123 0 210 -88t87 -209v-594q0 -121 -87 -209t-210 -88h-594v-471h-313zM424 313h577v561h-577v-561z" />
<glyph unicode="q" horiz-adv-x="1359" d="M41 297v594q0 121 87 209t210 88h909v-1659h-313v471h-596q-123 0 -210 88t-87 209zM356 313h578v561h-578v-561z" />
<glyph unicode="r" horiz-adv-x="1077" d="M106 0v891q0 121 88.5 209t211.5 88h655v-314h-641v-874h-314z" />
<glyph unicode="s" horiz-adv-x="1404" d="M98 297v59h314v-43h577v123h-594q-121 0 -209 88t-88 209v158q0 121 88 209t209 88h611q125 0 212 -88t87 -209v-60h-316v43h-577v-122h594q125 0 212 -87t87 -210v-158q0 -121 -87.5 -209t-211.5 -88h-611q-121 0 -209 88t-88 209z" />
<glyph unicode="t" horiz-adv-x="923" d="M109 297v1243h313v-352h440v-314h-440v-561h440v-313h-454q-125 0 -212 88t-87 209z" />
<glyph unicode="u" horiz-adv-x="1423" d="M109 297v891h313v-875h577v875h314v-891q0 -121 -87 -209t-210 -88h-610q-123 0 -210 88t-87 209z" />
<glyph unicode="v" horiz-adv-x="1617" d="M43 1188h360l428 -789l429 789h360l-655 -1188h-269z" />
<glyph unicode="w" horiz-adv-x="2156" d="M72 1188h331l256 -617l89 205q20 47 84.5 192.5t95.5 219.5h303l287 -625l237 625h332l-447 -1188h-237l-322 709l-307 -709h-235z" />
<glyph unicode="x" horiz-adv-x="1417" d="M94 0v102l410 502l-410 481v103h322l291 -344l288 344h324v-103l-410 -481l226 -274l184 -228v-102h-322l-290 356l-291 -356h-322z" />
<glyph unicode="y" horiz-adv-x="1402" d="M86 297v887h313v-871h580v871h313v-1313q0 -123 -87 -210t-210 -87h-721v315h705v111h-594q-123 0 -211 88t-88 209z" />
<glyph unicode="z" horiz-adv-x="1429" d="M111 0v322l714 552h-714v314h1204v-322l-715 -553h715v-313h-1204z" />
<glyph unicode="{" horiz-adv-x="591" d="M47 621v268l82 45v244q0 123 87 210t212 87h133v-314h-119v-330l-92 -77l47 -41v2l45 -37v-365h119v-313h-133q-125 0 -212 88t-87 209v276l-33 21h2q-6 2 -25.5 13t-25.5 14z" />
<glyph unicode="|" horiz-adv-x="438" d="M111 -203v1850h313v-1850h-313z" />
<glyph unicode="}" horiz-adv-x="591" d="M104 0v313h119v363l92 78l-92 77v330h-119v314h134q123 0 211 -87.5t88 -209.5v-242l81 -49v-262l-81 -52v-276q0 -121 -88.5 -209t-210.5 -88h-134z" />
<glyph unicode="~" horiz-adv-x="827" d="M49 475v270q109 47 195 48q78 0 198 -58.5t179 -68.5q82 0 196 73v-258q-123 -51 -203 -51q-74 0 -193.5 62.5t-189.5 62.5q-78 0 -182 -80z" />
<glyph unicode="&#xa1;" horiz-adv-x="430" d="M109 0v1077h313v-1077h-313zM109 1133v313h313v-313h-313z" />
<glyph unicode="&#xa2;" horiz-adv-x="1302" d="M68 297v612q0 123 88 211t211 88h229v236h315v-236h361v-317h-361v-578h361v-313h-361v-203h-315v203h-229q-123 0 -211 88t-88 209zM381 313h215v578h-215v-578z" />
<glyph unicode="&#xa3;" horiz-adv-x="1503" d="M80 0v313h184v254h-184v314h184v297q0 123 88 210t209 87h535q123 0 210 -87.5t87 -209.5v-115h-316v98h-499v-280h618v-314h-618v-254h815v-313h-1313z" />
<glyph unicode="&#xa8;" horiz-adv-x="788" d="M111 1530v315h313v-315h-313zM547 1530v315h315v-315h-315z" />
<glyph unicode="&#xad;" horiz-adv-x="1058" d="M121 449v313h854v-313h-854z" />
<glyph unicode="&#xb0;" horiz-adv-x="899" d="M92 1001v148q0 123 88 210t211 87h166q121 0 209 -87t88 -210v-148q0 -123 -88 -211t-209 -88h-166q-123 0 -211 88.5t-88 210.5zM369 981h209v188h-209v-188z" />
<glyph unicode="&#xb4;" horiz-adv-x="436" d="M68 1530l104 416h322l-105 -416h-321z" />
<glyph unicode="&#xb6;" horiz-adv-x="1705" d="M115 772v375q0 121 88 210t211 89h1190v-1446h-314v475h-135v-475h-315v475h-426q-123 0 -211 88t-88 209zM428 791h412v339h-412v-339zM1155 791h135v339h-135v-339z" />
<glyph unicode="&#xb8;" horiz-adv-x="436" d="M68 -299l104 414h322l-105 -414h-321z" />
<glyph unicode="&#xbf;" horiz-adv-x="1382" d="M39 297v342q0 123 88 210t211 87h463v154h313v-170q0 -123 -88 -211t-211 -88h-463v-308h963v-313h-977q-123 0 -211 88t-88 209zM801 1133v313h313v-313h-313z" />
<glyph unicode="&#xc0;" horiz-adv-x="1712" d="M119 0v1171q0 127 88 215.5t215 88.5h866q127 0 216 -89.5t89 -214.5v-1171h-321v475h-836v-475h-317zM436 795h836v360h-836v-360zM602 1993h322l104 -416h-321z" />
<glyph unicode="&#xc1;" horiz-adv-x="1712" d="M119 0v1171q0 127 88 215.5t215 88.5h866q127 0 216 -89.5t89 -214.5v-1171h-321v475h-836v-475h-317zM436 795h836v360h-836v-360zM684 1575l104 416h322l-104 -416h-322z" />
<glyph unicode="&#xc2;" horiz-adv-x="1712" d="M119 0v1171q0 127 88 215.5t215 88.5h866q127 0 216 -89.5t89 -214.5v-1171h-321v475h-836v-475h-317zM436 795h836v360h-836v-360zM545 1575l225 377h205l225 -377h-274l-58 90l-51 -90h-272z" />
<glyph unicode="&#xc3;" horiz-adv-x="1712" d="M119 0v1171q0 127 88 215.5t215 88.5h866q127 0 216 -89.5t89 -214.5v-1171h-321v475h-836v-475h-317zM414 1638v254q139 55 194 56q76 0 195 -59.5t182 -67.5q80 0 197 75v-258q-127 -53 -203 -53t-193.5 63.5t-177.5 63.5h-22q-86 0 -172 -74zM436 795h836v360h-836 v-360z" />
<glyph unicode="&#xc4;" horiz-adv-x="1712" d="M119 0v1171q0 127 88 215.5t215 88.5h866q127 0 216 -89.5t89 -214.5v-1171h-321v475h-836v-475h-317zM436 795h836v360h-836v-360zM489 1577v315h314v-315h-314zM926 1577v315h315v-315h-315z" />
<glyph unicode="&#xc5;" horiz-adv-x="1712" d="M119 0v1171q0 127 88 215.5t215 88.5h866q127 0 216 -89.5t89 -214.5v-1171h-321v475h-836v-475h-317zM436 795h836v360h-836v-360zM614 1735v100q0 63 47.5 109.5t110.5 46.5h105q63 0 109 -46.5t46 -109.5v-100q0 -63 -46 -109.5t-109 -46.5h-105q-63 0 -110.5 46 t-47.5 110zM772 1720h105v111h-105v-111z" />
<glyph unicode="&#xc6;" horiz-adv-x="2816" d="M111 0v1171q0 125 89 214.5t214 89.5h2214v-320h-1043v-258h838v-319h-838v-259h1043v-319h-1360v475h-836v-475h-321zM432 795h836v360h-836v-360z" />
<glyph unicode="&#xc7;" horiz-adv-x="1683" d="M115 303v868q0 127 88 215.5t215 88.5h1167v-320h-1153v-836h1153v-319h-498l-96 -319h-321l96 319h-348q-127 0 -215 88t-88 215z" />
<glyph unicode="&#xc8;" horiz-adv-x="1568" d="M119 0v1475h1362v-320h-1041v-258h838v-319h-838v-259h1041v-319h-1362zM571 1993h322l104 -416h-321z" />
<glyph unicode="&#xc9;" horiz-adv-x="1568" d="M119 0v1475h1362v-320h-1041v-258h838v-319h-838v-259h1041v-319h-1362zM633 1577l104 416h322l-105 -416h-321z" />
<glyph unicode="&#xca;" horiz-adv-x="1568" d="M119 0v1475h1362v-320h-1041v-258h838v-319h-838v-259h1041v-319h-1362zM473 1575l225 377h205l225 -377h-274l-57 90l-52 -90h-272z" />
<glyph unicode="&#xcb;" horiz-adv-x="1568" d="M119 0v1475h1362v-320h-1041v-258h838v-319h-838v-259h1041v-319h-1362zM438 1577v315h314v-315h-314zM874 1577v315h316v-315h-316z" />
<glyph unicode="&#xcc;" horiz-adv-x="450" d="M74 1993h321l105 -416h-322zM195 0v1475h319v-1475h-319z" />
<glyph unicode="&#xcd;" horiz-adv-x="450" d="M74 1577l104 416h322l-105 -416h-321zM86 0v1475h320v-1475h-320z" />
<glyph unicode="&#xce;" horiz-adv-x="450" d="M-25 1575l226 377h205l225 -377h-275l-57 90l-51 -90h-273zM127 0v1475h319v-1475h-319z" />
<glyph unicode="&#xcf;" horiz-adv-x="450" d="M-59 1577v315h313v-315h-313zM152 0v1475h319v-1475h-319zM377 1577v315h315v-315h-315z" />
<glyph unicode="&#xd1;" horiz-adv-x="1703" d="M115 0v1475h327l826 -983v983h321v-1475h-327l-830 987v-987h-317zM451 1638v254q139 55 194 56q76 0 195 -59.5t182 -67.5q80 0 197 75v-258q-127 -53 -203 -53t-193.5 63.5t-177.5 63.5h-22q-86 0 -172 -74z" />
<glyph unicode="&#xd2;" d="M111 303v868q0 127 88 215.5t215 88.5h868q125 0 214 -89.5t89 -214.5v-868q0 -125 -89 -214t-214 -89h-868q-127 0 -215 88t-88 215zM428 319h836v836h-836v-836zM614 1993h322l104 -416h-321z" />
<glyph unicode="&#xd3;" d="M111 303v868q0 127 88 215.5t215 88.5h868q125 0 214 -89.5t89 -214.5v-868q0 -125 -89 -214t-214 -89h-868q-127 0 -215 88t-88 215zM428 319h836v836h-836v-836zM696 1577l105 416h321l-104 -416h-322z" />
<glyph unicode="&#xd4;" d="M111 303v868q0 127 88 215.5t215 88.5h868q125 0 214 -89.5t89 -214.5v-868q0 -125 -89 -214t-214 -89h-868q-127 0 -215 88t-88 215zM428 319h836v836h-836v-836zM537 1575l225 377h205l225 -377h-274l-58 90l-51 -90h-272z" />
<glyph unicode="&#xd5;" d="M111 303v868q0 127 88 215.5t215 88.5h868q125 0 214 -89.5t89 -214.5v-868q0 -125 -89 -214t-214 -89h-868q-127 0 -215 88t-88 215zM426 1638v254q139 55 195 56q76 0 194.5 -59.5t181.5 -67.5q80 0 197 75v-258q-127 -53 -203 -53t-193.5 63.5t-176.5 63.5h-23 q-86 0 -172 -74zM428 319h836v836h-836v-836z" />
<glyph unicode="&#xd6;" d="M111 303v868q0 127 88 215.5t215 88.5h868q125 0 214 -89.5t89 -214.5v-868q0 -125 -89 -214t-214 -89h-868q-127 0 -215 88t-88 215zM428 319h836v836h-836v-836zM481 1577v315h314v-315h-314zM918 1577v315h315v-315h-315z" />
<glyph unicode="&#xd7;" horiz-adv-x="1118" d="M109 168v102l264 344l-264 340v103h323l139 -193l142 193h325v-103l-266 -340l266 -344v-102h-325l-142 190q-20 -33 -71 -97t-70 -93h-321z" />
<glyph unicode="&#xd9;" d="M111 303v1172h317v-1156h836v1156h321v-1172q0 -125 -89 -214t-214 -89h-868q-127 0 -215 88t-88 215zM614 1993h322l104 -416h-321z" />
<glyph unicode="&#xda;" d="M111 303v1172h317v-1156h836v1156h321v-1172q0 -125 -89 -214t-214 -89h-868q-127 0 -215 88t-88 215zM655 1577l105 416h321l-104 -416h-322z" />
<glyph unicode="&#xdb;" d="M111 303v1172h317v-1156h836v1156h321v-1172q0 -125 -89 -214t-214 -89h-868q-127 0 -215 88t-88 215zM537 1575l225 377h205l225 -377h-274l-58 90l-51 -90h-272z" />
<glyph unicode="&#xdc;" d="M111 303v1172h317v-1156h836v1156h321v-1172q0 -125 -89 -214t-214 -89h-868q-127 0 -215 88t-88 215zM481 1577v315h314v-315h-314zM918 1577v315h315v-315h-315z" />
<glyph unicode="&#xdd;" horiz-adv-x="1650" d="M35 1475h379l463 -582l460 582h383l-684 -926v-549h-319v551l-268 360zM674 1577l104 416h322l-105 -416h-321z" />
<glyph unicode="&#xdf;" horiz-adv-x="1705" d="M117 0v1149q0 123 88 210t211 87h850q111 0 196 -70t103 -174v-319q0 -76 -35 -142q35 -63 35 -139v-305q0 -121 -88 -209t-211 -88h-707v313h692v271h-692v295h692v251h-821v-1130h-313z" />
<glyph unicode="&#xe0;" horiz-adv-x="1484" d="M106 297v455h891v122h-891v314h908q123 0 210 -88t87 -209v-891h-908q-123 0 -210 88t-87 209zM420 313h577v164h-577v-164zM528 1722h322l104 -415h-321z" />
<glyph unicode="&#xe1;" horiz-adv-x="1484" d="M106 297v455h891v122h-891v314h908q123 0 210 -88t87 -209v-891h-908q-123 0 -210 88t-87 209zM420 313h577v164h-577v-164zM569 1307l105 415h321l-104 -415h-322z" />
<glyph unicode="&#xe2;" horiz-adv-x="1484" d="M106 297v455h891v122h-891v314h908q123 0 210 -88t87 -209v-891h-908q-123 0 -210 88t-87 209zM420 313h577v164h-577v-164zM430 1307l225 376h205l225 -376h-274l-57 90l-52 -90h-272z" />
<glyph unicode="&#xe3;" horiz-adv-x="1484" d="M106 297v455h891v122h-891v314h908q123 0 210 -88t87 -209v-891h-908q-123 0 -210 88t-87 209zM279 1366v254q139 55 194 55q76 0 195 -59.5t182 -67.5q80 0 197 76v-258q-127 -53 -203 -53t-194 63.5t-177 63.5h-22q-86 0 -172 -74zM420 313h577v164h-577v-164z" />
<glyph unicode="&#xe4;" horiz-adv-x="1484" d="M106 297v455h891v122h-891v314h908q123 0 210 -88t87 -209v-891h-908q-123 0 -210 88t-87 209zM354 1307v315h314v-315h-314zM420 313h577v164h-577v-164zM791 1307v315h315v-315h-315z" />
<glyph unicode="&#xe5;" horiz-adv-x="1484" d="M106 297v455h891v122h-891v314h908q123 0 210 -88t87 -209v-891h-908q-123 0 -210 88t-87 209zM418 1462v101q0 63 47 109t110 46h105q63 0 109.5 -46t46.5 -109v-101q0 -63 -46.5 -109t-109.5 -46h-105q-63 0 -110 46t-47 109zM420 313h577v164h-577v-164zM575 1448h105 v111h-105v-111z" />
<glyph unicode="&#xe6;" horiz-adv-x="2412" d="M109 297v455h892v122h-892v314h1802q123 0 209 -87t86 -210v-455h-891v-123h891v-313h-1800q-123 0 -210 88t-87 209zM422 313h579v164h-579v-164zM1315 711h577v163h-577v-163z" />
<glyph unicode="&#xe7;" horiz-adv-x="1419" d="M104 297v594q0 121 88.5 209t208.5 88h906v-314h-889v-561h891v-313h-469q-10 -49 -40 -135t-40 -127h-199q10 49 40 135t40 127h-240q-121 0 -209 88t-88 209z" />
<glyph unicode="&#xe8;" horiz-adv-x="1306" d="M104 297v594q0 121 88.5 209t208.5 88h611q123 0 210 -88t87 -209v-455h-891v-123h891v-313h-908q-121 0 -209 88t-88 209zM418 711h577v163h-577v-163zM502 1722h321l105 -415h-322z" />
<glyph unicode="&#xe9;" horiz-adv-x="1306" d="M104 297v594q0 121 88.5 209t208.5 88h611q123 0 210 -88t87 -209v-455h-891v-123h891v-313h-908q-121 0 -209 88t-88 209zM418 711h577v163h-577v-163zM543 1309l104 415h322l-105 -415h-321z" />
<glyph unicode="&#xea;" horiz-adv-x="1306" d="M104 297v594q0 121 88.5 209t208.5 88h611q123 0 210 -88t87 -209v-455h-891v-123h891v-313h-908q-121 0 -209 88t-88 209zM403 1307l226 376h205l225 -376h-275l-57 90l-51 -90h-273zM418 711h577v163h-577v-163z" />
<glyph unicode="&#xeb;" horiz-adv-x="1306" d="M104 297v594q0 121 88.5 209t208.5 88h611q123 0 210 -88t87 -209v-455h-891v-123h891v-313h-908q-121 0 -209 88t-88 209zM369 1307v315h313v-315h-313zM418 711h577v163h-577v-163zM805 1307v315h315v-315h-315z" />
<glyph unicode="&#xec;" horiz-adv-x="438" d="M33 1724h321l105 -415h-322zM115 0v1188h313v-1188h-313z" />
<glyph unicode="&#xed;" horiz-adv-x="438" d="M100 1307l105 415h321l-104 -415h-322zM104 0v1188h314v-1188h-314z" />
<glyph unicode="&#xee;" horiz-adv-x="438" d="M-31 1307l226 376h204l226 -376h-275l-57 90l-51 -90h-273zM104 0v1188h314v-1188h-314z" />
<glyph unicode="&#xef;" horiz-adv-x="438" d="M-66 1311v315h314v-315h-314zM113 0v1188h313v-1188h-313zM371 1311v315h315v-315h-315z" />
<glyph unicode="&#xf1;" horiz-adv-x="1449" d="M111 0v1188h907q123 0 210 -88t87 -209v-891h-314v874h-577v-874h-313zM283 1364v254q139 55 194 55q76 0 195 -59.5t182 -67.5q80 0 197 76v-258q-127 -53 -203 -53t-193.5 63.5t-177.5 63.5h-22q-86 0 -172 -74z" />
<glyph unicode="&#xf2;" horiz-adv-x="1417" d="M104 297v594q0 121 88 209t209 88h611q123 0 210 -88t87 -209v-594q0 -121 -87 -209t-210 -88h-611q-121 0 -209 88t-88 209zM418 313h577v561h-577v-561zM496 1724h321l105 -415h-322z" />
<glyph unicode="&#xf3;" horiz-adv-x="1417" d="M104 297v594q0 121 88 209t209 88h611q123 0 210 -88t87 -209v-594q0 -121 -87 -209t-210 -88h-611q-121 0 -209 88t-88 209zM418 313h577v561h-577v-561zM537 1309l104 415h322l-105 -415h-321z" />
<glyph unicode="&#xf4;" horiz-adv-x="1417" d="M104 297v594q0 121 88 209t209 88h611q123 0 210 -88t87 -209v-594q0 -121 -87 -209t-210 -88h-611q-121 0 -209 88t-88 209zM397 1307l226 376h204l226 -376h-275l-57 90l-51 -90h-273zM418 313h577v561h-577v-561z" />
<glyph unicode="&#xf5;" horiz-adv-x="1417" d="M104 297v594q0 121 88 209t209 88h611q123 0 210 -88t87 -209v-594q0 -121 -87 -209t-210 -88h-611q-121 0 -209 88t-88 209zM287 1364v254q139 55 194 55q76 0 195 -59.5t182 -67.5q80 0 197 76v-258q-127 -53 -203 -53t-193.5 63.5t-177.5 63.5h-22q-86 0 -172 -74z M418 313h577v561h-577v-561z" />
<glyph unicode="&#xf6;" horiz-adv-x="1417" d="M104 297v594q0 121 88 209t209 88h611q123 0 210 -88t87 -209v-594q0 -121 -87 -209t-210 -88h-611q-121 0 -209 88t-88 209zM342 1311v315h313v-315h-313zM418 313h577v561h-577v-561zM778 1311v315h316v-315h-316z" />
<glyph unicode="&#xf7;" horiz-adv-x="1062" d="M14 492v313h1004v-313h-1004zM375 0v313h313v-313h-313zM375 946v316h313v-316h-313z" />
<glyph unicode="&#xf9;" horiz-adv-x="1423" d="M109 297v891h313v-875h577v875h314v-891q0 -121 -87 -209t-210 -88h-610q-123 0 -210 88t-87 209zM477 1724h322l104 -415h-321z" />
<glyph unicode="&#xfa;" horiz-adv-x="1423" d="M109 297v891h313v-875h577v875h314v-891q0 -121 -87 -209t-210 -88h-610q-123 0 -210 88t-87 209zM559 1309l105 415h321l-104 -415h-322z" />
<glyph unicode="&#xfb;" horiz-adv-x="1423" d="M109 297v891h313v-875h577v875h314v-891q0 -121 -87 -209t-210 -88h-610q-123 0 -210 88t-87 209zM379 1309l225 377h205l225 -377h-274l-58 90l-51 -90h-272z" />
<glyph unicode="&#xfc;" horiz-adv-x="1423" d="M109 297v891h313v-875h577v875h314v-891q0 -121 -87 -209t-210 -88h-610q-123 0 -210 88t-87 209zM365 1307v315h313v-315h-313zM801 1307v315h315v-315h-315z" />
<glyph unicode="&#xfd;" horiz-adv-x="1409" d="M86 297v887h313v-871h580v871h313v-1313q0 -123 -87 -210t-210 -87h-721v315h705v111h-594q-123 0 -211 88t-88 209zM553 1309l104 415h322l-105 -415h-321z" />
<glyph unicode="&#xff;" horiz-adv-x="1409" d="M86 297v887h313v-871h580v871h313v-1313q0 -123 -87 -210t-210 -87h-721v315h705v111h-594q-123 0 -211 88t-88 209zM358 1311v315h314v-315h-314zM795 1311v315h315v-315h-315z" />
<glyph unicode="&#x152;" horiz-adv-x="2813" d="M109 303v868q0 125 89 214.5t214 89.5h2214v-320h-1043v-258h838v-319h-838v-259h1043v-319h-2214q-125 0 -214 89t-89 214zM430 319h836v836h-836v-836z" />
<glyph unicode="&#x153;" horiz-adv-x="2410" d="M106 297v594q0 121 88.5 209t211.5 88h1503q123 0 209 -87t86 -210v-455h-891v-123h891v-313h-1798q-123 0 -211.5 88t-88.5 209zM420 313h579v561h-579v-561zM1313 711h577v163h-577v-163z" />
<glyph unicode="&#x178;" horiz-adv-x="1650" d="M35 1475h379l463 -582l460 582h383l-684 -926v-549h-319v551l-268 360zM500 1577v315h313v-315h-313zM936 1577v315h315v-315h-315z" />
<glyph unicode="&#x2c6;" horiz-adv-x="614" d="M57 1528l226 377h204l226 -377h-275l-57 90l-51 -90h-273z" />
<glyph unicode="&#x2dc;" horiz-adv-x="825" d="M47 1591v254q137 55 195 56q78 0 195.5 -59.5t180.5 -67.5q80 0 197 75v-258q-127 -53 -202.5 -53t-193.5 63.5t-177 63.5h-23q-86 0 -172 -74z" />
<glyph unicode="&#x2000;" horiz-adv-x="996" />
<glyph unicode="&#x2001;" horiz-adv-x="1993" />
<glyph unicode="&#x2002;" horiz-adv-x="996" />
<glyph unicode="&#x2003;" horiz-adv-x="1993" />
<glyph unicode="&#x2004;" horiz-adv-x="664" />
<glyph unicode="&#x2005;" horiz-adv-x="498" />
<glyph unicode="&#x2006;" horiz-adv-x="332" />
<glyph unicode="&#x2007;" horiz-adv-x="332" />
<glyph unicode="&#x2008;" horiz-adv-x="249" />
<glyph unicode="&#x2009;" horiz-adv-x="398" />
<glyph unicode="&#x200a;" horiz-adv-x="110" />
<glyph unicode="&#x2010;" horiz-adv-x="1058" d="M121 449v313h854v-313h-854z" />
<glyph unicode="&#x2011;" horiz-adv-x="1058" d="M121 449v313h854v-313h-854z" />
<glyph unicode="&#x2012;" horiz-adv-x="1058" d="M121 449v313h854v-313h-854z" />
<glyph unicode="&#x2013;" horiz-adv-x="1449" d="M111 446v314h1224v-314h-1224z" />
<glyph unicode="&#x2014;" horiz-adv-x="1683" d="M111 446v314h1437v-314h-1437z" />
<glyph unicode="&#x2018;" horiz-adv-x="491" d="M70 895v258q0 113 89 198t224 107v-563h-313z" />
<glyph unicode="&#x2019;" horiz-adv-x="487" d="M111 885v561h313v-256q0 -111 -89 -197t-224 -108z" />
<glyph unicode="&#x201c;" horiz-adv-x="954" d="M92 895v258q0 113 90 198t224 107v-563h-314zM532 897v258q0 113 89.5 198t224.5 107v-563h-314z" />
<glyph unicode="&#x201d;" horiz-adv-x="954" d="M111 885v561h313v-256q0 -111 -89 -197t-224 -108zM549 885v561h315v-256q0 -111 -90 -197t-225 -108z" />
<glyph unicode="&#x2022;" horiz-adv-x="759" d="M221 705v36q0 136 135 136h43q137 0 138 -136v-36q0 -133 -138 -134h-43q-135 0 -135 134z" />
<glyph unicode="&#x2026;" horiz-adv-x="1175" d="M111 0v313h315v-313h-315zM504 0v313h315v-313h-315zM897 0v313h313v-313h-313z" />
<glyph unicode="&#x202f;" horiz-adv-x="398" />
<glyph unicode="&#x205f;" horiz-adv-x="498" />
<glyph unicode="&#x20ac;" horiz-adv-x="1636" d="M72 383v313h184v72h-184v313h184v97q0 123 87 210t210 87h960v-314h-944v-80h744v-313h-744v-72h744v-313h-744v-70h944v-313h-960q-123 0 -210 88t-87 209v86h-184z" />
<glyph unicode="&#x25fc;" horiz-adv-x="1187" d="M0 0v1188h1188v-1188h-1188z" />
</font>
</defs>
</svg>
