<?xml version="1.0" standalone="no"?>
<!DOCTYPE svg PUBLIC "-//W3C//DTD SVG 1.1//EN" "http://www.w3.org/Graphics/SVG/1.1/DTD/svg11.dtd" >
<svg xmlns="http://www.w3.org/2000/svg">
<metadata></metadata>
<defs>
<font id="orbitronbold" horiz-adv-x="1695" >
<font-face units-per-em="2048" ascent="1536" descent="-512" />
<missing-glyph horiz-adv-x="630" />
<glyph horiz-adv-x="0" />
<glyph unicode="&#xd;" horiz-adv-x="681" />
<glyph unicode=" "  horiz-adv-x="630" />
<glyph unicode="&#x09;" horiz-adv-x="630" />
<glyph unicode="&#xa0;" horiz-adv-x="630" />
<glyph unicode="!" horiz-adv-x="450" d="M119 0v268h268v-268h-268zM119 403v1072h268v-1072h-268z" />
<glyph unicode="&#x22;" horiz-adv-x="761" d="M121 1100v373h270v-373h-270zM449 1100v373h268v-373h-268z" />
<glyph unicode="#" horiz-adv-x="1632" d="M66 328v268h251l95 295h-287v268h373l102 316h274l-106 -316h358l105 316h272l-106 -316h153v-268h-239l-94 -295h274v-268h-358l-99 -328h-270l100 328h-360l-98 -328h-271l101 328h-170zM588 596h358l94 295h-358z" />
<glyph unicode="$" horiz-adv-x="1613" d="M70 283v110h268v-110q0 -14 14 -15h314v336h-314q-117 0 -199.5 83t-82.5 200v305q0 117 83 200t199 83h314v211h268v-211h313q117 0 200 -83t83 -200v-111h-268v111q0 14 -15 14h-313v-334h313q117 0 200 -82.5t83 -199.5v-307q0 -117 -83 -200t-200 -83h-313v-211h-268 v211h-314q-117 0 -199.5 83t-82.5 200zM338 887q0 -14 14 -15h314v334h-314q-14 0 -14 -14v-305zM934 268h313q14 0 15 15v307q-1 14 -15 14h-313v-336z" />
<glyph unicode="%" horiz-adv-x="1978" d="M98 1022v156q0 117 83 199.5t200 82.5h176q117 0 200 -83t83 -199v-156q0 -117 -83 -200t-200 -83h-176q-117 0 -200 83t-83 200zM262 0v293l1393 1182h67v-293l-1392 -1182h-68zM328 983q0 -12 14 -12h254q12 0 12 12v234q0 14 -12 14h-254q-14 0 -14 -14v-234z M1108 281v155q0 117 83 200t200 83h174q117 0 199.5 -83t82.5 -200v-155q0 -117 -83 -200t-199 -83h-174q-117 0 -200 83t-83 200zM1337 242q1 -15 15 -15h252q14 0 14 15v233q0 14 -14 14h-252q-14 0 -15 -14v-233z" />
<glyph unicode="&#x26;" horiz-adv-x="1921" d="M109 283v397q0 45 27.5 96t74.5 72q-25 43 -25 127v217q0 117 83 200t200 83h760q102 0 183 -67t97 -167v-174h-268v123q0 14 -12 14h-760q-14 0 -14 -14v-254l845 -426v223h269v-334l248 -145v-270l-283 159q-35 -66 -101.5 -104.5t-146.5 -38.5h-895q-117 0 -199.5 83 t-82.5 200zM377 283q0 -15 14 -15h854l-839 424h-15q-14 0 -14 -12v-397z" />
<glyph unicode="'" horiz-adv-x="458" d="M121 1100v373h268v-373h-268z" />
<glyph unicode="(" horiz-adv-x="567" d="M106 283v909q0 117 82 200t199 83h113v-269h-113q-12 0 -12 -14v-909q0 -15 12 -15h113v-268h-113q-117 0 -199 83t-82 200z" />
<glyph unicode=")" horiz-adv-x="569" d="M115 0v268h112q12 0 13 15v909q0 14 -13 14h-112v269h112q115 0 199 -83t84 -200v-909q0 -117 -84 -200t-199 -83h-112z" />
<glyph unicode="*" horiz-adv-x="1005" d="M51 1036l82 258l248 -84v263h270v-261l248 82l84 -258l-250 -80l156 -211l-217 -157l-158 211l-152 -211l-217 157l154 211z" />
<glyph unicode="+" horiz-adv-x="886" d="M35 471v268h280v283h269v-283h288v-268h-288v-287h-269v287h-280z" />
<glyph unicode="," horiz-adv-x="450" d="M111 244h268v-240q0 -104 -77 -184t-191 -101v525z" />
<glyph unicode="-" horiz-adv-x="1058" d="M121 471v268h837v-268h-837z" />
<glyph unicode="." horiz-adv-x="438" d="M111 0v268h268v-268h-268z" />
<glyph unicode="/" horiz-adv-x="1067" d="M12 0v291l979 1184h72v-289l-979 -1186h-72z" />
<glyph unicode="0" horiz-adv-x="1708" d="M117 291v895q0 117 82.5 203t199.5 86h895q117 0 200 -86t83 -203v-895q0 -117 -83 -204t-200 -87h-895q-117 0 -199.5 87t-82.5 204zM385 526l803 674h-789q-14 0 -14 -14v-660zM506 276h788q14 0 15 15v659z" />
<glyph unicode="1" horiz-adv-x="800" d="M2 944l444 531h297v-1475h-268v1083l-119 -139h-354z" />
<glyph unicode="2" horiz-adv-x="1699" d="M117 0v569q0 117 83 200t199 83h895q14 0 15 12v328q0 14 -15 14h-895q-14 0 -14 -14v-111h-268v111q0 117 82.5 200t199.5 83h895q117 0 200 -83t83 -200v-328q0 -117 -83 -199.5t-200 -82.5h-895q-14 0 -14 -13v-286q0 -14 14 -15h1178v-268h-1460z" />
<glyph unicode="3" horiz-adv-x="1691" d="M109 283v88h268v-88q0 -14 14 -15h897q12 0 12 15v319q0 14 -12 14h-926v269h867q14 0 14 12v295q0 14 -14 14h-838q-14 0 -14 -14v-107h-268v107q0 117 82.5 200t199.5 83h838q117 0 199.5 -83t82.5 -200v-295q0 -59 -20 -102q78 -82 78 -193v-319q0 -117 -82 -200 t-199 -83h-897q-117 0 -199.5 83t-82.5 200z" />
<glyph unicode="4" horiz-adv-x="1495" d="M12 371v252l944 852h252v-836h207v-268h-207v-371h-268v371h-928zM430 639h510v414z" />
<glyph unicode="5" horiz-adv-x="1699" d="M117 283v110h268v-110q0 -14 14 -15h895q14 0 15 15v325q0 12 -15 13h-1177v854h1460v-269h-1178q-14 0 -14 -14v-289q0 -12 14 -12h895q117 0 200 -83t83 -200v-325q0 -117 -83 -200t-200 -83h-895q-117 0 -199.5 83t-82.5 200z" />
<glyph unicode="6" horiz-adv-x="1679" d="M117 283v909q0 117 83 200t199 83h944v-269h-944q-14 0 -14 -14v-289q0 -12 14 -12h895q117 0 200 -83t83 -200v-325q0 -117 -83 -200t-200 -83h-895q-117 0 -199.5 83t-82.5 200zM385 283q0 -14 14 -15h895q15 1 15 15v325q0 12 -15 13h-909v-338z" />
<glyph unicode="7" horiz-adv-x="1351" d="M6 1206v269h944q117 0 200 -83t83 -200v-1192h-268v1192q0 14 -15 14h-944z" />
<glyph unicode="8" horiz-adv-x="1708" d="M117 283v325q0 82 41 148q-41 66 -41 147v289q0 117 83 200t199 83h895q104 0 185.5 -67t97.5 -167v-338q0 -86 -41 -147q41 -61 41 -148v-325q0 -117 -83 -200t-200 -83h-895q-117 0 -199.5 83t-82.5 200zM385 283q0 -14 14 -15h895q15 1 15 15v325q0 12 -15 13h-895 q-14 0 -14 -13v-325zM385 883q0 -14 14 -15h895q15 1 15 15v307q0 14 -15 14h-895q-14 0 -14 -14v-307z" />
<glyph unicode="9" d="M104 268h1182q12 0 12 15v295q0 12 -12 12h-897q-117 0 -200 83t-83 199v320q0 117 83 200t200 83h897q117 0 199 -83t82 -200v-909q0 -117 -82 -200t-199 -83h-897q-104 0 -184 77t-101 191zM377 872q0 -12 12 -12h909v332q0 14 -12 14h-897q-12 0 -12 -14v-320z" />
<glyph unicode=":" horiz-adv-x="438" d="M111 0v268h268v-268h-268zM111 934v270h268v-270h-268z" />
<glyph unicode=";" horiz-adv-x="444" d="M104 244h269v-240q0 -104 -77 -184t-192 -101v525zM104 934v270h269v-270h-269z" />
<glyph unicode="&#x3c;" horiz-adv-x="968" d="M10 485v242l858 496v-310l-534 -307l534 -309v-311z" />
<glyph unicode="=" horiz-adv-x="1306" d="M121 279v268h1071v-268h-1071zM121 649v269h1071v-269h-1071z" />
<glyph unicode="&#x3e;" horiz-adv-x="972" d="M121 -18v311l532 309l-532 307v310l860 -496v-242z" />
<glyph unicode="?" horiz-adv-x="1388" d="M63 1206v269h996q119 0 200.5 -83t81.5 -200v-358q0 -117 -81.5 -200t-200.5 -83h-504q-12 0 -12 -12v-138h-271v138q0 117 83 199.5t200 82.5h504q14 0 14 13v358q0 14 -14 14h-996zM272 0v268h271v-268h-271z" />
<glyph unicode="@" horiz-adv-x="1701" d="M117 283v909q0 117 83 200t199 83h895q117 0 200 -83t83 -200v-786h-797q-117 0 -199.5 81.5t-82.5 200.5v115q0 117 82.5 198.5t199.5 81.5h135q117 0 199 -81.5t82 -198.5v-168h113v557q0 14 -15 14h-895q-14 0 -14 -14v-909q0 -14 14 -15h1178v-268h-1178 q-117 0 -199.5 83t-82.5 200zM707 649q0 -14 14 -14h266v227q0 12 -12 12h-254q-14 0 -14 -12v-213z" />
<glyph unicode="A" horiz-adv-x="1712" d="M119 0v1190q0 119 82.5 202t201.5 83h904q119 0 202.5 -83t83.5 -202v-1190h-272v496h-932v-496h-270zM389 766h932v424q0 14 -14 14h-904q-14 0 -14 -14v-424z" />
<glyph unicode="B" horiz-adv-x="1703" d="M121 0v1475h1130q117 0 201 -83t84 -202v-289q0 -61 -20 -104q80 -84 79 -195v-317q0 -119 -84 -202t-202 -83h-1188zM391 285q0 -14 15 -15h903q14 1 14 15v317q0 12 -14 12h-903q-14 0 -15 -12v-317zM391 901q0 -14 15 -14h845q12 0 13 14v289q-1 14 -13 14h-845 q-14 0 -15 -14v-289z" />
<glyph unicode="C" horiz-adv-x="1683" d="M115 285v905q0 119 83 202t201 83h1186v-271h-1186q-14 0 -14 -14v-905q0 -14 14 -15h1186v-270h-1186q-119 0 -201.5 83t-82.5 202z" />
<glyph unicode="D" horiz-adv-x="1708" d="M119 0v1475h1188q119 0 202.5 -83t83.5 -202v-905q0 -119 -84 -202t-202 -83h-1188zM389 285q0 -14 14 -15h904q14 1 14 15v905q0 14 -14 14h-904q-14 0 -14 -14v-905z" />
<glyph unicode="E" horiz-adv-x="1568" d="M119 0v1475h1356v-271h-1084v-332h873v-270h-873v-332h1084v-270h-1356z" />
<glyph unicode="F" horiz-adv-x="1480" d="M119 0v1475h1356v-271h-1084v-332h873v-270h-873v-602h-272z" />
<glyph unicode="G" horiz-adv-x="1699" d="M115 285v905q0 119 83 202t201 83h904q119 0 202.5 -83t83.5 -202v-115h-272v115q0 14 -14 14h-904q-14 0 -14 -14v-905q0 -14 14 -15h904q14 0 14 15v278h-334v271h606v-549q0 -119 -84 -202t-202 -83h-904q-119 0 -201.5 83t-82.5 202z" />
<glyph unicode="H" horiz-adv-x="1742" d="M117 0v1475h270v-603h967v603h270v-1475h-270v602h-967v-602h-270z" />
<glyph unicode="I" horiz-adv-x="450" d="M117 0v1475h270v-1475h-270z" />
<glyph unicode="J" horiz-adv-x="1597" d="M8 285v168h271v-168q0 -14 14 -15h905q12 1 12 15v1190h273v-1190q0 -119 -84 -202t-201 -83h-905q-119 0 -202 83t-83 202z" />
<glyph unicode="K" horiz-adv-x="1632" d="M117 0v1475h272v-603h348l504 603h297v-72l-557 -666l557 -665v-72h-297l-504 602h-348v-602h-272z" />
<glyph unicode="L" horiz-adv-x="1595" d="M117 0v1477h270v-1207h1204v-270h-1474z" />
<glyph unicode="M" horiz-adv-x="1900" d="M115 0v1475h295l536 -639l535 639h297v-1475h-273v1081l-559 -665l-561 665v-1081h-270z" />
<glyph unicode="N" horiz-adv-x="1703" d="M115 0v1475h295l907 -1082v1082h272v-1475h-295l-909 1081v-1081h-270z" />
<glyph unicode="O" d="M111 285v905q0 119 82.5 202t201.5 83h905q117 0 201 -83t84 -202v-905q0 -119 -84 -202t-201 -83h-905q-119 0 -201.5 83t-82.5 202zM381 285q0 -15 14 -15h905q12 0 13 15v905q0 14 -13 14h-905q-14 0 -14 -14v-905z" />
<glyph unicode="P" horiz-adv-x="1619" d="M115 0v1473h1188q119 0 202.5 -84t83.5 -201v-397q0 -117 -84 -201t-202 -84l-912 -2l-6 2v-506h-270zM385 791q0 -14 14 -15h904q14 1 14 15v397q0 14 -14 14h-904q-14 0 -14 -14v-397z" />
<glyph unicode="Q" horiz-adv-x="1810" d="M111 285v905q0 119 82.5 202t201.5 83h903q119 0 203 -83t84 -202v-920h176v-270h-1366q-119 0 -201.5 83t-82.5 202zM381 285q0 -15 14 -15h903q14 0 15 15v905q0 14 -15 14h-903q-14 0 -14 -14v-905z" />
<glyph unicode="R" horiz-adv-x="1689" d="M113 0v1473h1187q119 0 203 -84t84 -201v-397q0 -117 -84 -201t-203 -84h-79l366 -436v-70h-295l-426 506h-477h-6v-506h-270zM383 791q0 -15 14 -15h903q14 0 15 15v397q0 14 -15 14h-903q-14 0 -14 -14v-397z" />
<glyph unicode="S" horiz-adv-x="1683" d="M104 285v112h271v-112q0 -14 14 -15h905q12 0 13 15v303q0 14 -13 14h-905q-119 0 -202 83t-83 202v303q0 119 83 202t202 83h905q117 0 201 -83t84 -202v-113h-272v113q0 14 -13 14h-905q-14 0 -14 -14v-303q0 -14 14 -15h905q117 0 201 -82.5t84 -201.5v-303 q0 -119 -84 -202t-201 -83h-905q-119 0 -202 83t-83 202z" />
<glyph unicode="T" horiz-adv-x="1554" d="M41 1204v271h1475v-271h-601v-1204h-272v1204h-602z" />
<glyph unicode="U" d="M111 285v1190h270v-1190q0 -14 14 -15h905q13 1 13 15v1190h272v-1190q0 -119 -84 -202t-201 -83h-905q-119 0 -201.5 83t-82.5 202z" />
<glyph unicode="V" horiz-adv-x="2054" d="M72 1475h313l662 -1147l659 1147h313l-852 -1475h-243z" />
<glyph unicode="W" horiz-adv-x="2414" d="M72 1475h286l357 -973l356 973h264l357 -973l356 973h287l-537 -1475h-213l-383 1047l-383 -1047h-211z" />
<glyph unicode="X" horiz-adv-x="1662" d="M94 0v72l559 665l-559 666v72h297l440 -523l441 523h297v-72l-561 -666l561 -665v-72h-297l-441 522l-440 -522h-297z" />
<glyph unicode="Y" horiz-adv-x="1650" d="M35 1475h321l496 -627l494 627h323l-682 -924v-551h-270v551z" />
<glyph unicode="Z" horiz-adv-x="1681" d="M104 0v295l1082 909h-1082v271h1475v-295l-1081 -910h1081v-270h-1475z" />
<glyph unicode="[" horiz-adv-x="563" d="M111 0v1475h393v-269h-125v-938h125v-268h-393z" />
<glyph unicode="\" horiz-adv-x="1064" d="M10 1186v289h72l979 -1186v-289h-72z" />
<glyph unicode="]" horiz-adv-x="565" d="M104 0v268h123v938h-123v269h394v-1475h-394z" />
<glyph unicode="_" d="M111 0h1460v-268h-1460v268z" />
<glyph unicode="`" horiz-adv-x="436" d="M66 1985h272l94 -375h-272z" />
<glyph unicode="a" horiz-adv-x="1421" d="M106 283v446h938v176q0 14 -14 15h-924v268h924q117 0 200 -83t83 -200v-905h-924q-117 0 -200 83t-83 200zM375 283q0 -14 14 -15h655v191h-669v-176z" />
<glyph unicode="b" horiz-adv-x="1366" d="M111 0v1577h268v-389h655q117 0 200 -83t83 -200v-622q0 -117 -83 -200t-200 -83h-923zM379 283q0 -14 14 -15h641q15 1 15 15v622q0 14 -15 15h-641q-14 0 -14 -15v-622z" />
<glyph unicode="c" horiz-adv-x="1423" d="M104 283v622q0 117 83 200t200 83h920v-268h-920q-14 0 -14 -15v-622q0 -15 14 -15h924v-268h-924q-117 0 -200 83t-83 200z" />
<glyph unicode="d" horiz-adv-x="1366" d="M47 283v622q0 117 83 200t200 83h657v389h268v-1577h-925q-117 0 -200 83t-83 200zM317 283q1 -15 13 -15h643q14 0 14 15v622q0 14 -14 15h-643q-12 0 -13 -15v-622z" />
<glyph unicode="e" horiz-adv-x="1417" d="M104 283v622q0 117 83 200t200 83h641q117 0 200 -83t83 -200v-446h-938v-176q0 -14 14 -15h924v-268h-924q-117 0 -200 83t-83 200zM373 729h669v176q0 14 -14 15h-641q-14 0 -14 -15v-176z" />
<glyph unicode="f" horiz-adv-x="894" d="M109 0v1294q0 117 81.5 200t200.5 83h449v-270h-449q-14 0 -14 -13v-106h463v-268h-463v-920h-268z" />
<glyph unicode="g" horiz-adv-x="1398" d="M84 283v622q0 117 83 200t200 83h643q117 0 198.5 -83t81.5 -200v-1093q0 -117 -82 -200t-198 -83h-727v270h727q12 0 12 13v188h-655q-117 0 -200 83t-83 200zM352 283q1 -15 15 -15h643q12 0 12 15v622q0 14 -12 15h-643q-14 0 -15 -15v-622z" />
<glyph unicode="h" horiz-adv-x="1368" d="M111 0v1577h268v-389h655q115 0 199 -83t84 -200v-905h-268v905q0 14 -15 15h-641q-14 0 -14 -15v-905h-268z" />
<glyph unicode="i" horiz-adv-x="477" d="M106 0v1188h269v-1188h-269zM106 1307v270h269v-270h-269z" />
<glyph unicode="j" horiz-adv-x="489" d="M-383 -178h512q14 0 14 12v1354h269v-1354q0 -117 -83 -200t-200 -83h-512v271zM143 1307v270h269v-270h-269z" />
<glyph unicode="k" horiz-adv-x="1323" d="M111 0v1577h268v-848h211l424 459h289v-70l-476 -524l476 -524v-70h-289l-424 459h-211v-459h-268z" />
<glyph unicode="l" horiz-adv-x="704" d="M106 283v1294h271v-1294q0 -14 12 -15h240v-268h-240q-117 0 -200 83t-83 200z" />
<glyph unicode="m" horiz-adv-x="2002" d="M111 0v1188h1472q117 0 200 -83t83 -200v-905h-267v905q0 14 -16 15h-446q-12 0 -13 -15v-905h-270v905q0 14 -12 15h-449q-14 0 -14 -15v-905h-268z" />
<glyph unicode="n" horiz-adv-x="1425" d="M111 0v1188h923q117 0 200 -83t83 -200v-905h-268v905q0 14 -15 15h-641q-14 0 -14 -15v-905h-268z" />
<glyph unicode="o" horiz-adv-x="1417" d="M104 283v622q0 117 83 200t200 83h641q117 0 200 -83t83 -200v-622q0 -117 -83 -200t-200 -83h-641q-117 0 -200 83t-83 200zM373 283q0 -14 14 -15h641q14 0 14 15v622q0 15 -14 15h-641q-14 0 -14 -15v-622z" />
<glyph unicode="p" horiz-adv-x="1359" d="M111 -471v1659h923q117 0 200 -83t83 -200v-622q0 -117 -83 -200t-200 -83h-655v-471h-268zM379 283q0 -14 14 -15h641q15 1 15 15v622q0 14 -15 15h-641q-14 0 -14 -15v-622z" />
<glyph unicode="q" horiz-adv-x="1359" d="M41 283v622q0 117 83 200t200 83h925v-1659h-268v471h-657q-117 0 -200 83t-83 200zM311 283q0 -14 13 -15h643q14 0 14 15v622q0 14 -14 15h-643q-13 -1 -13 -15v-622z" />
<glyph unicode="r" horiz-adv-x="1081" d="M106 0v905q0 117 83 200t200 83h660v-268h-660q-14 0 -14 -15v-905h-269z" />
<glyph unicode="s" horiz-adv-x="1404" d="M98 283v51h269v-51q0 -14 14 -15h641q14 0 14 15v163q0 12 -14 13h-641q-117 0 -200 83t-83 199v164q0 117 83 200t200 83h641q119 0 201 -83t82 -200v-51h-269v51q0 14 -14 15h-641q-14 0 -14 -15v-164q0 -12 14 -12h641q119 0 201 -83t82 -200v-163q0 -117 -82 -200 t-201 -83h-641q-117 0 -200 83t-83 200z" />
<glyph unicode="t" horiz-adv-x="894" d="M109 283v1294h268v-389h463v-268h-463v-637q0 -14 14 -15h449v-268h-449q-119 0 -200.5 83t-81.5 200z" />
<glyph unicode="u" horiz-adv-x="1423" d="M109 283v905h268v-905q0 -14 14 -15h641q14 0 15 15v905h268v-905q0 -117 -83 -200t-200 -83h-641q-119 0 -200.5 83t-81.5 200z" />
<glyph unicode="v" horiz-adv-x="1617" d="M43 1188h309l467 -862l469 862h309l-655 -1188h-246z" />
<glyph unicode="w" horiz-adv-x="2162" d="M72 1188h284l287 -701l305 701h279l323 -705l269 705h284l-446 -1188h-209l-358 795l-345 -795h-206z" />
<glyph unicode="x" horiz-adv-x="1417" d="M94 0v68l438 536l-438 516v68h293l320 -377l321 377h293v-68l-440 -516l440 -536v-68h-293l-321 393l-320 -393h-293z" />
<glyph unicode="y" horiz-adv-x="1402" d="M86 283v901h268v-901q0 -14 15 -15h643q12 0 12 15v901h268v-1372q0 -117 -82 -200t-198 -83h-727v270h727q12 0 12 13v188h-655q-117 0 -200 83t-83 200z" />
<glyph unicode="z" horiz-adv-x="1429" d="M111 0v293l811 627h-811v268h1206v-293l-811 -627h811v-268h-1206z" />
<glyph unicode="{" horiz-adv-x="591" d="M47 627v243l86 48v274q0 117 82 200t201 83h110v-269h-110q-14 0 -15 -14v-350l-116 -94l116 -97v-368q0 -14 15 -15h110v-268h-110q-119 0 -201 83t-82 200v292q-14 8 -45 28t-41 24z" />
<glyph unicode="|" horiz-adv-x="438" d="M111 -213v1884h268v-1884h-268z" />
<glyph unicode="}" horiz-adv-x="591" d="M104 0v268h111q14 1 14 15v368l117 97l-117 94v350q0 14 -14 14h-111v269h111q117 0 200 -83t83 -200v-264q14 -8 43.5 -31t42.5 -29v-241l-86 -52v-292q0 -117 -83 -200t-200 -83h-111z" />
<glyph unicode="~" horiz-adv-x="827" d="M49 520v213q88 39 174 39q78 0 202.5 -61.5t190.5 -71.5q98 0 179 53v-196q-102 -43 -183 -43q-74 0 -199.5 65.5t-201.5 65.5q-96 0 -162 -64z" />
<glyph unicode="&#xa1;" horiz-adv-x="430" d="M109 0v1071h268v-1071h-268zM109 1206v269h268v-269h-268z" />
<glyph unicode="&#xa2;" horiz-adv-x="1302" d="M68 283v643q0 117 82.5 199.5t199.5 82.5h248v248h270v-248h404v-270h-404v-670h404v-268h-404v-213h-270v213h-248q-117 0 -199.5 83t-82.5 200zM336 283q0 -14 14 -15h248v670h-248q-14 0 -14 -12v-643z" />
<glyph unicode="&#xa3;" horiz-adv-x="1503" d="M80 0v268h194v328h-194v268h194v328q0 117 83 200t200 83h561q117 0 199 -83t82 -200v-88h-269v88q0 14 -12 14h-561q-14 0 -14 -14v-328h651v-268h-651v-328h856v-268h-1319z" />
<glyph unicode="&#xa8;" horiz-adv-x="788" d="M111 1610v270h268v-270h-268zM461 1610v270h270v-270h-270z" />
<glyph unicode="&#xad;" horiz-adv-x="1058" d="M121 471v268h837v-268h-837z" />
<glyph unicode="&#xb0;" horiz-adv-x="899" d="M92 1022v156q0 117 83 199.5t200 82.5h174q117 0 199.5 -83t82.5 -199v-156q0 -117 -82.5 -200t-199.5 -83h-174q-117 0 -200 83t-83 200zM322 983q0 -12 14 -12h252q14 0 14 12v234q0 14 -14 14h-252q-14 0 -14 -14v-234z" />
<glyph unicode="&#xb4;" horiz-adv-x="436" d="M68 1610l94 375h272l-94 -375h-272z" />
<glyph unicode="&#xb6;" horiz-adv-x="1705" d="M115 782v394q0 115 83 198.5t199 83.5h1178v-1458h-268v500h-158v-500h-270v500h-482q-117 0 -199.5 84t-82.5 198zM383 782q0 -12 14 -12h482v420h-482q-14 0 -14 -14v-394zM1149 770h158v420h-158v-420z" />
<glyph unicode="&#xb8;" horiz-adv-x="436" d="M68 -315l94 374h272l-94 -374h-272z" />
<glyph unicode="&#xbf;" horiz-adv-x="1382" d="M39 283v358q0 117 83 200t200 83h503q14 0 15 12v149h268v-149q0 -117 -83 -200t-200 -83h-503q-14 0 -15 -12v-358q0 -14 15 -15h997v-268h-997q-117 0 -200 83t-83 200zM840 1206v269h268v-269h-268z" />
<glyph unicode="&#xc0;" horiz-adv-x="1712" d="M119 0v1190q0 119 82.5 202t201.5 83h904q119 0 202.5 -83t83.5 -202v-1190h-272v496h-932v-496h-270zM389 766h932v424q0 14 -14 14h-904q-14 0 -14 -14v-424zM705 1970h272l94 -375h-272z" />
<glyph unicode="&#xc1;" horiz-adv-x="1712" d="M119 0v1190q0 119 82.5 202t201.5 83h904q119 0 202.5 -83t83.5 -202v-1190h-272v496h-932v-496h-270zM389 766h932v424q0 14 -14 14h-904q-14 0 -14 -14v-424zM705 1593l94 375h272l-94 -375h-272z" />
<glyph unicode="&#xc2;" horiz-adv-x="1712" d="M119 0v1190q0 119 82.5 202t201.5 83h904q119 0 202.5 -83t83.5 -202v-1190h-272v496h-932v-496h-270zM389 766h932v424q0 14 -14 14h-904q-14 0 -14 -14v-424zM606 1593l201 334h178l201 -334h-217l-76 121q-12 -18 -37 -60.5t-37 -60.5h-213z" />
<glyph unicode="&#xc3;" horiz-adv-x="1712" d="M119 0v1190q0 119 82.5 202t201.5 83h904q119 0 202.5 -83t83.5 -202v-1190h-272v496h-932v-496h-270zM389 766h932v424q0 14 -14 14h-904q-14 0 -14 -14v-424zM496 1659v227q92 37 174 37q80 0 203.5 -62.5t189.5 -70.5q96 0 178 55v-196q-106 -45 -182 -45 q-74 0 -197 66.5t-192 66.5h-25q-90 0 -149 -78z" />
<glyph unicode="&#xc4;" horiz-adv-x="1712" d="M119 0v1190q0 119 82.5 202t201.5 83h904q119 0 202.5 -83t83.5 -202v-1190h-272v496h-932v-496h-270zM389 766h932v424q0 14 -14 14h-904q-14 0 -14 -14v-424zM571 1575v270h269v-270h-269zM922 1575v270h270v-270h-270z" />
<glyph unicode="&#xc5;" horiz-adv-x="1712" d="M119 0v1190q0 119 82.5 202t201.5 83h904q119 0 202.5 -83t83.5 -202v-1190h-272v496h-932v-496h-270zM389 766h932v424q0 14 -14 14h-904q-14 0 -14 -14v-424zM662 1731v104q0 53 39 93t94 40h110q55 0 94 -40t39 -93v-104q0 -53 -38.5 -93.5t-94.5 -40.5h-110 q-55 0 -94 40t-39 94zM797 1735h106v96h-106v-96z" />
<glyph unicode="&#xc6;" horiz-adv-x="2816" d="M111 0v1190q0 119 84 202t200 83h2276v-271h-1086v-332h873v-270h-873v-332h1086v-270h-1356v496h-932v-496h-272zM383 766h932v424q0 14 -15 14h-905q-12 0 -12 -14v-424z" />
<glyph unicode="&#xc7;" horiz-adv-x="1683" d="M115 285v905q0 119 83 202t201 83h1186v-271h-1186q-14 0 -14 -14v-905q0 -14 14 -15h1186v-270h-545l-77 -315h-273l78 315h-369q-119 0 -201.5 83t-82.5 202z" />
<glyph unicode="&#xc8;" horiz-adv-x="1568" d="M119 0v1475h1356v-271h-1084v-332h873v-270h-873v-332h1084v-270h-1356zM633 1970h272l94 -375h-272z" />
<glyph unicode="&#xc9;" horiz-adv-x="1568" d="M119 0v1475h1356v-271h-1084v-332h873v-270h-873v-332h1084v-270h-1356zM633 1595l94 375h272l-94 -375h-272z" />
<glyph unicode="&#xca;" horiz-adv-x="1568" d="M119 0v1475h1356v-271h-1084v-332h873v-270h-873v-332h1084v-270h-1356zM535 1593l200 334h178l201 -334h-217l-76 121q-12 -18 -36.5 -60.5t-36.5 -60.5h-213z" />
<glyph unicode="&#xcb;" horiz-adv-x="1568" d="M119 0v1475h1356v-271h-1084v-332h873v-270h-873v-332h1084v-270h-1356zM500 1595v271h268v-271h-268zM850 1595v271h270v-271h-270z" />
<glyph unicode="&#xcc;" horiz-adv-x="450" d="M74 1970h272l94 -375h-272zM117 0v1475h270v-1475h-270z" />
<glyph unicode="&#xcd;" horiz-adv-x="450" d="M74 1595l94 375h272l-94 -375h-272zM117 0v1475h270v-1475h-270z" />
<glyph unicode="&#xce;" horiz-adv-x="450" d="M-25 1593l201 334h178l201 -334h-217l-76 121q-12 -18 -37 -60.5t-37 -60.5h-213zM117 0v1475h270v-1475h-270z" />
<glyph unicode="&#xcf;" horiz-adv-x="450" d="M-59 1595v271h268v-271h-268zM117 0v1475h270v-1475h-270zM291 1595v271h270v-271h-270z" />
<glyph unicode="&#xd1;" horiz-adv-x="1703" d="M115 0v1475h295l907 -1082v1082h272v-1475h-295l-909 1081v-1081h-270zM492 1659v227q92 37 174 37q80 0 203.5 -62.5t189.5 -70.5q96 0 178 55v-196q-106 -45 -182 -45q-74 0 -197 66.5t-192 66.5h-25q-90 0 -149 -78z" />
<glyph unicode="&#xd2;" d="M111 285v905q0 119 82.5 202t201.5 83h905q117 0 201 -83t84 -202v-905q0 -119 -84 -202t-201 -83h-905q-119 0 -201.5 83t-82.5 202zM381 285q0 -15 14 -15h905q12 0 13 15v905q0 14 -13 14h-905q-14 0 -14 -14v-905zM696 1970h273l94 -375h-272z" />
<glyph unicode="&#xd3;" d="M111 285v905q0 119 82.5 202t201.5 83h905q117 0 201 -83t84 -202v-905q0 -119 -84 -202t-201 -83h-905q-119 0 -201.5 83t-82.5 202zM381 285q0 -15 14 -15h905q12 0 13 15v905q0 14 -13 14h-905q-14 0 -14 -14v-905zM696 1595l95 375h272l-94 -375h-273z" />
<glyph unicode="&#xd4;" d="M111 285v905q0 119 82.5 202t201.5 83h905q117 0 201 -83t84 -202v-905q0 -119 -84 -202t-201 -83h-905q-119 0 -201.5 83t-82.5 202zM381 285q0 -15 14 -15h905q12 0 13 15v905q0 14 -13 14h-905q-14 0 -14 -14v-905zM598 1593l201 334h178l201 -334h-217l-76 121 q-12 -18 -37 -60.5t-37 -60.5h-213z" />
<glyph unicode="&#xd5;" d="M111 285v905q0 119 82.5 202t201.5 83h905q117 0 201 -83t84 -202v-905q0 -119 -84 -202t-201 -83h-905q-119 0 -201.5 83t-82.5 202zM381 285q0 -15 14 -15h905q12 0 13 15v905q0 14 -13 14h-905q-14 0 -14 -14v-905zM487 1659v227q92 37 175 37q80 0 203.5 -62.5 t189.5 -70.5q96 0 178 55v-196q-106 -45 -182 -45q-74 0 -197 66.5t-192 66.5h-25q-90 0 -150 -78z" />
<glyph unicode="&#xd6;" d="M111 285v905q0 119 82.5 202t201.5 83h905q117 0 201 -83t84 -202v-905q0 -119 -84 -202t-201 -83h-905q-119 0 -201.5 83t-82.5 202zM381 285q0 -15 14 -15h905q12 0 13 15v905q0 14 -13 14h-905q-14 0 -14 -14v-905zM563 1595v271h268v-271h-268zM913 1595v271h271 v-271h-271z" />
<glyph unicode="&#xd7;" horiz-adv-x="1118" d="M109 176v68l284 370l-284 369v68h292l164 -224l164 224h295v-68l-285 -369l285 -370v-68h-295l-164 223l-164 -223h-292z" />
<glyph unicode="&#xd9;" d="M111 285v1190h270v-1190q0 -14 14 -15h905q13 1 13 15v1190h272v-1190q0 -119 -84 -202t-201 -83h-905q-119 0 -201.5 83t-82.5 202zM696 1970h273l94 -375h-272z" />
<glyph unicode="&#xda;" d="M111 285v1190h270v-1190q0 -14 14 -15h905q13 1 13 15v1190h272v-1190q0 -119 -84 -202t-201 -83h-905q-119 0 -201.5 83t-82.5 202zM696 1595l95 375h272l-94 -375h-273z" />
<glyph unicode="&#xdb;" d="M111 285v1190h270v-1190q0 -14 14 -15h905q13 1 13 15v1190h272v-1190q0 -119 -84 -202t-201 -83h-905q-119 0 -201.5 83t-82.5 202zM598 1593l201 334h178l201 -334h-217l-76 121q-12 -18 -37 -60.5t-37 -60.5h-213z" />
<glyph unicode="&#xdc;" d="M111 285v1190h270v-1190q0 -14 14 -15h905q13 1 13 15v1190h272v-1190q0 -119 -84 -202t-201 -83h-905q-119 0 -201.5 83t-82.5 202zM563 1595v271h268v-271h-268zM913 1595v271h271v-271h-271z" />
<glyph unicode="&#xdd;" horiz-adv-x="1650" d="M35 1475h321l496 -627l494 627h323l-682 -924v-551h-270v551zM674 1595l94 375h272l-94 -375h-272z" />
<glyph unicode="&#xdf;" horiz-adv-x="1705" d="M117 0v1178q0 117 83 199.5t199 82.5h895q104 0 185.5 -66.5t97.5 -166.5v-330q0 -86 -41 -147q41 -61 41 -148v-319q0 -117 -83 -200t-200 -83h-735v268h735q14 0 15 15v319q0 12 -15 12h-735v248h735q14 0 15 15v299q0 14 -15 14h-895q-14 0 -14 -14v-1176h-268z" />
<glyph unicode="&#xe0;" horiz-adv-x="1484" d="M106 283v446h938v176q0 14 -14 15h-924v268h924q117 0 200 -83t83 -200v-905h-924q-117 0 -200 83t-83 200zM375 283q0 -14 14 -15h655v191h-669v-176zM590 1761h272l94 -375h-272z" />
<glyph unicode="&#xe1;" horiz-adv-x="1484" d="M106 283v446h938v176q0 14 -14 15h-924v268h924q117 0 200 -83t83 -200v-905h-924q-117 0 -200 83t-83 200zM375 283q0 -14 14 -15h655v191h-669v-176zM590 1386l94 375h272l-94 -375h-272z" />
<glyph unicode="&#xe2;" horiz-adv-x="1484" d="M106 283v446h938v176q0 14 -14 15h-924v268h924q117 0 200 -83t83 -200v-905h-924q-117 0 -200 83t-83 200zM375 283q0 -14 14 -15h655v191h-669v-176zM492 1386l200 334h178l201 -334h-217l-76 121q-12 -18 -36.5 -60.5t-36.5 -60.5h-213z" />
<glyph unicode="&#xe3;" horiz-adv-x="1484" d="M106 283v446h938v176q0 14 -14 15h-924v268h924q117 0 200 -83t83 -200v-905h-924q-117 0 -200 83t-83 200zM375 283q0 -14 14 -15h655v191h-669v-176zM381 1448v227q92 37 174 37q80 0 203.5 -62.5t189.5 -70.5q96 0 178 55v-196q-106 -45 -182 -45q-74 0 -196.5 66.5 t-192.5 66.5h-25q-90 0 -149 -78z" />
<glyph unicode="&#xe4;" horiz-adv-x="1484" d="M106 283v446h938v176q0 14 -14 15h-924v268h924q117 0 200 -83t83 -200v-905h-924q-117 0 -200 83t-83 200zM375 283q0 -14 14 -15h655v191h-669v-176zM457 1386v271h268v-271h-268zM807 1386v271h270v-271h-270z" />
<glyph unicode="&#xe5;" horiz-adv-x="1484" d="M106 283v446h938v176q0 14 -14 15h-924v268h924q117 0 200 -83t83 -200v-905h-924q-117 0 -200 83t-83 200zM375 283q0 -14 14 -15h655v191h-669v-176zM547 1520v104q0 53 39 93t94 40h111q55 0 94 -40t39 -93v-104q0 -53 -39 -93.5t-94 -40.5h-111q-55 0 -94 40t-39 94z M682 1524h106v96h-106v-96z" />
<glyph unicode="&#xe6;" horiz-adv-x="2412" d="M109 283v446h938v176q0 14 -15 15h-923v268h1863q117 0 199 -83t82 -200v-446h-938v-180q0 -10 14 -11h924v-268h-1864q-117 0 -198.5 83t-81.5 200zM377 283q0 -14 12 -15h658v191h-670v-176zM1315 729h670v176q0 14 -13 15h-643q-14 0 -14 -15v-176z" />
<glyph unicode="&#xe7;" horiz-adv-x="1419" d="M104 283v622q0 117 83 200t200 83h920v-268h-920q-14 0 -14 -15v-622q0 -15 14 -15h924v-268h-424l-78 -315h-272l77 315h-227q-117 0 -200 83t-83 200z" />
<glyph unicode="&#xe8;" horiz-adv-x="1306" d="M104 283v622q0 117 83 200t200 83h641q117 0 200 -83t83 -200v-446h-938v-176q0 -14 14 -15h924v-268h-924q-117 0 -200 83t-83 200zM373 729h669v176q0 14 -14 15h-641q-14 0 -14 -15v-176zM502 1761h272l94 -375h-272z" />
<glyph unicode="&#xe9;" horiz-adv-x="1306" d="M104 283v622q0 117 83 200t200 83h641q117 0 200 -83t83 -200v-446h-938v-176q0 -14 14 -15h924v-268h-924q-117 0 -200 83t-83 200zM373 729h669v176q0 14 -14 15h-641q-14 0 -14 -15v-176zM502 1389l94 374h272l-94 -374h-272z" />
<glyph unicode="&#xea;" horiz-adv-x="1306" d="M104 283v622q0 117 83 200t200 83h641q117 0 200 -83t83 -200v-446h-938v-176q0 -14 14 -15h924v-268h-924q-117 0 -200 83t-83 200zM373 729h669v176q0 14 -14 15h-641q-14 0 -14 -15v-176zM403 1386l201 334h178l201 -334h-217l-76 121q-12 -18 -37 -60.5t-37 -60.5 h-213z" />
<glyph unicode="&#xeb;" horiz-adv-x="1306" d="M104 283v622q0 117 83 200t200 83h641q117 0 200 -83t83 -200v-446h-938v-176q0 -14 14 -15h924v-268h-924q-117 0 -200 83t-83 200zM369 1386v271h268v-271h-268zM373 729h669v176q0 14 -14 15h-641q-14 0 -14 -15v-176zM719 1386v271h270v-271h-270z" />
<glyph unicode="&#xec;" horiz-adv-x="438" d="M33 1763h272l94 -374h-272zM115 0v1188h268v-1188h-268z" />
<glyph unicode="&#xed;" horiz-adv-x="438" d="M100 1386l95 375h272l-94 -375h-273zM104 0v1188h269v-1188h-269z" />
<glyph unicode="&#xee;" horiz-adv-x="438" d="M-31 1386l201 334h178l201 -334h-217l-76 121q-12 -18 -37 -60.5t-37 -60.5h-213zM104 0v1188h269v-1188h-269z" />
<glyph unicode="&#xef;" horiz-adv-x="438" d="M-66 1391v270h269v-270h-269zM113 0v1188h268v-1188h-268zM285 1391v270h270v-270h-270z" />
<glyph unicode="&#xf1;" horiz-adv-x="1449" d="M111 0v1188h923q117 0 200 -83t83 -200v-905h-268v905q0 14 -15 15h-641q-14 0 -14 -15v-905h-268zM365 1446v227q92 37 174 37q80 0 203.5 -62.5t189.5 -70.5q96 0 178 55v-196q-106 -45 -182 -45q-74 0 -197 66.5t-192 66.5h-25q-90 0 -149 -78z" />
<glyph unicode="&#xf2;" horiz-adv-x="1417" d="M104 283v622q0 117 83 200t200 83h641q117 0 200 -83t83 -200v-622q0 -117 -83 -200t-200 -83h-641q-117 0 -200 83t-83 200zM373 283q0 -14 14 -15h641q14 0 14 15v622q0 15 -14 15h-641q-14 0 -14 -15v-622zM557 1763h272l95 -374h-273z" />
<glyph unicode="&#xf3;" horiz-adv-x="1417" d="M104 283v622q0 117 83 200t200 83h641q117 0 200 -83t83 -200v-622q0 -117 -83 -200t-200 -83h-641q-117 0 -200 83t-83 200zM373 283q0 -14 14 -15h641q14 0 14 15v622q0 15 -14 15h-641q-14 0 -14 -15v-622zM557 1389l94 374h273l-95 -374h-272z" />
<glyph unicode="&#xf4;" horiz-adv-x="1417" d="M104 283v622q0 117 83 200t200 83h641q117 0 200 -83t83 -200v-622q0 -117 -83 -200t-200 -83h-641q-117 0 -200 83t-83 200zM373 283q0 -14 14 -15h641q14 0 14 15v622q0 15 -14 15h-641q-14 0 -14 -15v-622zM459 1386l200 334h179l200 -334h-217l-76 121 q-12 -18 -36.5 -60.5t-36.5 -60.5h-213z" />
<glyph unicode="&#xf5;" horiz-adv-x="1417" d="M104 283v622q0 117 83 200t200 83h641q117 0 200 -83t83 -200v-622q0 -117 -83 -200t-200 -83h-641q-117 0 -200 83t-83 200zM348 1446v227q92 37 174 37q80 0 203.5 -62.5t189.5 -70.5q96 0 179 55v-196q-106 -45 -183 -45q-74 0 -196.5 66.5t-192.5 66.5h-24 q-90 0 -150 -78zM373 283q0 -14 14 -15h641q14 0 14 15v622q0 15 -14 15h-641q-14 0 -14 -15v-622z" />
<glyph unicode="&#xf6;" horiz-adv-x="1417" d="M104 283v622q0 117 83 200t200 83h641q117 0 200 -83t83 -200v-622q0 -117 -83 -200t-200 -83h-641q-117 0 -200 83t-83 200zM373 283q0 -14 14 -15h641q14 0 14 15v622q0 15 -14 15h-641q-14 0 -14 -15v-622zM424 1391v270h268v-270h-268zM774 1391v270h270v-270h-270z " />
<glyph unicode="&#xf7;" horiz-adv-x="1028" d="M37 471v268h993v-268h-993zM412 2v268h268v-268h-268zM412 936v270h268v-270h-268z" />
<glyph unicode="&#xf9;" horiz-adv-x="1423" d="M109 283v905h268v-905q0 -14 14 -15h641q14 0 15 15v905h268v-905q0 -117 -83 -200t-200 -83h-641q-119 0 -200.5 83t-81.5 200zM559 1763h272l95 -374h-273z" />
<glyph unicode="&#xfa;" horiz-adv-x="1423" d="M109 283v905h268v-905q0 -14 14 -15h641q14 0 15 15v905h268v-905q0 -117 -83 -200t-200 -83h-641q-119 0 -200.5 83t-81.5 200zM559 1389l94 374h273l-95 -374h-272z" />
<glyph unicode="&#xfb;" horiz-adv-x="1423" d="M109 283v905h268v-905q0 -14 14 -15h641q14 0 15 15v905h268v-905q0 -117 -83 -200t-200 -83h-641q-119 0 -200.5 83t-81.5 200zM461 1389l201 333h178l200 -333h-217l-75 120q-12 -18 -37 -60t-37 -60h-213z" />
<glyph unicode="&#xfc;" horiz-adv-x="1423" d="M109 283v905h268v-905q0 -14 14 -15h641q14 0 15 15v905h268v-905q0 -117 -83 -200t-200 -83h-641q-119 0 -200.5 83t-81.5 200zM426 1386v271h268v-271h-268zM776 1386v271h271v-271h-271z" />
<glyph unicode="&#xfd;" horiz-adv-x="1409" d="M86 283v901h268v-901q0 -14 15 -15h643q12 0 12 15v901h268v-1372q0 -117 -82 -200t-198 -83h-727v270h727q12 0 12 13v188h-655q-117 0 -200 83t-83 200zM553 1389l94 374h273l-95 -374h-272z" />
<glyph unicode="&#xff;" horiz-adv-x="1409" d="M86 283v901h268v-901q0 -14 15 -15h643q12 0 12 15v901h268v-1372q0 -117 -82 -200t-198 -83h-727v270h727q12 0 12 13v188h-655q-117 0 -200 83t-83 200zM420 1391v270h268v-270h-268zM770 1391v270h270v-270h-270z" />
<glyph unicode="&#x152;" horiz-adv-x="2813" d="M109 285v905q0 119 83.5 202t200.5 83h2276v-271h-1086v-332h873v-270h-873v-332h1086v-270h-2276q-117 0 -200.5 83t-83.5 202zM381 285q0 -14 12 -15h905q14 0 15 15v905q0 14 -15 14h-905q-12 0 -12 -14v-905z" />
<glyph unicode="&#x153;" horiz-adv-x="2410" d="M106 283v622q0 117 82 200t201 83h1581q117 0 199 -83t82 -200v-446h-938v-176q0 -14 14 -15h924v-268h-1862q-119 0 -201 83t-82 200zM375 283q0 -14 14 -15h641q14 0 14 15v622q0 14 -14 15h-641q-14 0 -14 -15v-622zM1313 729h669v176q0 14 -12 15h-643q-14 0 -14 -15 v-176z" />
<glyph unicode="&#x178;" horiz-adv-x="1650" d="M35 1475h321l496 -627l494 627h323l-682 -924v-551h-270v551zM541 1595v271h268v-271h-268zM891 1595v271h270v-271h-270z" />
<glyph unicode="&#x2c6;" horiz-adv-x="614" d="M57 1608l201 334h178l201 -334h-217l-76 121q-12 -18 -37 -60.5t-37 -60.5h-213z" />
<glyph unicode="&#x2dc;" horiz-adv-x="825" d="M47 1673v228q92 37 174 36q78 0 202.5 -62.5t190.5 -70.5q94 0 179 56v-197q-106 -45 -183 -45q-74 0 -196.5 66.5t-192.5 66.5h-24q-90 0 -150 -78z" />
<glyph unicode="&#x2000;" horiz-adv-x="992" />
<glyph unicode="&#x2001;" horiz-adv-x="1985" />
<glyph unicode="&#x2002;" horiz-adv-x="992" />
<glyph unicode="&#x2003;" horiz-adv-x="1985" />
<glyph unicode="&#x2004;" horiz-adv-x="661" />
<glyph unicode="&#x2005;" horiz-adv-x="496" />
<glyph unicode="&#x2006;" horiz-adv-x="330" />
<glyph unicode="&#x2007;" horiz-adv-x="330" />
<glyph unicode="&#x2008;" horiz-adv-x="248" />
<glyph unicode="&#x2009;" horiz-adv-x="397" />
<glyph unicode="&#x200a;" horiz-adv-x="110" />
<glyph unicode="&#x2010;" horiz-adv-x="1058" d="M121 471v268h837v-268h-837z" />
<glyph unicode="&#x2011;" horiz-adv-x="1058" d="M121 471v268h837v-268h-837z" />
<glyph unicode="&#x2012;" horiz-adv-x="1058" d="M121 471v268h837v-268h-837z" />
<glyph unicode="&#x2013;" horiz-adv-x="1449" d="M111 469v268h1226v-268h-1226z" />
<glyph unicode="&#x2014;" horiz-adv-x="1683" d="M111 469v268h1450v-268h-1450z" />
<glyph unicode="&#x2018;" horiz-adv-x="444" d="M70 956v240q0 106 76.5 186t191.5 99v-525h-268z" />
<glyph unicode="&#x2019;" horiz-adv-x="442" d="M111 950v525h268v-240q0 -104 -77 -184t-191 -101z" />
<glyph unicode="&#x201c;" horiz-adv-x="823" d="M92 956v240q0 106 77 186t191 99v-525h-268zM446 956v240q0 106 77 186t192 99v-525h-269z" />
<glyph unicode="&#x201d;" horiz-adv-x="821" d="M111 950v525h268v-240q0 -104 -77 -184t-191 -101zM463 950v525h270v-240q0 -104 -76.5 -184t-193.5 -101z" />
<glyph unicode="&#x2022;" horiz-adv-x="759" d="M242 711v39q-1 110 110 110h45q113 0 113 -110v-39q0 -111 -113 -111h-45q-111 0 -110 111z" />
<glyph unicode="&#x2026;" horiz-adv-x="1175" d="M111 0v268h268v-268h-268zM479 0v268h271v-268h-271zM850 0v268h268v-268h-268z" />
<glyph unicode="&#x202f;" horiz-adv-x="397" />
<glyph unicode="&#x205f;" horiz-adv-x="496" />
<glyph unicode="&#x20ac;" horiz-adv-x="1636" d="M72 403v269h194v116h-194v269h194v135q0 117 83 200t200 83h979v-269h-979q-14 0 -14 -14v-135h782v-269h-782v-116h782v-269h-782v-120q0 -15 14 -15h979v-268h-979q-117 0 -200 83t-83 200v120h-194z" />
<glyph unicode="&#x25fc;" horiz-adv-x="1187" d="M0 0v1188h1188v-1188h-1188z" />
</font>
</defs>
</svg>
