<?xml version="1.0" standalone="no"?>
<!DOCTYPE svg PUBLIC "-//W3C//DTD SVG 1.1//EN" "http://www.w3.org/Graphics/SVG/1.1/DTD/svg11.dtd" >
<svg xmlns="http://www.w3.org/2000/svg">
<metadata></metadata>
<defs>
<font id="piedraregular" horiz-adv-x="950" >
<font-face units-per-em="2048" ascent="1638" descent="-410" />
<missing-glyph horiz-adv-x="471" />
<glyph horiz-adv-x="0" />
<glyph unicode="&#xd;" horiz-adv-x="681" />
<glyph unicode=" "  horiz-adv-x="471" />
<glyph unicode="&#x09;" horiz-adv-x="471" />
<glyph unicode="&#xa0;" horiz-adv-x="471" />
<glyph unicode="!" horiz-adv-x="477" d="M10 206q0 36 6.5 42t26.5 28.5t35.5 37t40.5 32.5q49 37 114 37q2 0 54.5 -35t87.5 -35q16 0 28 -114l5 -39q0 -18 -18.5 -56t-27.5 -38l-26 2q-37 0 -49.5 -12.5t-12.5 -22.5l5 -37q0 -6 -5 -6h-30q-143 0 -197 53q-8 8 -22.5 67.5t-14.5 95.5zM12 1493q0 23 90.5 59.5 t128.5 36.5q2 0 76 -20.5t99 -24.5q61 -10 61 -16q0 -96 -22.5 -201.5t-51.5 -134.5q-6 -6 -6 -15.5t18.5 -28t18.5 -22.5t-10 -49q-35 -139 -35 -233q0 -2 13.5 -22.5t13.5 -30t-5 -11.5l-41 -59q-10 -10 -10 -51l10 -109q-90 -86 -180 -86q-12 0 -49 22.5t-37 37.5 q0 254 -10 284q-27 55 -27 70.5t4 19.5q35 45 35 65.5t-33.5 45t-33.5 27.5q0 14 19.5 45.5t19.5 37.5q0 41 -28 180.5t-28 182.5z" />
<glyph unicode="&#x22;" horiz-adv-x="751" d="M10 1501q0 16 75 58.5t107.5 42.5t91 -10.5t58.5 -16.5l-39 -158q-35 -18 -35 -28q0 -16 18.5 -28.5t18.5 -17.5q0 -27 -16.5 -72.5t-16.5 -53.5q8 -14 9 -21q-16 -111 -23 -111q-12 0 -41 -22.5t-44 -22.5t-38 7q-51 12 -51 26q0 63 -18 127l-7 23q0 4 18.5 27.5 t18.5 33.5t-24.5 19.5t-24.5 13.5q0 23 -18 104zM426 1511q0 12 61.5 54.5t94.5 42.5q160 -35 159 -43q0 -18 -9 -64.5t-15 -51.5t-12 -11q-16 -12 -16.5 -19.5t15 -30t15.5 -27.5t-2 -7q-23 -23 -45.5 -123.5t-22.5 -136.5q0 -10 -40 -28.5t-51 -18.5t-37.5 9t-26.5 15 l-15 129q-30 23 -30 33l16 55q0 63 -19.5 141t-19.5 82z" />
<glyph unicode="#" horiz-adv-x="1198" d="M20 524q0 8 21.5 56.5t21.5 76.5q59 10 89 10.5t36 -5.5q8 -14 40 -14.5t51 9.5l-23 82l12 52q8 8 13 86l-99 2q-72 0 -84 -6.5t-45 -6.5t-33 8q0 104 29 179l8 24q16 16 90 17h27q45 -2 98 -4q-4 10 -4 51l13 186q29 18 77 19q6 0 55.5 -23t78.5 -23q8 -57 8 -87.5 t-4 -34.5q-16 -10 -15.5 -43t11.5 -50l79 23l52 -12q14 -8 86 -13q2 37 2 107t-6.5 79t-6.5 43t11 34q106 0 176 -29l24 -10q16 -16 17 -109v-8q-2 -45 -4 -98q16 6 53 6l186 -13q16 -31 17 -77q0 -8 -22.5 -56.5t-22.5 -77.5q-57 -10 -87 -10t-36 6q-8 14 -41 13.5 t-51 -11.5l24 -79l-14 -52q-8 -8 -13 -86q41 -2 110 -2t71 2q12 10 47 10.5t35 -10.5q0 -106 -29 -176l-10 -24q-16 -16 -90 -17h-25q-45 2 -100 4q6 -18 6 -51l-12 -186q-29 -18 -78 -19q-6 0 -55.5 22.5t-77.5 22.5q-8 57 -8.5 88t3.5 35q14 8 13.5 41t-10.5 51l-80 -22 l-52 12q-4 4 -86 13q-2 -35 -2 -102.5t6.5 -80t6.5 -46.5t-9 -34q-106 0 -176 29l-24 10q-18 18 -19 90v27q2 43 4 98q-18 -6 -51 -6l-186 12q-16 31 -17 78zM479 672l19 -25h194l25 17v196q-12 8 -19 25h-194q-14 -14 -25 -19v-194z" />
<glyph unicode="$" horiz-adv-x="1093" d="M53 1010.5q0 19.5 28 101.5t85 196.5t121 178.5q51 37 176 57v27q0 106 -8 115q90 63 139 63t97 -18.5t48 -22.5q-29 -74 -28 -188q0 -16 53 -17q41 8 41 60q0 6 93 6t93 -29q4 -43 4 -83t-4 -97q23 -94 23 -115v-4q-12 -23 -67.5 -58.5t-69 -35.5t-13.5 4 q0 37 -78.5 99.5t-144.5 62.5q-39 0 -102.5 -65.5t-63.5 -110.5q10 -53 43 -54q20 0 43 25h2q18 0 121.5 -71.5t110.5 -90.5q25 4 42 4t25 -4q49 -39 102.5 -104.5t61.5 -85.5q47 -100 47 -350q0 -74 -128 -232t-230 -197q-8 -2 -8 -20l14 -107q0 -10 -71.5 -39.5 t-99.5 -29.5t-64.5 15.5t-55.5 29.5l-16 14q14 31 24 103l2 20q-100 8 -181 28.5t-112 37.5l-28 16q-12 12 -28.5 128t-16.5 210q0 12 82 70l26 18q25 12 103 25q2 0 2 -17l-2 -45l53 -129q6 -6 69.5 -28.5t96.5 -22.5q55 0 111.5 66.5t56.5 93.5q0 47 -56 123l-18 26 q-150 96 -177.5 96t-51.5 -10q-12 0 -31 23.5t-19 32.5l15 63q0 18 -43 27l-58 -11q-23 0 -101.5 103.5t-78.5 123z" />
<glyph unicode="%" horiz-adv-x="1212" d="M20 1051q8 18 9 98l-4 127l41 94l-19 37q0 4 15.5 33.5t28.5 45t49 46.5t46 31h17q51 0 59 8t25 8l125 -14q8 0 36.5 -53.5t36.5 -81.5q20 -12 26.5 -18.5t16 -83.5t9.5 -97.5t-2 -28.5q-37 -23 -37 -28q0 -23 24 -35q2 0 2 -6l-12 -76q0 -8 2 -10v-3q0 -12 -22.5 -60 t-32.5 -48l-37 -10l-23 -58q-16 -16 -94 -20h-12q-25 0 -35 -10q-84 0 -143 43q-31 80 -76 118zM27 -31q0 20 47 86l16 23q41 78 46 87t12.5 42t9.5 37l65 73q14 14 97 153.5t83 163t66 131t76 107.5q39 0 125 211q29 70 30 70q18 0 68.5 83t90.5 167t38 86v4q0 31 61 98 q14 14 113.5 14.5t99.5 -18.5q-20 -63 -34 -67q-25 -6 -31 -15q-4 -41 -4 -55t-9.5 -25.5t-23.5 -25.5l-16 -17q-18 -18 -60.5 -96t-79 -144.5t-45 -66.5t-123 -215t-132 -215t-39 -45t-46 -101.5t-36.5 -68.5q-25 -25 -111 -201l-29 -57q4 -20 4 -33q0 -27 -20 -35 q-14 -2 -44 -44t-30 -59t-33 -50q-8 -8 -105 -8t-97 26zM223 1075q20 -53 25 -69v-29q10 -18 26 -19q27 0 48 37l14 58q0 14 -25 39q0 18 21 34q6 4 6 45l-2 60q-16 25 -17 35l5 10q14 20 14 31.5t-9.5 16.5t-9.5 7v21q0 90 -16 106l-16 6q-12 0 -43 -26q-18 -63 -19 -92 q18 -10 19 -17q-20 -80 -21 -141q23 -20 23 -33q-23 -57 -23 -80zM662 190q8 18 8 99l-4 127l41 94l-17 37q0 4 15.5 33.5t30 46t49 47.5t46 29.5t39 -1.5t35.5 8.5t25 8.5l125 -14q8 0 35.5 -52.5t37.5 -83.5l25 -16q8 -8 16.5 -79t8.5 -99.5t-2 -30.5q-35 -25 -35 -32 t1 -13t5 -9t5 -4t8 -4.5t7 -5.5l-14 -79q0 -8 2 -11v-2q0 -12 -22.5 -60t-32.5 -48l-35 -8q-10 -10 -23 -58q-18 -18 -96 -22l-16 2q-23 0 -31 -13q-86 0 -127 31l-14 12q-31 80 -76 119zM864 217l25 -72v-26q12 -20 29 -21q25 0 47 39l12 58q0 14 -25 38q0 18 23 33 q6 6 6 39l-4 68q-16 23 -16 35l4 10q16 18 16 29.5t-10 17.5t-10 8v39q0 74 -15 88l-16 4q-12 0 -43 -26q-18 -61 -19 -93q18 -10 19 -16q-23 -78 -23 -141q25 -20 25 -33q-25 -58 -25 -78z" />
<glyph unicode="&#x26;" horiz-adv-x="1228" d="M10 333.5q0 16.5 26.5 62.5t26.5 78t-12 55.5t-12 25.5q0 37 154.5 178t154.5 146q0 23 -61 141l-23 41q-8 8 -24 16q-27 16 -27 27q0 68 16.5 156t36.5 106q47 49 167 128t147 79h6q279 0 315 -39q94 -111 94 -150q-27 -23 -30 -22q-23 0 -23 -55q31 -29 55 -29 q8 0 13.5 -48t5.5 -86t-15 -38q-31 0 -131 -87t-106 -108q57 -139 154 -233q117 12 166 12t53 -4q4 -41 4 -77t-5.5 -48t-45 -65.5t-39.5 -63.5t33.5 -50t58.5 -40q74 -6 78 -10t4 -36t-18.5 -72t-102.5 -125t-121 -85t-88 49.5t-57.5 49.5t-98.5 -70t-129 -70q-2 0 -8 7 q-20 20 -59 20t-117 -22.5t-82 -22.5q-63 0 -145 89t-135.5 181t-53.5 108.5zM399 436q0 -8 31 -25.5t31 -35.5q0 -39 44 -72t71.5 -33t69.5 23.5t42 44.5q0 2 -67.5 106.5t-67.5 126.5q0 4 31.5 36t31.5 40q0 14 -61 35q-20 0 -53 -23.5t-56 -48.5l-22 -24 q-25 -23 -25 -150zM547 1258.5q0 -31.5 31.5 -81t46.5 -49.5q6 -2 12 -2q22 0 22 33q0 2 43 43t43 67.5t-26.5 66.5t-53 40t-72.5 -43t-46 -74.5z" />
<glyph unicode="'" horiz-adv-x="335" d="M10 1511q0 12 61.5 54.5t94.5 42.5q160 -35 160 -43q0 -18 -9.5 -64.5t-15.5 -51.5t-14 -11q-14 -12 -14.5 -19.5t15 -30t15.5 -27.5t-2 -7q-23 -23 -45.5 -123.5t-22.5 -136.5q0 -10 -39.5 -28.5t-51 -18.5t-38 9t-26.5 15l-15 129q-30 23 -30 33l16 55q0 63 -19.5 141 t-19.5 82z" />
<glyph unicode="(" horiz-adv-x="632" d="M20 709q0 156 28 319.5t55.5 255.5t34.5 98.5t28.5 16.5t35 23.5t13.5 27.5t-18 47q0 23 98 137l33 37q121 59 202 60q102 -10 103 -33q0 -12 -47 -76q-154 -197 -180 -346q-84 -33 -84 -70q0 -12 23.5 -32.5t23.5 -30.5q-53 -115 -54 -381q47 -59 47 -90q0 -8 -31.5 -38 t-31.5 -48v-4q0 -29 14 -29h13q23 0 22 -8q0 -158 70 -320q23 -55 22 -63v-4q-4 -4 -4 -13q0 -39 69.5 -141t98.5 -110q10 -4 10 -17.5t-10 -31t-19.5 -21.5t-41.5 -4q-123 0 -197 37q-33 16 -75 75.5t-66 110.5l-25 51q-25 8 -28 12q-12 8 -17 68q25 25 25 57l-2 17 q0 6 -54 14q-16 16 -36.5 154.5t-20.5 224.5l2 31v2q0 10 -29 35z" />
<glyph unicode=")" horiz-adv-x="632" d="M0 -147q0 12 49 73q152 199 178 348q84 33 84 70q0 12 -22.5 32.5t-22.5 31.5q51 115 51 380q-45 59 -45 93q0 8 32 36.5t32 47.5v2q0 31 -17 30h-12q-23 0 -22 9q0 145 -70 317q-22 58 -22 66q6 12 6 16q0 39 -71 141.5t-99 110.5q-10 4 -10.5 17.5t11 30.5t20.5 21.5 t40 4.5q123 0 197 -37q33 -16 74.5 -75.5t66.5 -111.5l25 -49q4 -2 14 -5t16 -7q10 -12 15 -70q-25 -25 -25 -57l2 -16q0 -6 53 -15q18 -16 38 -152.5t20 -224.5l-2 -30v-2q0 -12 28 -37q0 -154 -27.5 -320t-55 -257t-37.5 -101l-25 -12q-49 -23 -49 -52q0 -20 18 -47 q0 -23 -98 -135l-33 -39q-121 -59 -203 -59q-102 10 -102 33z" />
<glyph unicode="*" horiz-adv-x="606" d="M20 1419q0 16 14.5 56.5t26.5 52.5q23 23 52 33q4 0 53 -51.5t66.5 -51.5t17.5 35l-17 117v2q6 6 37 18t45 15h7q20 0 48.5 -8.5t28.5 -16.5l-30 -135q0 -12 15 -12t66.5 46t57.5 46t42 -40t35 -65.5t-10 -36.5q-127 -51 -126 -65q0 -25 61 -52.5t61 -29.5 q0 -31 -31.5 -79t-58.5 -48q-2 0 -51 54t-72 54q-12 0 -12 -24q0 -47 14 -109l7 -20q0 -8 -38 -18.5t-70 -10.5t-50 23q0 2 11 56t11 67.5t-2 15.5l-18 4q-8 0 -56.5 -42t-54.5 -42t-22.5 12.5t-33.5 45t-17 73.5q0 4 26 12q111 35 111 52l-4 12q0 6 -70 28.5t-70 26.5z" />
<glyph unicode="+" horiz-adv-x="1122" d="M10 659q0 106 29 177l10 24q16 16 107 17h8q205 -8 278 -9l15 21q4 82 4 147.5t-8.5 74.5t-8.5 44l13 143q31 16 78 17q8 0 56 -21.5t77 -21.5q10 -29 10 -45.5t-6 -22.5q-14 -8 -13.5 -45t11 -47t10.5 -23.5t-4 -33t-9 -37t-5 -19.5v-110q0 -10 16 -19q63 -6 142 -6 t86 8.5t44 8.5l146 -13q16 -29 16 -77q0 -6 -22.5 -55.5t-22.5 -78.5q-29 -8 -46 -8t-22 4q-8 16 -44.5 15.5t-47 -12t-23 -11.5t-31.5 4t-36.5 10.5t-21.5 6.5h-115q-18 -10 -23 -25q0 -2 13.5 -17.5t13.5 -33.5l-10 -25q-12 -12 -12 -136t6 -135t6 -41t-8.5 -38t-90 -8 t-114.5 33q-12 12 -12 88v41q12 229 12 241q0 18 -25 35q-16 16 -179 16.5t-171 -5t-42 -5.5t-34 8z" />
<glyph unicode="," horiz-adv-x="417" d="M10 147q0 2 17.5 33t17.5 60q0 43 121 100q16 8 62 8t48 -6q29 -27 37 -47q35 -14 47 -27q37 -37 37 -151l-2 -58q-41 -27 -41 -53q14 -31 15 -37q0 -43 -129 -180l-4 -6q-14 -14 -125 -14q-18 0 -27.5 16t-9.5 30.5t2 16.5q90 90 90 123q0 8 -10.5 42t-21.5 34 t-28.5 -10.5t-21.5 -10.5h-2q-18 4 -45 52.5t-27 84.5z" />
<glyph unicode="-" horiz-adv-x="884" d="M20 442q0 109 21 176l6 25q16 16 84 16h10q217 -10 230 -10l71 27l41 -12q12 -16 112.5 -16.5t111.5 5.5q8 10 34 11l109 -13q14 -29 14 -78q0 -6 -17.5 -55t-17.5 -78q-23 -8 -35 -8t-19 10.5t-33.5 9.5t-35 -12.5t-16.5 -11.5l-69 18l-230 7q-25 -33 -45 -33l-18 8 q-16 18 -127 18t-120 -6t-35 -6t-26 8z" />
<glyph unicode="." horiz-adv-x="407" d="M20.5 125q-0.5 39 12 92t24.5 53q37 0 111 74q27 8 45 8q121 -35 121 -71q-10 -18 -10 -37q0 -6 31.5 -30t31.5 -38q-4 -74 -26.5 -96.5t-35 -22.5t-46 -33.5t-39.5 -33.5l-107 14q-29 10 -86 57l-18 17q-8 8 -8.5 47z" />
<glyph unicode="/" horiz-adv-x="755" d="M-8 -158q0 10 43 137t49 173q33 18 44 32.5t11 34.5l-2 31q-10 6 -12 18v11l12 57q20 4 32.5 22.5t16.5 51.5q-4 4 -4 10v12q0 45 32 167t65 220l32 101q41 25 41 69l-2 15l-8 24v4l37 146v10q0 39 20.5 96t24.5 57q20 4 31.5 16.5t15.5 35.5l-25 47v4q0 10 26 81.5 t26 108.5l-2 17q-2 10 36 32q104 61 175 72h2q20 0 80.5 -15.5t62.5 -29.5q-145 -360 -145 -403v-7q0 -33 -35 -153.5t-51.5 -138t-23.5 -64.5t-20.5 -127t-44.5 -160q-63 -47 -63 -69v-2q2 -8 16.5 -25.5t15.5 -29t-10.5 -29t-32 -95t-32.5 -145.5l-12 -65q0 -4 -13 -21 q-35 -51 -34 -94l4 -51q0 -66 -23 -129l-8 -25q4 -16 -100 -65l-35 -17q-8 -2 -35 -2t-72 10q-100 20 -106 37v2z" />
<glyph unicode="0" horiz-adv-x="1107" d="M20 432q14 39 15 215l-6 275q0 31 61 161l23 45q0 6 -17.5 34t-17.5 42.5t31.5 78t59.5 97t100.5 101t96 66.5t82 -1t76 17.5t52 17.5t128 -15.5t125.5 -15.5q16 0 77 -115.5t77 -181.5q41 -25 54.5 -38t31.5 -173.5t18 -217t-4 -60.5q-74 -51 -73.5 -64.5t3.5 -25.5 t6 -18.5t9 -12.5l8 -8q12 -8 23 -8q4 -4 4 -15.5t-14.5 -76t-14.5 -85t6 -26.5v-4q0 -27 -47 -132.5t-67 -105.5q-41 0 -74 -20q-20 -20 -39 -96l-6 -27q-35 -35 -158 -43l-41 -4q-10 2 -43 2t-53 -25q-90 0 -164 22.5t-102 45.5l-29 24q-37 92 -76 157t-59 85l-23 19 q-14 10 -32 86zM438 729q49 -41 49 -70q-47 -123 -47 -172q0 -2 11 -30q41 -115 41 -144l-3 -39q25 -45 70 -45q20 0 42 20.5t34 41.5l10 22q0 27 21 103l6 22q0 33 -51 84q0 37 45 74q12 14 12 94l-6 137q-33 45 -33 76l8 21q31 41 31 64.5t-20.5 37.5t-20.5 18l2 43v37 q0 207 -59 207h-7q-29 0 -73 -43l-17 -14q-37 -135 -37 -201q37 -23 37 -37q-45 -170 -45 -307z" />
<glyph unicode="1" horiz-adv-x="782" d="M0 1157.5q0 16.5 9 63.5t18 55q27 35 156.5 133t142.5 115h2l61 -11q8 0 12 5q43 51 50 51q74 0 142.5 7t84.5 7q74 -8 74 -16q0 -78 -27 -144.5t-31 -70.5q4 -20 4 -60l-4 -192q0 -51 4 -62v-2q0 -6 -24.5 -27.5t-28.5 -31.5t-4 -24.5t6 -22.5q55 -25 55 -37l-20 -543 q0 -59 6 -65q27 -29 27 -35q12 -125 12 -160t-2 -35q-33 0 -68.5 -19.5t-54.5 -39.5l-20 -19q-6 -10 -47 -10h-9q-68 0 -132 15.5t-98 33t-34 25.5l12 65q14 63 15 101v18q0 8 24 13q25 12 29 47q-2 14 -27.5 37.5t-25.5 35.5v2q16 106 16 323.5t-6 234.5v2q0 2 11.5 13 t11.5 17t-13 21q-37 43 -37 86q0 8 64 65l22 21q0 45 -46 45t-132 -70l-88 -71h-2q-2 4 -46 49t-44 61.5z" />
<glyph unicode="2" horiz-adv-x="1030" d="M10 113q18 12 40 112.5t25 103.5t23 11q57 20 57.5 46t-30.5 65q0 37 162 311l55 90q35 0 49 14q10 4 25 35q0 2 -16.5 24.5t-16.5 29t84 106.5t84 115q0 98 -31 129q-10 10 -18 10q-55 0 -101 -12q-66 -20 -79 -41q-29 -27 -86 -148l-19 -41q-49 0 -107.5 63.5 t-58.5 102.5q0 16 37 128t54.5 129t140.5 52t155 35l195 -8q31 0 42 4t66 -18q160 -66 215 -121q29 -117 29 -165t-6 -61q-33 -35 -33 -46t6 -19t6 -18.5t-4 -14.5q-135 -188 -176 -323q-104 -51 -104 -80l14 -74q0 -25 -20.5 -33t-30.5 -18t-73.5 -127t-63.5 -150 q20 -33 127 -32h8q31 0 56.5 9t71.5 66.5t85 163.5q18 8 80 8q92 -41 92 -67q-33 -238 -51 -256q-61 -39 -62 -66q0 -16 21 -28l20 -13q0 -18 -10 -58t-16 -40l-181 16q-6 0 -28.5 12.5t-29.5 12.5t-56 -10q-147 -35 -199 -35q-6 0 -25.5 24.5t-32 24.5t-24.5 -12 q-31 -31 -168 -31l-155 8q-8 8 -11 82z" />
<glyph unicode="3" horiz-adv-x="954" d="M4 270q0 16 57.5 72.5t63.5 56.5t43 -33.5t94 -68.5t94 -35q51 0 84 14l2 39q63 29 93 72t30 127q0 29 -55 100l-18 23q-8 12 -97 22l-28 3q-4 0 -13.5 21.5t-17.5 21.5q-72 0 -139 -25l-25 -10h-2q-10 0 -41 51q0 61 21.5 122.5t42.5 94.5l20 31q6 6 61 6l119 -4 q37 0 98.5 74.5t61.5 95t-5 43t-19.5 54.5t-51.5 52.5t-76 20.5q-70 0 -143 -33l-25 -12q-25 -16 -81 -95l-21 -24q-29 0 -78 50t-49 67.5t70.5 147.5t91.5 130q221 16 270 43q12 4 57.5 4t177.5 -39t177 -84q16 -18 35.5 -108t19.5 -111q29 -33 29 -41q0 -49 -74 -171 t-96 -122h-2q-31 8 -66 8.5t-51 -16.5q-14 -29 -14 -38t4 -9q139 0 235 -108q43 -49 43 -68q-53 -43 -53 -66q16 -39 39 -38q47 0 47 -11q0 -98 -14.5 -211.5t-33.5 -139.5t-95 -96.5t-86 -74.5t-49 -8q-102 -6 -150 -53q-16 -16 -51 -17q-76 0 -164 21l-33 6 q-74 20 -162 20h-24q-27 0 -52.5 105.5t-25.5 150.5z" />
<glyph unicode="4" horiz-adv-x="1153" d="M0 467l37 160q74 16 74 39q2 10 2 31.5t-15 35.5q115 281 129 295q4 6 20.5 13.5t20.5 21.5q117 311 152 311q61 8 61 33q37 115 70 115q49 0 140 32.5t121 32.5t109.5 -28.5t79.5 -45.5v-2q-29 -113 -28.5 -247t2.5 -170q18 -33 18 -47.5t-2 -16.5q-55 -47 -55 -73.5 t23.5 -36t23.5 -13.5q2 -27 2 -77t-10 -60q-25 -6 -48.5 -31.5t-23.5 -54.5q0 -8 45 -8q106 0 150 35l4 2q12 0 26.5 -17.5t14.5 -30t-4 -20.5q-53 -109 -74 -221q-4 -18 -94 -39l-29 -8q-6 -6 -6 -96l2 -91q0 -27 22.5 -82t22.5 -61q0 -27 -120 -57.5t-152.5 -30.5 t-113.5 36t-112 40q-2 2 -2 4t15.5 88t15.5 139q0 4 23 8q74 8 73 19q0 45 -31.5 60.5t-111.5 15.5q-190 0 -352 -33l-58 -10q-2 -2 -8 -2q-14 0 -43 32q6 33 6 64t-10 41zM358 645q0 -8 46.5 -17.5t101.5 -9.5t69.5 14.5t14.5 55.5v21q0 2 -8.5 9t-17.5 19.5t-9 22.5 t20.5 30.5t20.5 49.5l-12 45v6l16 207q0 16 -2 18t-8 2l-55 -12l-62 -123l19 -51q0 -18 -46 -47q-45 -78 -66.5 -155t-21.5 -85z" />
<glyph unicode="5" horiz-adv-x="1011" d="M31 229.5q0 8.5 46 67.5t56 59q4 0 31 -12q84 -33 127 -33q72 0 137 31q14 14 27.5 57t17.5 48.5t40 20.5t47 26.5t11 72t-16 76.5t-39.5 33.5t-95.5 44.5t-121 27q-78 0 -168 -23l-33 -8q-31 0 -55 117l-8 38q0 4 31.5 35t31.5 53.5t-31.5 40t-31.5 23.5v2 q41 141 61 404q6 80 9.5 83t33.5 13q86 29 139.5 28.5t67.5 -14.5q121 -4 272.5 -4t165.5 14q82 45 95.5 45t40 -45t26.5 -64.5t-45 -132t-63 -112.5h-2q-82 20 -119 29.5t-118 9.5t-99.5 -16.5t-42 -100.5t-23.5 -151v-6q0 -61 58 -62q2 0 22.5 37t32.5 37q207 -6 229 -29 q98 -109 121 -121q20 -8 49 -73.5t29 -124.5q-45 -59 -45 -66q0 -27 12 -39t39 -14q0 -68 -29.5 -179.5t-95.5 -176.5q-8 -8 -29 -35q-43 -57 -65 -58q-57 14 -70 15q-67 -29 -67 -56q-4 -27 -14.5 -37t-106.5 -27t-141.5 -17t-51.5 6q-20 23 -100 22h-29q-16 0 -75.5 50.5 t-59.5 64.5v2q10 14 10 27.5t-13 41t-13 36z" />
<glyph unicode="6" horiz-adv-x="1062" d="M20 670q0 8 31 38.5t31 51t-51 67.5q18 176 31.5 228.5t59.5 147.5t66 116q-8 43 -8 56.5t61.5 61.5t164 94t190.5 46q72 -8 76 -12q31 -39 55.5 -39t32.5 10t72.5 10t72.5 -8q80 -115 79 -201t-9 -94q-84 -55 -117 -55q-29 49 -68.5 88t-66.5 39q-141 -18 -201 -80 q-6 -6 -7 -52t-11 -57q-33 0 -66 -32q-16 -39 -16 -61.5t8 -31.5q158 68 186.5 69t71.5 1q143 0 170 -27q45 -88 78 -88q8 0 34.5 -53t26.5 -67.5t-27.5 -40t-27.5 -42t21.5 -30.5t47 -23.5t28.5 -12.5t3 -34l-12 -231q0 -20 2 -23v-4q0 -23 -45 -104q-61 -117 -86 -117 l-57 16q-45 0 -45 -75v-13q0 -45 -250 -108q-25 -6 -62 -6q-78 0 -176 16l-32 4q-53 53 -129 154.5t-76 136.5q0 8 23.5 41t23.5 49q0 27 -64 43q-16 16 -32 182zM416 559q0 -33 51 -82q6 -6 6 -26l-14 -97q16 -74 33.5 -90t56.5 -16t39 18q0 10 31.5 84t31.5 115l-49 123 q-6 6 -6 18q0 33 16.5 61.5t16.5 37.5q0 20 -29 36q-8 8 -9 36t-4 48.5t-20 20.5q-51 0 -89 -36t-38 -59.5t9.5 -74.5t9.5 -60.5t-21.5 -32t-21.5 -24.5z" />
<glyph unicode="7" horiz-adv-x="1013" d="M43 1356l4 178q0 23 225 27q78 0 86.5 8t131 8t135.5 -12q25 -55 51 -56q16 0 47 19.5t39 19.5q106 10 174 10.5t68 -10.5q-20 -233 -46 -252q-68 -57 -151 -192q-27 -43 -33 -45q-33 -14 -61.5 -123t-28.5 -150q-109 -57 -109 -94q0 -20 29 -30q12 -4 23.5 -7.5 t19.5 -6.5t6 -7q-47 -260 -47 -397l31 -164q0 -20 -100 -51l-33 -11q-18 -6 -78.5 -36.5t-75.5 -30.5q-51 0 -131 40t-80 58v2q8 16 25 109l4 33q0 6 8 12l25 16q16 10 26 19q4 4 4 10q0 25 -53 69q31 86 49 330l6 78q0 6 39 57q23 82 109 246l84 164q6 12 54 21.5t48 29.5 q0 29 -29.5 54.5t-54.5 25.5q-45 0 -151 -31l-37 -10q-29 -29 -49 -121l-8 -28q0 -10 -17 -11q-37 0 -129 43l-31 15q-18 18 -18 174z" />
<glyph unicode="8" horiz-adv-x="1101" d="M10 457q0 41 91.5 197.5t113.5 156.5q10 0 47 -16.5t47 -16.5t19 35q0 29 -28 51.5t-78 54t-79.5 61.5t-29.5 224q0 70 5 86.5t102 127t153 130.5q137 37 307 37q70 -6 78 -14q10 -70 51 -70q45 6 62.5 6t105.5 -74.5t88 -101.5q0 -78 -17.5 -165t-38 -141t-34.5 -54 q-14 -4 -33.5 -10.5t-53.5 -35t-34 -65.5q0 -10 27 -20q94 -43 131 -80t49 -134.5t21.5 -106.5t9.5 -76.5t-7 -67.5q-80 -25 -79 -64q25 -37 24 -45q0 -68 -110.5 -176t-145.5 -108q-2 0 -21.5 10t-29.5 10q-25 0 -47 -31q-8 -12 -86 -16h-27q-94 0 -186 33l-33 10 q-8 -8 -35.5 -8t-95.5 46t-68 64q0 2 11 11q29 31 28.5 43t-15.5 26.5t-65 14.5l-24 -2q-18 0 -44 93t-26 171zM434.5 383q-0.5 -27 27 -55.5t27.5 -30.5q6 -53 23 -72q37 -23 63.5 -22.5t38.5 12.5q59 66 60 152q0 22 -33 55q-2 2 -2 15.5t37 82.5q0 55 -12.5 71.5 t-55.5 45.5t-61 49h-2q-6 0 -25.5 -14.5t-39 -43t-19.5 -61.5q39 -41 39 -56t-4 -17q-61 -84 -61.5 -111zM471 1161q6 -12 16.5 -31.5t45 -51t73.5 -31.5q21 0 55.5 56t34.5 90t-43 77q-4 4 -4 8t7.5 22.5t7.5 37t-32 40t-54.5 21.5t-61.5 -34t-39 -58q35 -55 35 -90 q-41 -39 -41 -56z" />
<glyph unicode="9" horiz-adv-x="1007" d="M10 928l51 243q0 8 -17 28t-17 24q0 53 129 177t180 137t139 13l111 -2q35 16 58.5 16.5t59 -14t66.5 -33t33 -18.5q158 -137 158 -205q-39 -45 -39 -57q8 -31 30.5 -46t26.5 -220q6 -205 16 -228q2 -2 2 -8t-24.5 -31.5t-24.5 -41t9.5 -30t17.5 -22.5t8 -10 q0 -68 -20 -149q-33 -141 -62 -181q-10 -10 -51 -24q-63 -20 -64 -45q0 -20 27 -47q0 -20 -123 -92t-158 -72q-4 0 -6 2q-18 18 -67 18t-85 -10t-67 -10t-102.5 17.5t-87 31.5t-46 133t-30.5 150q0 14 55.5 61t83.5 47l10 -10q25 -63 70 -100t75 -44.5t56 -7.5q49 0 154 68 l35 22q16 18 16 76l-14 137v2q0 16 73 70l25 16q0 23 -51 43q-55 0 -187 -88l-43 -28q-2 -2 -10 -2q-51 0 -190 57q-23 8 -66 53t-76 86l-30 41zM377 1004q0 -23 36 -63t54 -40t46 15.5t44 29.5l16 17q14 12 15 96l-2 69q0 41 -41 82q-2 2 -2 13l14 73v11q0 27 -18 49 q-31 0 -60.5 -17.5t-44.5 -35.5l-14 -17q-33 -90 -33 -117.5t14.5 -44t14.5 -28t-19.5 -51t-19.5 -41.5z" />
<glyph unicode=":" horiz-adv-x="413" d="M20.5 857q-0.5 34 13 93.5t21.5 59.5q39 0 113 73q25 8 45 9q121 -33 121 -72q-10 -18 -10 -37q0 -6 30.5 -28.5t30.5 -36.5q-3 -77 -23 -97q-29 -25 -39 -24.5t-43.5 -33.5t-39.5 -34l-107 14q-33 12 -88 60l-18 14q-6 6 -6.5 40zM23 182q0 -10 34 -63q-2 -6 -2 -19 l4 -41q-2 -10 31 -26q59 -33 115.5 -33t67 18.5t32 31.5t41 22.5t21.5 11.5q27 53 26.5 90t-4.5 41t-23.5 8t-24.5 12.5t-5 22.5l6 53v2q-25 25 -82 37q-4 2 -34.5 2t-116.5 -28q-61 -29 -86 -140v-2z" />
<glyph unicode=";" horiz-adv-x="438" d="M20 147q0 2 17.5 33t17.5 60q0 43 121 100q16 8 61.5 8t49.5 -6q29 -27 37 -47q35 -14 47 -27q37 -37 37 -151l-2 -58q-41 -27 -41 -53q14 -31 14 -37q0 -43 -129 -180l-4 -6q-14 -14 -125 -14q-18 0 -27.5 16t-9.5 30.5t2 16.5q90 90 90 123q0 8 -10 42t-21.5 34 t-29 -10.5t-21.5 -10.5h-2q-18 4 -45 52.5t-27 84.5zM47 915v3q10 49 31.5 82.5t38.5 43.5l16 11q84 31 116 30.5t46 -4.5t39.5 -17t30.5 -20v-4l-5 -51q0 -16 5.5 -23.5t24 -11.5t23.5 -9t5 -41t-27 -89q-2 -2 -22 -12q-57 -27 -70.5 -49.5t-45.5 -22.5t-87 12h-4 q-8 0 -43 17.5t-35 27.5v3q-4 20 -4 36.5t2 22.5q-35 47 -35 65z" />
<glyph unicode="&#x3c;" horiz-adv-x="868" d="M10 764q33 78 60 102q213 131 229 152q23 53 43 53q76 2 76 25q12 41 18 41q20 0 180 114.5t169.5 122.5t9.5 9t2 1q12 0 28.5 -40.5t16.5 -67.5t-13.5 -69t-13.5 -58q-45 -59 -63 -59h-11q-25 0 -34 -11q-31 -74 -70 -73q-4 2 -10 2q-27 0 -39 -33q-262 -170 -262 -203 q0 -41 174 -162l61 -43q10 -39 37 -39h16q33 0 39 -8q35 -31 35 -55q0 -12 74 -57.5t80 -51.5t6 -47t-21.5 -109.5t-46.5 -68.5q-8 0 -53 46t-55 46q-8 -4 -10 -4q-18 0 -107.5 82t-111 82t-27.5 7t-11.5 20.5t-17.5 26t-51 12.5l-29 -3q-29 0 -37 60q0 18 -49 57t-98 68 l-51 31q-16 0 -52 75z" />
<glyph unicode="=" horiz-adv-x="1177" d="M10 524q0 8 22.5 56.5t22.5 76.5q57 10 87 10.5t36 -5.5q8 -14 45 -13.5t49.5 12t26.5 11.5t48 -9.5t36 -9.5l301 -6q31 31 59 31l23 -6q18 -18 167.5 -18.5t151.5 1.5q16 10 49 10.5t33 -10.5q0 -102 -28 -176l-9 -24q-16 -16 -90 -17h-26q-287 10 -303 11l-95 -25 l-51 12q-20 16 -152 16.5t-141.5 -9t-58.5 -9.5l-186 12q-16 31 -17 78zM10 874q0 109 29 179l10 24q16 16 90 17h25q287 -10 303 -11l96 25l51 -12q16 -16 149.5 -16.5t143 9t58.5 9.5l186 -13q16 -31 16 -77q0 -8 -21.5 -56.5t-21.5 -77.5q-57 -10 -87.5 -10t-37.5 6 q-8 14 -44.5 13.5t-48 -12t-26 -11.5t-48 9.5t-35.5 9.5l-301 6q-33 -33 -60 -33l-24 8q-14 18 -163 18.5t-160 -6t-45 -6.5t-34 8z" />
<glyph unicode="&#x3e;" horiz-adv-x="866" d="M20 1214.5q0 40.5 20.5 109.5t45.5 69q8 0 53 -46.5t56 -46.5l10 5q18 0 108 -82t110.5 -82t27 -7.5t11.5 -20.5t17.5 -25.5t50.5 -12.5l29 2q29 0 37 -59q0 -18 50 -57t99 -68l52 -31q18 0 49 -76l10 -26q-33 -78 -59 -103q-213 -131 -230 -151q-20 -53 -43 -53 q-76 -2 -75 -25q-12 -41 -19 -41q-18 0 -179 -114.5t-177 -131.5l-4 -2q-12 0 -28.5 41t-16.5 67.5t13 68.5t13 59q45 59 66 59h10q23 0 33 10q31 74 69 74q4 -2 11 -2q29 0 39 33q262 170 262 203q0 41 -176 161l-60 43q-8 39 -35 39h-16q-35 0 -41 9q-33 29 -33 55 q0 16 -73.5 59t-80 49.5t-6.5 47z" />
<glyph unicode="?" horiz-adv-x="942" d="M0 1272q39 170 61.5 193.5t185.5 75.5t227.5 52t219 -72.5t185.5 -103.5q10 -10 18 -176l4 -53q0 -2 20.5 -15.5t20.5 -19.5q0 -55 -47 -163.5t-59 -121.5q-18 -20 -56 -20h-12q-31 0 -120 -57.5t-106.5 -74t-17.5 -38.5l2 -27q25 0 42.5 -17.5t17.5 -65.5t-4 -48 q-43 0 -119 -39t-78 -39q-27 0 -100.5 23.5t-73.5 42.5v2q2 14 2 43l-12 176q0 43 14 57q205 236 258 236h6q47 0 62 12q4 45 4 123t-21 98q-90 72 -141 72q-23 0 -87.5 -38t-94 -59.5t-44 -46t-17.5 -27.5t-9 -3q-31 0 -81 40t-50 79zM164 84q0 170 82 219q18 10 69.5 24.5 t114.5 14.5q18 0 30.5 -44t24.5 -44h25q18 0 23.5 -5t13.5 -48t8 -58.5t-35 -71t-61 -81.5q-84 -25 -129 -25t-58 12q-23 41 -33 51.5t-24 10.5l-35 -2q-8 0 -12 4t-4 43z" />
<glyph unicode="@" horiz-adv-x="2207" d="M47 397q0 2 31 28t31 55.5t-25 39.5t-25 19q0 113 40 248t40 147v43q31 66 86 65q35 16 35 39q-8 23 -8 47.5t149.5 159.5t188.5 135q14 35 18 41q254 106 375 107q6 0 23.5 -16.5t40 -16.5t48 27.5t27.5 27.5q135 0 281.5 -31.5t233.5 -69.5t87 -60q-2 -12 -2 -32 t17.5 -38.5t38 -18.5t37.5 13h2q14 0 78.5 -60.5t128 -147.5t63.5 -133t43 -84t43 -50q0 -37 -25 -90q18 -18 34 -121t16 -157t-9.5 -64.5t-28 -113t-18.5 -126.5q0 -51 -143 -250l-49 -68q-6 -6 -52 -6h-30q-27 0 -42.5 -20.5t-19.5 -40.5l-2 -23q0 -16 -157 -53l-54 -12 l-151 49q0 63 -84 63h-8q-33 0 -54.5 32t-29.5 71q-23 102 -39.5 102t-16.5 31v33l-24 10q-8 0 -30.5 -29.5t-75 -63.5t-93.5 -54l-43 -19q-59 0 -117.5 37t-89 71.5t-30.5 39t6 10.5q25 20 24 41q0 35 -73 53l-25 6q0 92 17.5 178t35.5 127l17 39q25 31 156.5 100.5 t211.5 69.5q6 0 21.5 -13t27 -13t29.5 10q33 16 33 33q0 31 -29 79q-18 23 -145 35l-41 4q-47 0 -117 -29.5t-74 -29.5t-21.5 24.5t-17.5 36t38 84t53 82.5q25 14 151.5 48t181.5 34q92 -59 160 -73.5t131.5 -60.5t63.5 -91q0 -4 -19.5 -43t-19.5 -63.5t12 -43.5l10 -18 q0 -102 -6 -117q-23 -45 -22.5 -50t9.5 -13t9 -15v-2l-2 -28l2 -107q0 -49 -6 -49q-66 -41 -66 -98q0 -20 45 -33q14 -4 15 -6l10 -64q0 -37 53 -83t92 -46t103.5 46t73.5 63q86 129 86 215q-31 37 -31 78q0 10 30.5 38.5t30.5 41.5v14q0 317 -119 434q-8 8 -38.5 23.5 t-30.5 33.5q6 23 6 49.5t-12 39.5q-125 125 -162 124q-6 0 -9 14.5t-19.5 29t-55.5 14.5q-150 74 -365 74q-47 0 -116.5 -29t-113.5 -29t-142.5 -52t-98.5 -85q0 -39 -20.5 -56.5t-81.5 -17.5q-25 -20 -25 -34.5t7 -20.5q-137 -158 -150 -213q-49 -246 -49 -331t10 -93 q35 -43 35 -56.5t-20.5 -44t-20.5 -36.5v-4q0 -53 18 -54q12 2 27.5 2.5t15.5 -8.5q0 -84 90 -211t127 -127l13 4q6 0 41 -14q100 -45 221 -45q41 0 82 11.5t43 11.5q14 0 14 -27q-10 -111 -55 -156q-78 -72 -78 -92q-100 -14 -147 -14t-54 6q-8 55 -18 66q-25 8 -37 8 t-14 -2q-43 -43 -51 -43q-39 0 -133.5 57t-133.5 94q-25 68 -66.5 130.5t-68.5 62.5q-16 0 -46 63.5t-56.5 184t-26.5 245.5zM991 361.5q0 -21.5 28 -49t47 -27.5t63.5 36t44.5 52q-12 25 -13 57l6 102q0 14 -4 15q-29 0 -92 -33t-63 -59q14 -25 14 -40.5t-6 -21.5 q-25 -10 -25 -31.5z" />
<glyph unicode="A" horiz-adv-x="1253" d="M0 51v4q31 39 74 166l16 45q27 0 62.5 32t35.5 45t-22.5 43t-22.5 36v2l76 188q0 45 48 317.5t48 319.5l-26 119q0 18 156.5 103t185 91.5t104.5 6.5t142 -15q139 -31 139 -59q0 -2 -10 -53q-33 -160 -33 -254q0 -10 20.5 -15.5t20.5 -7.5q0 -66 40 -396.5t68 -416.5v-2 q0 -4 -31.5 -26.5t-31.5 -49t31.5 -37t62.5 -15.5t31 -21q-2 -4 -2 -14.5t6 -36.5q6 -41 49 -109l12 -21q0 -35 -115.5 -74.5t-172 -39.5t-110.5 21.5t-88 46t-34 34.5q0 2 4 23q10 51 10 110l-45 281q0 8 37 14t37 27q0 27 -30.5 45t-74.5 18t-104.5 -22.5t-70 -42 t-30 -182t-20.5 -242.5q0 -16 -108.5 -45t-179.5 -29q-37 0 -121 53l-27 17q-6 6 -6 18zM530 811q0 -39 11 -39q18 0 55 13.5t73 13.5t36 16l-3 6q-26 81 -26 249v13v9q0 43 -19 43q-82 0 -82 -48l9 -94q0 -12 -27 -77.5t-27 -104.5z" />
<glyph unicode="B" horiz-adv-x="1165" d="M41 1442q0 27 82 75t125 48q90 45 137 45q18 0 58 -70t46.5 -70t57.5 31q150 90 220.5 90t172.5 -62.5t102 -98.5l-26 -27q-27 -27 -27 -53q0 -23 40 -32t40 -13q0 -195 -94 -289q-23 -23 -69 -53.5t-71.5 -56t-25.5 -58.5q8 -31 20 -31q4 0 48.5 23.5t76.5 23.5 q12 0 54.5 -48t84.5 -138t42 -153.5t-14.5 -131t-14.5 -77t-10 -15.5q-25 -14 -39 -14q-45 -27 -45 -50.5t28 -64.5q0 -14 -48 -59t-85 -71t-117.5 -60.5t-120.5 -34.5t-130 31.5t-96.5 31.5t-41 -38t-55.5 -38q-70 0 -177.5 66t-107.5 90q0 4 15 37q41 94 41 254l-4 92 q0 2 14 8q47 18 47 51t-34 62t-34 33v2q14 45 15 155l-6 260v29q0 12 -15.5 37t-15.5 40t26.5 50t26.5 57.5t-48 102.5t-48 82zM477 991q0 -12 10.5 -31.5t18.5 -19.5q63 20 63 35q0 4 47.5 30.5t47.5 59.5q0 8 -8.5 22.5t-8.5 31t12 48.5l11 31q0 29 -29 70t-53.5 41 t-53 -21.5t-30.5 -32.5v-4l10 -176zM502 356q0 -39 11 -69.5t24 -30.5q16 0 60 11.5t58 23.5q20 20 43 70.5t23 70t-33 58t-33 49.5l17 69q0 23 -36 44.5t-54.5 21.5t-48 -42t-29.5 -54l6 -89v-18z" />
<glyph unicode="C" horiz-adv-x="1093" d="M31 846q0 51 22.5 142t22.5 113.5t-11.5 53.5t-11.5 33q0 51 149.5 184t235.5 164q156 45 396 45q55 0 119.5 -72.5t64.5 -93.5q0 -2 -20.5 -30.5t-20.5 -50t33.5 -46t35 -35t1.5 -30.5q0 -80 -20.5 -112t-70 -82t-67.5 -56q-86 -29 -199 -29q-8 0 -20.5 14.5t-12.5 20.5 t2 6q33 35 33 174q0 23 -17.5 42.5t-17.5 27.5v4l2 14q0 33 -12 63.5t-39 30.5q-49 0 -100 -54t-51 -103l4 -27q0 -6 -14.5 -72.5t-14.5 -119.5q0 -8 24.5 -32t24.5 -47.5t-32.5 -52t-32.5 -43t13 -28.5t25.5 -22.5t12.5 -12.5q-6 -25 -6 -100v-99q0 -66 -4 -88v-4 q0 -41 55 -109.5t117 -68.5q31 0 100.5 90t69.5 172q0 10 24 10h6q14 -2 77 -36.5t80.5 -52t47 -70t29.5 -58.5q0 -76 -108.5 -196.5t-143.5 -120.5q-4 0 -22.5 17.5t-31 17.5t-57.5 -19q-131 -59 -245 -59q-43 0 -155 67.5t-142 116.5q-55 88 -90 185.5t-35 123.5l30 29 q31 29 31 55.5t-27.5 52t-26.5 32t1 34.5z" />
<glyph unicode="D" horiz-adv-x="1157" d="M20 1449q0 3 5 13q14 35 36.5 48.5t173 48t202.5 34.5t190.5 -24.5t187.5 -49t143.5 -115.5t94.5 -114q0 -6 -18.5 -37.5t-18.5 -46t39 -38t43 -44.5q20 -113 24 -170l2 -49q0 -37 -2 -102l-2 -66l6 -90q0 -16 -6 -18q-31 -27 -30 -107q-18 -131 -35 -139 q-84 -14 -84 -64q0 -20 19.5 -37.5t19.5 -25.5t-54.5 -70.5t-112 -101.5t-141.5 -81t-124 -42q-4 0 -13.5 12.5t-21.5 12.5l-197 -17q-106 0 -221 29l-41 10q-10 4 -20.5 20.5t-10.5 24.5l2 4q35 53 35 217v5q0 4 32 21t32 46t-37 57.5t-37 34.5v2q20 86 20 406v57 q0 55 -20 101v4l20 53q4 12 4 47l-8 174q-10 63 -43 113.5t-33 53.5zM449 255q0 -7 14 -22.5t40.5 -15.5t68.5 21.5t65 42.5l22 20q41 41 41 137l-8 88q0 6 30 22.5t30 35.5q0 33 -43 63q-25 8 -37 43q0 4 14 43q43 117 43 148.5t-4 44.5q-23 39 -31 170t-26.5 164.5t-50 58 t-54.5 33.5l-22 8q-14 0 -30.5 -10.5t-14.5 -22.5t2 -92t-11 -158v-2q0 -10 24 -35.5t24 -42t-30 -50.5t-30 -48t26.5 -35.5t26.5 -29.5q-2 -68 -19 -111t-17 -157.5t16 -213.5q0 -39 -45 -78q-14 -12 -14 -19z" />
<glyph unicode="E" horiz-adv-x="1040" d="M41 16q0 4 10 41q33 115 33 161t-4 61q0 2 25.5 19t25.5 46t-37 52.5t-37 25.5l19 86q18 86 18 116.5t-5 47t-5 18.5v4q16 78 16 173.5t-7 178t-7 85t20.5 18.5t20.5 37.5t-21 60.5q-57 117 -57 271q0 23 141.5 40t270.5 17q27 0 45 -22.5t31.5 -22.5t121 20.5 t168.5 20.5q150 0 150 -35q0 -59 -24.5 -158.5t-37.5 -111.5q-20 -25 -102 -25q-8 0 -21.5 29.5t-49 59.5t-78.5 30t-92.5 -17.5t-61.5 -30t-12 -103.5t10 -136v-6q0 -14 -41 -26.5t-41 -79.5q0 -11 61 -11l334 19q63 0 64 -19q0 -55 -47 -173t-74 -118l-35 21 q-35 18 -74 18q-147 0 -159.5 -12t-12.5 -185t33 -206t135.5 -33t130 27.5t57 75t48 81t20.5 33.5q18 0 70.5 -51t52.5 -74.5t-44 -168t-62 -162.5q-2 -4 -17 -5l-116 13q-74 0 -123.5 -5.5t-56.5 -5.5t-32.5 12.5t-37 12.5t-18.5 -6t-13 -16q-14 -25 -37 -25l-86 10 q-59 0 -128 -14t-99.5 -14t-74.5 11t-44 25z" />
<glyph unicode="F" horiz-adv-x="1011" d="M41 1505q0 14 125 29.5t125 28.5q10 6 26.5 6t92 -8.5t84.5 -16.5l8 -20q8 -18 28 -18l1 -1q21 1 112 25q92 24 164 24l80 17q104 -20 110 -25q4 -8 4 -39.5t-8 -76.5v-5q-47 -189 -69 -211t-84 -21h-6q-66 1 -66 24v6q0 51 -30.5 80.5t-83 29.5t-126 -32.5t-73.5 -51.5 q0 -4 21.5 -21.5t21.5 -31.5t-9 -25q-12 -18 -12 -100t10.5 -92t73.5 -10l303 8q39 0 44 -5t5 -60.5t-34.5 -144.5t-57.5 -89h-2q-4 2 -6 2q-70 29 -171 29t-161 -21q-94 -33 -94 -86q0 -27 51 -27q8 0 37 5h2q8 0 8 -43l-2 -48q-10 -141 -10 -203.5t19 -123.5l18 -62 q0 -6 -6 -10q-16 -6 -68 -39q-125 -80 -179 -80t-100 13.5t-73 28t-27 20.5q0 10 21.5 68.5t21.5 107.5q0 10 -20.5 23.5t-20.5 32t13.5 51t13.5 34.5v8l-2 103q0 27 4 108v9l2 36q0 43 -7 86t-7 45.5t32.5 31t32.5 45t-6 25.5t-15 14t-18 9q-23 10 -22 13q10 102 10 141 l-6 225q25 33 25 41t-19 27q-18 10 -33.5 81.5t-15.5 106.5z" />
<glyph unicode="G" horiz-adv-x="1114" d="M20 737q0 41 43 131q12 25 13 123l-4 174q0 53 153.5 217t208.5 164l43 -22q6 0 130 18.5t167 18.5t116 -14.5t83 -25t10 -45t-7 -70.5t-31.5 -100.5t-36 -76.5t-39 -12t-30.5 3t-18.5 23.5t-29.5 34.5q-37 41 -109 41q-18 0 -75.5 -24.5t-88.5 -55.5 q-10 -10 -24.5 -69.5t-14.5 -106.5q0 -8 -45 -31q-18 -25 -18 -36t33.5 -28.5t33.5 -23.5q0 -23 -26 -76q-16 -53 -17 -214v-31q0 -131 4 -135q5 -5 19 -15q37 -25 37 -35q-4 -16 -4 -39q0 -76 47 -123q14 -14 57 -14q23 0 58.5 63.5t35.5 112.5q0 4 -17.5 39t-17.5 84 l21 25q18 23 18 48t-15 43.5t-23.5 20.5t-18.5 2l-76 -8q-12 0 -12 6q0 61 34 138t58 102q6 6 35 6l55 -2q61 0 80 18q18 18 116 18h11q107 -1 124 -18.5t17 -77t-4 -63.5q-45 -31 -51 -53.5t-6 -37.5t29.5 -29.5t29.5 -24.5q0 -31 -18.5 -88.5t-18.5 -71.5q0 -98 9.5 -183 t9.5 -142.5t-14 -77.5q-29 -29 -76 -49.5t-70 -20.5q-4 0 -46 38t-60.5 38t-48 -23.5t-64.5 -51.5t-93.5 -51.5t-113.5 -23.5t-153.5 51.5t-124.5 77.5q-8 6 -23.5 32t-22 32t-36 19.5t-39.5 23.5t-22.5 172t-28.5 194v2q0 2 27.5 23.5t27.5 49.5t-15.5 47.5t-31 31.5 t-15.5 14z" />
<glyph unicode="H" horiz-adv-x="1212" d="M41 29l2 4q78 129 78 565l-10 205q-33 33 -33 92v8q0 2 31.5 26.5t31.5 43t-12 31t-23.5 20.5t-11.5 12q8 31 8 124t-32 241q0 2 -2 8v2q0 23 122.5 92.5t155.5 69.5t105.5 -23.5t72.5 -37t-13 -115t-15 -109.5l-15 -33q0 -18 22.5 -51t22.5 -45t-6 -24 q-25 -45 -25.5 -84t-0.5 -80t5 -46t42 -5q100 0 139 36q35 39 35 234.5t-19 265.5v2q0 23 96.5 87.5t142.5 64.5t123 -28t77 -50v-2q-50 -115 -50 -295l5 -123q0 -4 -28 -27.5t-28 -42t22.5 -39t41.5 -20.5q8 0 8 -46t-4 -55.5t-12 -23.5l-9 -18v-29q0 -356 19 -408v-2 q0 -4 -28 -32.5t-28 -50t16.5 -29.5t34 -10.5t17.5 -4.5q0 -25 26.5 -78t38 -65t11.5 -16q0 -29 -108.5 -94.5t-157 -65.5t-131 51t-91.5 64q-12 18 -16 155v47l37 23q35 25 35 53.5t-35 36.5t-35 11t10.5 50.5t10.5 131.5t-15 98q-10 6 -20 6q-109 0 -176.5 -42t-67.5 -85 q0 -25 43 -25l29 5q6 -2 6 -13l-10 -207q0 -106 13 -159.5t13 -80t-3 -30.5t-42 -29.5t-97 -53.5t-99 -28t-140.5 35t-99.5 60z" />
<glyph unicode="I" horiz-adv-x="569" d="M41 1450q0 16 95 74.5t135 58.5t132.5 -25.5t92.5 -56.5q0 -23 -22.5 -113t-22.5 -102t13 -21.5t13 -21.5q-23 -228 -23 -310q0 -81 3 -99q2 -14 12 -30t10 -32q0 -2 -31.5 -28.5t-31.5 -47t34.5 -49.5t34.5 -59q-6 -41 -7 -44t-31.5 -24.5t-30.5 -30.5v-14q0 -27 41 -41 q20 -8 20 -18q-4 -39 -4 -135.5t55 -206.5q0 -10 -23.5 -26.5t-33.5 -24t-27.5 -21.5l-27.5 -22q-29 -23 -41 -23q-59 0 -195.5 22.5t-136.5 45.5q0 12 10 102t13 100l14 29q18 203 18 266.5t-5 157.5t-10 148.5t-5 57.5t16 13q45 31 45 65.5t-33.5 52t-33.5 23.5 q0 20 10 95t10 116t-25.5 115t-25.5 84z" />
<glyph unicode="J" horiz-adv-x="1048" d="M10 451q0 23 101.5 98.5t146.5 75.5t90 -15q55 -14 55 -22t-16 -60.5t-16 -76t24.5 -41t24.5 -21.5q0 -29 -22.5 -65.5t-22.5 -38.5q0 -27 38 -62t58 -35q31 0 86 48q31 31 31 128t-10.5 107t-10.5 76v16q0 4 31 25.5t31 46t-28 41t-28 18.5l2 43q4 86 5 245v10 q0 150 -15 194v2q0 12 35 39.5t35 29.5q0 18 -14.5 35t-43 17t-59.5 -20.5t-46 -41t-23.5 -20.5t-43 28.5t-34.5 45t21.5 99.5t31.5 95q20 18 154.5 59t218.5 41q14 -10 18 -16t8 -6l142 14q25 0 34 -9t9 -134q0 -31 -33 -103.5t-33 -84t24.5 -33t24.5 -33.5t-28.5 -40 t-28.5 -45.5t30.5 -57t30.5 -46t-1 -6.5t-1 -2q-37 -66 -37 -239v-144l13 -286q0 -29 -7.5 -64t-61.5 -114.5t-83 -79.5l-65 20q-8 0 -23.5 -18.5t-39 -41t-135.5 -58.5t-151 -36q-98 0 -196 61.5t-148 115.5q-2 2 -19 8t-22.5 11t-5.5 32q0 55 19 151l6 31z" />
<glyph unicode="K" horiz-adv-x="1155" d="M41 1444.5q0 19.5 95 77t134 57.5l115 -4q92 -13 92 -29l-31 -200q18 -8 19 -21v-12l-25 -152q0 -2 -2 -6v-45q4 -66 13 -74q29 -27 37 -26.5t8 1.5t4 4t39.5 100t44 104.5t36 9.5t35.5 10q12 23 13 37l-19 53q0 2 1 2t1 2q76 137 90 205q2 10 106.5 47t117 37t23.5 -10 t22 -10l49 6q8 0 52 -28t44 -36t-38 -47t-42 -47q-25 -49 -49 -49q-23 6 -27 6q-43 -23 -43 -39t11.5 -32.5t11.5 -21.5t-25 -32q-80 -92 -104 -131q-102 -162 -102 -182q0 -8 120 -60q47 -20 85 -68t38 -112q0 -23 8.5 -54.5t8.5 -49t-19 -35.5q-18 -35 -18 -49 q0 -23 65 -41q8 -10 14.5 -103.5t6.5 -146.5q90 -125 90 -150q0 -20 -120 -71.5t-148.5 -51.5t-94 23t-79.5 35q-20 20 -33 141l-4 41v2q0 2 24.5 20.5t24.5 49t-53 30.5h-5q-12 0 -12 50v8l-14 184q0 27 4 37v6q0 33 -45 82t-96 49q-12 0 -33 -30.5t-21 -40t26 -31 t26 -32.5t-8.5 -29.5t-8.5 -79.5v-9q0 -25 14.5 -40t14.5 -23t-9.5 -21.5t-25.5 -23.5q-14 -14 -14 -43v-8q0 -4 17.5 -17.5t17.5 -21.5v-2q-4 -25 -5 -58l9 -162q0 -18 -57.5 -36.5t-104.5 -47t-90 -28.5t-119 33.5t-76 56.5l27 233q2 18 2 60l-6 176q0 8 33.5 27.5 t33.5 42t-39 48t-39 31.5q0 143 19 297l6 52q-25 39 -25 180q0 2 15.5 9t15.5 22q0 68 -25.5 137t-25.5 88.5z" />
<glyph unicode="L" horiz-adv-x="1044" d="M41 1121.5q0 11.5 23.5 68.5t23.5 72l-35 180q0 16 88 80.5t146.5 64.5t149.5 -14t91 -29q0 -25 -15 -130t-26 -111q-49 -25 -49 -52.5t32 -55.5t32 -36v-2q-16 -227 -16 -312q0 -11 -1 -20q-1 -67 3 -79q4 -14 21 -32t17 -28t-21.5 -42t-21.5 -58q6 -63 6 -99t-4 -41 q-71 -71 -71 -121q0 -11 10 -30t17.5 -19t46 30t59.5 30h6q70 -14 131 -14t80 18q70 70 110 164q10 25 17 24q57 0 105 -49t48 -82q-12 -63 -31.5 -87t-19.5 -38l6 -39q0 -29 -33.5 -105.5t-39.5 -84.5q-23 -20 -105 -20q-156 0 -284 16l-48 6q-35 0 -59 -23.5t-74 -23.5 l-184 12q-102 0 -102 25v4q10 35 10 111l-10 172v2q0 10 38.5 38.5t38.5 51t-18 43t-57 32.5q-4 12 -4 25l12 82q4 29 4 53l-18 328q0 6 16 18q31 23 31 39l-11 45q-12 12 -30 21q-31 10 -31 21.5z" />
<glyph unicode="M" horiz-adv-x="1660" d="M41 51q0 4 14 58q45 168 45 294q0 2 -22.5 14.5t-22.5 18.5l43 215q-6 35 -6 332v100q0 2 14 11q39 29 39 50t-6 33.5t-15 20.5t-18.5 14.5t-14.5 9.5t2 21t7 98l-8 154q0 12 101.5 52t115.5 40l51 -22q12 0 34 1t67 3q102 2 100 4q145 -29 146 -55q0 -55 12 -154.5 t37 -126.5q0 -4 -27 -39t-27 -65q0 -10 29 -22.5t29 -18.5q20 -207 31.5 -225.5t42.5 -18.5q8 0 14 24q23 94 35 107q23 225 37 242q61 33 61 65q0 18 -20.5 40t-20.5 27t24.5 81.5t36 88t157 47.5t181.5 36q252 -10 252 -45q-39 -150 -39 -172.5t2 -22.5q18 0 19 -215v-37 q0 -4 -17 -12q-51 -31 -51 -76q0 -2 31 -25.5t31 -35.5v-2q-20 -94 -21 -375l2 -131q10 -23 11 -76v-23q0 -6 -28 -34.5t-28 -40.5q0 -27 60 -35q0 -47 43 -152l14 -35q0 -18 -118 -61t-187 -43q-25 0 -107 34t-82 50l33 176l-8 258q0 2 25.5 29.5t25.5 47t-11 33 t-23.5 18.5t-12.5 7q0 25 25 82q0 53 -7.5 185.5t-15.5 132.5l-35 -17q-6 -6 -55 -212t-49 -216t10 -34.5t10 -34t-11 -20.5t-27.5 -23.5t-20.5 -16.5l-10 -33q0 -14 18.5 -33.5t18.5 -24.5t-30 -47t-82 -87t-92 -45t-138.5 29.5t-98.5 46.5l-18 96q0 2 14 8q45 18 45 51 q0 23 -42 31t-42 21q0 135 -71 428l-23 96q-2 0 -2 1t-2 1l-25 -12q-14 -14 -14 -203l6 -301q23 -70 23 -91.5t-2 -23.5q-49 -35 -50 -74v-8q0 -10 17.5 -19.5t21.5 -13.5q4 -8 5 -20l-3 -51l11 -82q0 -27 -13 -29l-77 -35q-80 -35 -100.5 -35t-101.5 29t-81 45z" />
<glyph unicode="N" horiz-adv-x="1257" d="M41 1471.5q0 9.5 63.5 49.5t81.5 40h11q113 0 135 16q29 2 69 2q213 0 248 -35q37 -133 37 -160v-4q-41 -33 -41 -84q0 -8 48 -20t48 -35l-8 -72q0 -27 54.5 -176t64.5 -159q16 -10 27.5 -10.5t11.5 10.5v18q0 305 -33 342q0 8 20.5 35.5t20.5 38.5q-12 45 -51 84 q-4 4 -4 14t15 40t15 38l-22 92q0 4 41 29q117 73 188 73h2q133 -4 134 -24q-45 -293 -46 -410q41 -45 41 -61.5t-27.5 -45t-27.5 -32.5l12 -55q-6 -180 -6 -310.5t6 -164.5q-51 -51 -51 -89q70 -45 70 -71q0 -6 -11.5 -17.5t-11.5 -49.5t11.5 -92t23.5 -81l12 -29v-2 q0 -10 -49 -40.5t-121.5 -58.5t-109.5 -28t-155 20.5t-118 35.5q0 57 -18 145t-37 133l-12 23q0 2 6 10q25 31 25 52.5t-13.5 31.5t-31 18.5t-21.5 12.5q0 63 -65 282l-21 72q-12 12 -51 16q-8 -8 -8 -135l4 -311l-2 -31q-14 -14 -25.5 -40.5t-11.5 -35.5q0 -25 63 -28 q0 -33 14.5 -100.5t14.5 -73.5q0 -18 -27 -29q-88 -41 -147 -72l-35 -18q-2 -2 -21.5 -2t-97.5 27.5t-78 37.5q0 106 37 220l13 38q-2 2 -2 21l8 254q0 59 -6.5 65.5t-6.5 57.5l3 65q0 2 12 11q37 25 37 61q0 14 -41 51l-19 17q-4 4 -4 24l10 115l-18 125q0 2 16.5 22.5 t16.5 37t-39 138t-39 131z" />
<glyph unicode="O" horiz-adv-x="1208" d="M20 674l25 278q0 6 24.5 41t24.5 43l-4 176q0 80 6 88q27 37 170.5 143.5t214.5 106.5q14 35 31 35q102 6 238.5 6t158.5 -22q2 -2 47 -43t76 -72t60.5 -76t29.5 -75l-41 -52q23 -47 65 -197.5t42 -215.5q-8 -319 -31 -320q-67 -26 -67 -53q0 -41 40 -78 q0 -45 -30.5 -113.5t-64.5 -115.5t-44 -47q-47 0 -109.5 -27t-101.5 -53l-39 -27q-20 -18 -188 -37l-55 -6q-86 0 -178.5 72.5t-140.5 140.5t-48 76t9.5 34.5t9.5 51.5q0 49 -64 49l-16 -2q-16 0 -41 219zM479 1008.5q0 -17.5 28 -40t28 -34.5q-47 -229 -48 -332 q0 -23 50 -72q4 -4 4 -15t-19.5 -55t-19.5 -52q0 -55 49 -112.5t92 -57.5q27 0 46.5 21.5t35.5 41.5l18 21q2 2 2 6t-23.5 42t-23.5 52t21.5 78.5t21.5 93.5l-32 33q-2 2 -2 12v4q0 35 -15 49l-2 6q4 20 49 74q10 10 11 84l-11 199q0 18 -31.5 42.5t-31.5 30.5q0 53 29 121 l10 23q0 25 -56 55l-18 10q-35 0 -84 -50t-49 -89l33 -94q0 -4 -31 -41t-31 -54.5z" />
<glyph unicode="P" horiz-adv-x="1073" d="M29 1497q115 100 211 100q133 -14 141 -24q20 -23 43 -98l8 -27q14 -10 22.5 -10t10.5 4q59 84 74 123q117 6 170 6l22 -2h4q27 -4 86.5 -23.5t71.5 -32.5q63 -63 123 -198q20 -45 26 -49v-2q0 -6 -31.5 -42t-31.5 -46v-2q0 -20 16.5 -34t38.5 -14q19 0 19 -53l-6 -133 q0 -35 6 -55v-6q0 -41 -82 -153t-105.5 -112t-96.5 -54t-73 -71q0 -12 -109.5 -29.5t-109.5 -21.5q0 -203 33 -323l10 -39q0 -14 -62.5 -44t-72.5 -40q-23 -23 -96 -35q-37 0 -143.5 26.5t-106.5 47.5q23 47 39 223l4 61q0 2 8 9q29 14 29 43.5t-36 53t-36 28.5q0 25 29 75 l10 19l4 141q0 70 -6 76t-6 14l24 103q4 29 4 65q0 106 -24 266l-10 58l28 47q0 37 -53 145zM455 1024q0 -16 4 -20q31 -29 30.5 -42.5t-5.5 -18.5t-5 -34l2 -90q0 -45 -6 -57q31 -35 54.5 -35t68.5 20.5t45 36.5l-25 39q0 2 5.5 7.5t12.5 19.5t15 37q18 51 19 164 q0 2 -27 23.5t-27 31.5q0 18 35 96l13 25q0 25 -25 47t-49 33l-23 10q-86 -72 -86 -107l13 -135q-39 -35 -39 -51z" />
<glyph unicode="Q" horiz-adv-x="1228" d="M20 616q0 106 17.5 230.5t36.5 193.5l16 70q80 4 80 51q0 8 -26.5 35t-26.5 41q61 164 143 244q20 14 59 34.5t168 55.5t271 35q27 0 120 -43t113 -66q121 -160 121 -221q-51 -35 -51 -90q0 -12 16.5 -15.5t39 -6.5t32.5 -13q6 -29 6 -83t-14 -128q49 -131 49 -185.5 t-14.5 -122t-22.5 -71.5q-59 -23 -59 -59q0 -41 45 -64q14 -8 14 -10q0 -29 -30.5 -71t-61.5 -71.5t-31 -31.5q14 -70 121 -168q25 -23 57 -47q0 -33 -57 -83t-115 -85l-59 -35q-18 -6 -43 -6q-57 0 -129 23q-31 31 -37 94l-2 20q0 2 23.5 17.5t23.5 21.5q0 29 -47 55 q-29 0 -76 -25.5t-80 -51.5l-30 -27q-102 0 -220 60.5t-184 121.5l-67 60q-20 25 -43 108l-7 27q31 35 31 75t-35 119.5t-35 87.5zM465 516q0 -74 35 -147l12 -25q61 -59 102 -59q74 14 74 28q-10 10 -34.5 63.5t-24.5 61.5q0 14 108 94l35 27q0 45 -70 86q0 45 15.5 150.5 t15.5 135.5t-33 46q0 35 13.5 130t20.5 102.5t7 13.5q0 29 -58 79t-85 50q-14 0 -59 -59.5t-45 -80t20.5 -49t20.5 -39t-23 -60.5t-23 -63.5t4.5 -18t4.5 -24.5l-27 -256q0 -29 6 -34q37 -59 37 -71.5t-24.5 -44.5t-24.5 -36z" />
<glyph unicode="R" horiz-adv-x="1198" d="M31 1450q0 12 54 46t137 63.5t145 29.5q16 0 34.5 -54t18.5 -83q8 -8 16 -8t13 4q115 111 126 115q100 10 212 10t137 -25q102 -100 102 -182q-49 -37 -49 -70q0 -27 45 -26l45 4q20 0 20 -78t-9 -141.5t-21 -75.5q-100 -102 -234 -172q-10 -20 -10 -26.5t4 -6.5 q70 0 155 -56t85 -91q-4 -29 -4 -76q0 -279 135 -414v-2q0 -18 -78 -86.5t-100 -68.5q-84 0 -170 14t-111 39q-2 2 -4 33q-6 94 -12 114q0 4 14 13q43 29 43 61q0 18 -39 23.5t-39 13.5q0 66 -18 201l-6 45q-6 25 -26.5 51t-39.5 39l-18 14q-33 0 -95 -47l-20 -14 q0 -14 49 -80q-26 -130 -26 -221v-7v-22q8 0 20 -13.5t12 -19.5l15 -174q0 -16 -4 -16q-41 0 -118 -45t-118 -45q-2 0 -23 4q-72 14 -98 14q-45 0 -112 65l-23 21q29 57 35 211l2 51q0 2 17.5 11.5t33.5 26.5t16 36q0 14 -31.5 26.5t-31.5 20.5q0 106 17.5 204.5t17.5 109 t-9.5 20.5t-11.5 90q-2 272 -24 348q0 4 18.5 15.5t18.5 21.5q0 68 -62 180q-18 35 -18 37zM477 1260q12 -18 25.5 -66.5t13.5 -91.5q0 -4 -16.5 -20.5t-20.5 -16.5q12 -96 12.5 -137t-2.5 -49q16 -21 36 -21q21 0 83 52t62 64.5t-14.5 40t-14.5 39t20.5 38t20.5 34.5 q0 76 -17.5 129.5t-35.5 69.5l-19 16q-29 0 -81 -33.5t-52 -45.5v-2z" />
<glyph unicode="S" horiz-adv-x="1050" d="M10 1017.5q0 20.5 28 102.5t85 196t121 177q43 29 148.5 51.5t223.5 22.5q35 -55 86 -56q45 20 46 72q0 6 67 6q135 0 136 -34.5t1 -94t-4 -92.5q23 -98 23 -117v-2q-12 -25 -67.5 -60.5t-69 -35.5t-13.5 6q0 37 -78.5 99.5t-144.5 62.5q-39 0 -102.5 -66.5t-63.5 -111.5 q10 -51 43 -51q18 0 43 22h2q18 0 121.5 -70.5t110.5 -89.5q25 4 42 4t25 -4q49 -39 102.5 -105.5t61.5 -86.5q47 -109 47 -350q0 -74 -156.5 -253t-222.5 -179q-6 0 -20.5 25.5t-36 25.5t-47 -33t-39.5 -33q-137 0 -245.5 21.5t-147.5 44.5l-41 22q-12 12 -27.5 128 t-15.5 210q0 14 82 68l26 18q20 14 103 27q2 0 2 -17l-2 -45l53 -131q10 -6 72.5 -27.5t93.5 -21.5q55 0 111.5 66.5t56.5 93.5q0 47 -56 123l-18 26q-150 94 -180 95q-37 -10 -48.5 -10.5t-31 24.5t-19.5 33l15 61q0 16 -43 29l-58 -10q-23 0 -101.5 102t-78.5 122.5z" />
<glyph unicode="T" horiz-adv-x="1150" d="M4 1156q0 11 42 204.5t52 195.5q96 -10 123 -18q256 25 291 25l90 -11q82 33 92 33q33 -14 49.5 -29.5t61.5 -15.5l248 16q16 0 18 -2q12 -12 44 -152t32 -220q0 -16 -60.5 -58.5t-99.5 -42.5q-4 0 -14 33q-35 113 -92 170q-74 27 -109 27t-42 -3t-20.5 -15.5 t-13.5 -32.5q94 -43 95 -58q-10 -133 -11 -262q-49 -41 -49 -53q0 -27 16.5 -43.5t33 -22.5t16.5 -8q-13 -221 -13 -369v-16q0 -136 9 -182q47 -117 47 -168q0 -16 -48.5 -39t-78.5 -31q-51 -12 -90 -51q-111 0 -183.5 10t-91.5 21l-16 10l35 125q4 6 4 63l-2 156q0 33 2 33 q25 0 49 53q0 10 -36 47t-36 45l31 60q4 16 4 45l-6 190q0 37 6 43t6 15.5t-22.5 33t-22.5 41.5l33 74q8 25 8 158t-4 133q-57 0 -108.5 -64.5t-73.5 -130.5l-23 -65q-41 0 -84 22.5t-65.5 46t-22.5 34.5z" />
<glyph unicode="U" horiz-adv-x="1171" d="M31 1491q0 10 119.5 67.5t146.5 57.5q45 -20 74 -21l45 9q33 0 73.5 -17.5t61.5 -38.5q-49 -344 -49 -389q25 -18 24 -29l-2 -45q-10 -135 -10 -206.5t8 -107.5t8 -73q-51 -57 -51 -77.5t8.5 -33t18.5 -16.5q14 -6 31 -12q2 -4 2 -8l-23 -189q6 -49 36 -86.5t71 -37.5 q20 0 46.5 35.5t26.5 78.5q-4 33 -4 61.5t6 35.5q33 29 33 55q-43 51 -43 65l35 82v113q0 117 -4 127q22 13 22 55q0 20 -24.5 37.5t-24.5 36.5q6 68 27 121q4 8 4 111.5t-8 111.5q-23 23 -23 117q0 4 2 10q10 10 105.5 54t100.5 44t27.5 -12t35 -12t20.5 8t19.5 8t15.5 -2 q112 -47 112 -63q0 -10 -21.5 -104.5t-21.5 -162.5q0 -10 20.5 -28.5t20.5 -29.5t-16 -40t-16 -31q-4 -121 -4 -256t10 -162v-2q0 -8 -27.5 -36.5t-27.5 -41t9 -23.5t19 -13q27 -8 27 -15q-6 -25 -6 -88q0 -90 2 -172l2 -28q0 -33 -78 -140l-27 -34q-127 -29 -155 -43 q-45 -18 -117 -97l-23 -24q-172 0 -288.5 19.5t-147.5 37.5l-31 18l-110 136l-33 10q-8 2 -27.5 32.5t-19.5 38t6 13.5q20 20 34.5 104t14.5 126t-8 50.5t-8 96.5l4 114q0 55 -29 84q0 35 11.5 49.5t22.5 30t18 21.5l10 49q0 2 -31 33.5t-31 38t9 28.5q29 67 29 101 q-1 32 -33 174q-32 138 -31 141z" />
<glyph unicode="V" horiz-adv-x="1214" d="M4 1421q0 12 108.5 68.5t151.5 56.5q25 -18 60.5 -18t48.5 2h6q23 0 66.5 -21.5t43.5 -31.5q-2 -63 -2 -130t5 -79q-61 -27 -62 -84q0 -12 37 -21.5t37 -13.5q14 -303 24.5 -317.5t34 -33t23.5 -26.5q0 -29 -20.5 -61.5t-20.5 -46.5q25 -145 24 -181q29 -12 39 -12 t25.5 18.5t23.5 38.5q25 279 35 285q59 41 60 70q0 6 -7 12q-61 43 -61 88q0 2 25.5 31.5t25.5 52.5l19 311q0 33 -4 49v3q0 18 82.5 72t109.5 54q4 0 19.5 -7t52.5 -7t51 2q145 -2 145 -31v-4q-92 -238 -96 -276q-76 -29 -76 -66q0 -12 28 -26.5t28 -16.5 q-123 -475 -123 -647q-90 -51 -90 -80q0 -14 25.5 -34.5t25.5 -24.5q-49 -238 -49 -287q0 -14 -41 -25.5t-43 -11.5q-90 -47 -176 -75l-31 -11q-10 -2 -43 -2q-72 0 -201 31l-43 10q-16 16 -41 258l-8 82q-2 8 -18.5 28.5t-16.5 37.5q0 2 26.5 26.5t26.5 42t-39.5 45 t-39.5 29.5q0 23 -47.5 285t-65.5 282v2l24 56q0 23 -51 149.5t-51 130.5z" />
<glyph unicode="W" horiz-adv-x="1951" d="M10 1417q0 10 47 47t116 73t114 36q8 0 102 -21.5t94 -29.5q-2 -96 -2 -167t2 -81q-63 -31 -63 -64q0 -14 59 -39l19 -8q4 -387 18 -454q-8 -23 -24 -41q25 -205 34 -217q33 -29 43.5 -29t14.5 4q47 168 47 256q29 20 31 35q25 184 24 223v8q-31 37 -31 68 q57 82 64.5 109.5t11.5 78.5q10 141 17 144q156 129 219 129h6q47 -6 113.5 -33t146.5 -27h6h1q17 0 17 -203q0 -51 -2 -53q-39 -46 -39 -78t62 -36q35 -207 35 -324q-35 -23 -35 -42t25 -48q6 -129 22 -146q41 -29 50 -28.5t13.5 6.5t10.5 65.5t10 63.5q23 25 25 35 q20 262 26 282q51 39 51 54v2q0 27 -41 55q25 170 39 238q-14 98 -14 141t6 49q113 84 180 106q111 12 162 13h10q88 -23 89 -45v-2q-98 -215 -99 -246q-82 -45 -82 -78q0 -12 15.5 -17t23.5 -10l15 -8q6 -2 4 -4q-29 -123 -32 -176t-15.5 -107.5t-22.5 -89t-22.5 -130 t-12.5 -169.5l19 -49v-2q-86 -92 -88 -98v-10q0 -37 24 -62q4 -4 4 -27.5t-23.5 -102.5t-33.5 -79q-35 0 -84 -26.5t-66 -42.5q-29 -29 -65 -47q-168 0 -238 24l-24 8q-33 16 -97.5 78t-64.5 90l63 54q0 20 -24 45h-6q-16 0 -43 18q0 55 -12.5 211t-22.5 178q0 4 -6 4 q-14 0 -41 -26q-10 -16 -29 -197l-6 -59q-49 -49 -49 -78l18 -21q20 -20 21 -32q0 -16 -41 -62q-6 -6 -7 -48t-2.5 -80t-9.5 -38q-35 0 -115.5 -45t-156.5 -45q-25 0 -156 38t-131 65l-24 251q0 4 -21.5 18.5t-21.5 28t41 74.5q0 37 -64 80q4 12 4 64l-4 149q-12 25 -41 189 l-8 53q35 23 35 71v5q0 12 -39 30.5t-39 28.5l31 86z" />
<glyph unicode="X" horiz-adv-x="1239" d="M4 -20l86 167q20 0 31 19q66 131 164 428l34 106q0 6 7.5 6.5t28 -23.5t34.5 -48l17 -25q16 0 32 49q0 51 -69.5 177.5t-69.5 134.5t16.5 28.5t16.5 28.5t-12.5 27.5t-20.5 23.5t-21.5 5t-23.5 1t-10 5q0 47 -79 177t-79 140q0 6 42 39t98.5 64.5t86.5 31.5 q217 -2 219 -18q66 -180 80 -193q2 -2 2 -10l-20 -68q0 -27 29 -26q16 0 18 -6q49 -174 64 -174q25 2 36 14q86 197 86 266q-10 102 -10 129t2 27q139 104 223 104q193 -41 193 -61q0 -14 -47 -101t-47 -110q12 -33 11 -43t-4 -16.5t-41 -30t-38 -47.5q-180 -418 -180 -455 q6 -53 12 -58.5t19 -13.5q57 -174 79 -219q-10 -31 -18 -37q2 -41 27 -43q55 -6 55 -16q10 -49 57 -149.5t68 -131.5v-4q0 -20 -90 -55l-29 -10q-72 -68 -92 -68q-158 0 -244 37l-28 10l-11 109l15 26q0 33 -56 45q-12 0 -12 21l16 72q0 33 -34 114l-11 29q-12 12 -30 12h-7 q-8 0 -62 -112.5t-54 -126.5l-23 -162q0 -14 -52 -33.5t-77 -19.5q-45 0 -110 -23l-23 -8q-41 0 -105.5 27.5t-64.5 44.5z" />
<glyph unicode="Y" horiz-adv-x="1198" d="M4 1446q0 4 25 18q65 41 104 41l25 -4q39 0 100 29q236 -20 238 -33q27 -181 27 -216q0 -33 -3 -36q-39 -35 -43 -45v-4q0 -35 29 -37q27 -4 26 -6q27 -195 56 -195q39 8 43 23q70 186 76 240q25 10 31.5 21t28 69.5t21.5 85.5v18q0 72 9 76q172 53 221 53 q176 -43 176 -71q-127 -180 -150 -234v-6q0 -70 -30 -100q-76 -12 -76 -56q18 -25 18 -37q-145 -291 -184 -456q-66 -16 -80 -64q14 -43 51 -43h5q-16 -256 -17 -309l25 -148v-4q0 -8 -35 -16q-49 0 -107 -31q-25 -29 -84 -45q-74 0 -137 20.5t-91 42t-28 33.5v3 q43 61 43 294v54q0 14 -24.5 40.5t-24.5 30.5q0 20 39 60q0 86 -53 219l-16 43l-2 6l6 39q0 10 -2 16l-129 316v4q0 8 23.5 38.5t23.5 43.5q0 20 -72 33q-14 0 -25 65l-2 23q-2 6 -28.5 46t-26.5 52z" />
<glyph unicode="Z" horiz-adv-x="1120" d="M10 79.5q0 16.5 87 216.5t93 245q0 10 24 22t46 19l23 6l26 45q0 23 -53 59q0 39 133 283l43 80q31 0 39 14q14 25 33 96l4 23q8 6 61.5 17.5t53.5 17.5q0 57 -95 57h-6q-43 0 -123 -14l-22 -4q-35 -20 -78 -71.5t-68 -92.5l-24 -43q-25 0 -81 52t-56 73.5t40 154.5 t60 154q92 8 104.5 10t57.5 37q129 8 189.5 8t72.5 -4q127 -41 164 -41q55 51 69 51q211 -14 228 -30q55 -49 55 -60v-2q-82 -94 -115 -158v-4l13 -26q-111 -186 -119 -240q-78 -30 -78 -67q0 -27 35 -62q0 -27 -51.5 -61.5t-51.5 -57.5q-190 -385 -190 -493q14 -29 65 -29 q98 2 146 37q39 33 93 140.5t56 107.5q27 0 94.5 -47t67.5 -70q-23 -143 -53 -242q20 -20 20 -26q0 -12 -51 -135l-18 -41q-31 -31 -232 -31h-6q-4 12 -26.5 32.5t-36.5 20.5q-31 0 -103 -37l-22 -12q-4 -2 -23 -2q-41 0 -139 20l-33 9q-29 0 -134 -21.5t-120 -21.5h-4 q-35 18 -59.5 70t-24.5 68.5z" />
<glyph unicode="[" horiz-adv-x="483" d="M41 -10l20 198q4 10 5 60l-7 219q0 51 17 51l30 -8q23 0 23 47v2q0 10 -37 47q-8 8 -8 62l10 233q0 45 -8 45t-8 47l8 252l-6 127l2 37q0 12 -12.5 69.5t-12.5 80t151.5 104.5t197.5 82q78 -23 77 -39q-14 -14 -35.5 -39t-56.5 -99.5t-35 -148.5q23 -59 23 -71.5 t-14.5 -41t-14.5 -44.5v-256q18 -45 18.5 -76t-12 -43.5t-12.5 -111.5t9 -106.5t9 -68.5l-10 -256q0 -16 2 -18q-53 -43 -53 -80q0 -20 30.5 -26.5t30.5 -8.5q-2 -37 -2 -128t18.5 -118.5t39 -49t33 -33t12.5 -15.5q0 -12 -44 -38t-72 -26t-167 80t-139 107z" />
<glyph unicode="\" horiz-adv-x="755" d="M-16 1698v2q6 16 78.5 31.5t99 15.5t35.5 -2l104 -53q35 -20 33 -31q31 -86 31 -152l-5 -53q0 -41 23 -74.5t23 -38.5q49 -262 79 -309q8 -12 7.5 -25.5t-14 -29.5t-15.5 -25v-2q0 -18 63 -69q39 -102 64 -287q6 -47 23.5 -65.5t51 -138.5t33.5 -152v-7q0 -43 109 -311 l37 -92q-2 -14 -61.5 -29.5t-80.5 -15.5h-2q-68 10 -141.5 52t-71.5 52l2 17q0 37 -25.5 107.5t-25.5 82.5v4q23 29 27 47q-4 43 -47 50q-10 4 -27.5 69.5t-17.5 85.5v8q0 4 -18.5 69t-18.5 79v4l8 39q0 47 -41 70q-129 393 -129 489v10q0 6 4 10q-2 63 -47 72 q-12 33 -12 60v10q2 10 10 18q2 16 2 33.5t-6 24.5q-20 25 -49 41q-6 47 -49 174t-43 135z" />
<glyph unicode="]" horiz-adv-x="483" d="M0 -156q14 14 35.5 39t56.5 99.5t35 148.5q-23 57 -23 69.5t15.5 43t15.5 45.5v256q-20 49 -20 76.5t12 40t12 109.5t-8 107t-8 78l8 256v13q51 43 51 80q0 20 -30.5 25t-30.5 7q2 37 2 129.5t-17.5 120t-39 49t-34 32.5t-12.5 13q0 12 44.5 38t72 26t166.5 -80t139 -104 l-20 -201q-4 -10 -4 -60l6 -217q0 -51 -16 -51l-31 6q-23 0 -23 -45v-2q0 -10 37 -47q8 -8 8 -63l-10 -236q0 -43 8.5 -43t8.5 -51l-9 -252l6 -121l-2 -37q0 -12 12.5 -69.5t12.5 -80t-151.5 -105.5t-196.5 -83q-78 23 -78 41z" />
<glyph unicode="^" horiz-adv-x="727" d="M41 526l41 64q39 63 39 74q55 12 55 30l-8 41q37 59 51 60h43q61 0 66 -7q37 -31 41 -30.5t51 30.5q6 10 50 10.5t51 -6t40 -58.5t33 -60q-6 -23 -6 -43.5t43 -20.5q55 -70 55 -77t-4 -11t-10 -8t-17.5 -15.5t-35 -22.5t-48.5 -15q-47 0 -47 8l-78 92q-35 6 -34 17 q0 27 -18.5 56.5t-31.5 29.5q-10 0 -55 -58l-16 -20q0 -33 -12 -41q-33 0 -71 -41t-40 -41q-33 0 -64.5 15.5t-47 29.5t-15.5 18z" />
<glyph unicode="_" horiz-adv-x="1122" d="M10 -190q0 106 29 176l10 24q16 16 109 17h8q285 -10 301 -11l96 27l51 -12q16 -16 150.5 -16.5t142.5 8t45 8.5l144 -13q16 -29 16 -77q0 -6 -22.5 -55.5t-22.5 -78.5q-29 -8 -45 -8t-21 4q-10 16 -46.5 15.5t-47 -12t-25 -11.5t-49 9.5t-36.5 9.5l-301 6 q-33 -33 -60 -33l-24 8q-14 18 -162 18.5t-160 -6t-46 -6.5t-34 9z" />
<glyph unicode="`" d="M297 1460q0 10 62.5 41t95.5 31q113 -23 116 -27q90 -186 129 -225v-2q0 -23 -50 -39t-87 -16q-10 0 -66.5 46t-64.5 46q-2 0 -2 10v21q0 18 -5 23t-17 5l-29 -2h-2q0 2 -40 43t-40 45z" />
<glyph unicode="a" d="M10 221q0 92 17.5 178t33.5 125l19 41q25 33 156 102.5t213 69.5q6 0 21 -13t26.5 -13t27.5 10q35 18 35 31q0 31 -29 79q-23 23 -145 35l-41 4q-41 0 -114.5 -29.5t-78 -29.5t-20.5 24.5t-16 36t37.5 84t52.5 82.5q25 14 151.5 49t182.5 35q90 -59 158.5 -74.5 t132 -61.5t63.5 -91q0 -4 -19.5 -43t-19.5 -63.5t10 -43.5l13 -18q0 -102 -7 -117q-23 -45 -22 -49l18 -29v-12l11 -155q0 -18 -5 -19q-67 -40 -67 -94q0 -18 31 -31l30 -12l17 -109l37 -67q0 -4 -19 -17q-53 -39 -82 -39q-47 0 -106 -34l-19 -11h-4q-33 0 -131 37l-33 13 q-4 4 -4 18l6 96v8l-26 9q-6 0 -23 -23q-27 -35 -129 -102l-35 -23q-59 0 -117.5 37t-89 70.5t-30.5 38t8 10.5q20 18 20 39q0 37 -73 55zM362 363.5q0 -21.5 28 -49t46.5 -27.5t63.5 35.5t45 52.5l-2 4q-13 12 -13 53l7 103q0 14 -5 14q-27 0 -91 -33t-64 -57 q16 -27 16 -42.5t-6 -21.5q-25 -10 -25 -31.5z" />
<glyph unicode="b" horiz-adv-x="923" d="M41 186q0 2 6 15q23 47 47 114q8 25 8 148l-6 272q0 10 -12 30.5t-12 31.5l28 32q10 10 11 74l-13 244q0 25 4 24q14 0 34 25t20 47.5t-58 38.5l-18 207v8q6 10 73.5 50t88.5 40q57 0 152 -37t95 -53q-47 -184 -47 -340q8 -37 8.5 -63.5t-8.5 -34.5q-83 -52 -83 -97 q0 -47 16 -47q6 0 31.5 26t114.5 84t128 58t121 -106.5t82 -157.5q-55 -47 -55 -98q0 -18 32 -19l45 5h3q6 -11 6 -54l-4 -172q0 -61 6 -67t6 -34t-32 -101.5t-50 -73.5q-8 0 -14 -17q-25 -61 -59 -95t-113.5 -84t-98.5 -50q-43 0 -121 57l-26 19q-2 2 -7 2t-56.5 -37 t-61.5 -37q-39 0 -125 100.5t-86 122.5zM389 363.5q0 -9.5 16.5 -28t16.5 -22.5l-8 -86q0 -12 4 -12q55 0 108 55q18 18 23 123v37q-20 18 -21 59l2 19q0 2 21.5 15.5t21.5 38t-41 52.5q2 4 3 21l-7 108v7l15 45v2l-8 10q-29 0 -56 -21q-35 -23 -51 -48t-16 -87l6 -145 l-2 -17q10 -59 10 -71t-18.5 -28.5t-18.5 -26z" />
<glyph unicode="c" horiz-adv-x="860" d="M10 551q0 18 34 131t52 131q2 0 2 2l-18 47q0 12 83 94t111 82h19q29 0 35 6q145 68 184 68t150.5 -27.5t111.5 -42.5q-6 -90 -6 -140t4 -62q57 -78 57 -85t-38.5 -37t-91 -58.5t-83.5 -28.5q-131 47 -131 65q4 139 58 174q-23 37 -35 37q-78 -29 -84 -35 q-53 -55 -53 -73l6 -23l-10 -119q0 -55 22 -77q2 -2 2 -7.5t-21.5 -30t-21.5 -28.5q4 -31 14.5 -41t26.5 -18q45 -20 45 -31q0 -25 -9 -52.5t-9 -36.5t12 -27.5t27 -18.5q39 12 61 33q55 -12 128 -12q1 0 2 -1q71 0 106 31q31 20 57 20q20 -57 20 -79q-20 -70 -20 -80.5 t-55.5 -91t-83.5 -109.5q-16 -10 -170 -23l-54 -4l-55 -28q-55 0 -168.5 83t-113.5 103l20 16q20 16 20.5 31t-8 27t-13.5 12t-10 -5t-22 -5l-49 12q0 41 -18.5 146.5t-18.5 185.5z" />
<glyph unicode="d" horiz-adv-x="942" d="M10 453l2 82l29 18q27 18 27 34.5t-20.5 38t-20.5 29.5q0 35 28.5 137.5t34.5 107.5t79 55.5t87 64.5q59 59 250 59q10 0 10 88t-12 138q25 12 24 47q-51 145 -51 158.5t101.5 69.5t138.5 56q184 0 184 -18q-29 -152 -29 -215q-68 -33 -68 -68q0 -37 42 -37q14 0 16 -2 t2 -20.5t-16.5 -127t-16.5 -147.5q25 -12 25 -22q-12 -109 -12 -245t10 -232q-76 -61 -76 -94q16 -45 56 -46q10 -252 57 -296q31 -57 31 -65.5t-15.5 -17t-37 -19.5t-33.5 -23q-25 -25 -95 -37l-24 -4l-146 28q-39 39 -69 97l-10 20q18 43 30 107l4 22q-6 6 -18 6 q-25 0 -64 -35q-6 -6 -18 -47q-35 -119 -47 -118q-147 0 -197 18q-20 8 -106 119l-29 37l-24 116l26 19q25 18 25 30q0 23 -54 52q-10 10 -10 82zM352 592q0 -29 14.5 -43t14.5 -27q-8 -41 -8 -81t14 -54q41 -35 57.5 -35t47 54.5t30.5 71t-21.5 33.5t-21.5 24l27 69 q10 10 10 86l-2 137q0 37 2 47v3q0 6 -10 6t-45 -20.5t-42 -28t-14.5 -50.5t-7.5 -66.5t2 -29.5v-4q0 -8 -23.5 -35.5t-23.5 -56.5z" />
<glyph unicode="e" horiz-adv-x="894" d="M10 509q0 77 2 79t26.5 15t33 21.5t8.5 22.5l-4 25q-41 41 -41 43q0 18 45 115.5t78 130.5q244 141 350 141q217 -2 244 -29q96 -133 96 -254q-49 -23 -62.5 -35t-13.5 -38.5t25 -26.5l45 8q6 0 6 -4q0 -166 -96 -262q-27 -27 -134.5 -50.5t-136.5 -23.5q-8 0 -45 33 t-40 33t-21.5 -20.5t-18.5 -35.5q33 -98 78 -143q16 -16 74 -16q172 0 254 81q25 33 34 33t30.5 -9t21.5 -17v-11l16 -159q0 -12 -5 -24.5t-45 -57.5t-45 -62.5t-71.5 -43t-88 -25.5t-24.5 4t-12 22q-16 47 -34 47q-25 0 -50.5 -30.5t-27.5 -30.5q-119 0 -219 41 q-37 14 -37 24q0 25 -119 130l-41 34q-16 14 -25.5 131t-9.5 194zM383 694q2 -10 7 -24.5t34 -39t74 -24.5q14 0 16 26.5t4 61.5t11.5 44.5t9.5 17.5q0 18 -39 41q-4 4 -4 27.5t18 70.5q0 16 -29 16l-32 -4q-35 -16 -66 -88q6 -39 6 -76.5t-10 -48.5z" />
<glyph unicode="f" horiz-adv-x="804" d="M0 817.5q0 18.5 30.5 104.5t41.5 98l73 27q6 6 6.5 31.5t-2 54t-5.5 56.5t-5 52l-8 57q0 23 29.5 83.5t70.5 100.5t110 74.5t85 34.5l66 -20q113 29 143 29h1q28 -1 66.5 -13t59 -26.5t20.5 -20.5q-20 -125 -20 -148.5t10 -61.5t21.5 -70.5t11.5 -36.5t-27 -15 q-74 -32 -143 -32h-4q-113 41 -113 67q14 123 17 131v2q0 6 -9.5 12.5t-18.5 6.5t-47 -33t-39 -53.5t-1 -51.5q0 -125 37 -161.5t62.5 -44t88.5 -7.5q70 6 88 15h4q12 0 30 -29t18 -44t-44.5 -90t-72.5 -99q-3 -2 -13 -2l-75 4q-55 0 -56 -27q-6 -127 -6 -312.5t23 -234.5 v-2q0 -6 -35 -35.5t-35 -44.5q0 -29 36 -38t36 -11v-35q0 -170 18 -204v-5q0 -25 -92 -87t-132 -62t-97 10q-135 25 -135 39l20 60q39 0 55 65q0 25 -47 51q0 27 17.5 102.5t17.5 124t-11 135.5t-11 94t2 7q37 0 36 86l-16 215q0 29 6 34t31 9q65 10 65 60q0 18 -73 18 l-133 -8q-20 -4 -23.5 -4t-3.5 18.5z" />
<glyph unicode="g" horiz-adv-x="942" d="M10 477q0 59 23 187l6 41q0 2 4 2h6q23 0 35 12l29 43q0 10 -22.5 33.5t-22.5 29.5q0 18 95 116.5t122 98.5q49 0 133 27t131 27q6 0 24.5 -44t47.5 -44q10 0 29.5 31.5t25.5 31.5q12 0 79.5 26.5t90 26.5t54.5 -18.5t32 -28.5v-2q-35 -53 -60.5 -147.5t-25.5 -153.5 q31 -27 31 -39v-2q-8 -37 -19.5 -197.5t-11.5 -210t2 -51.5q22 -22 22 -139l-2 -57v-6q0 -2 -25.5 -27t-25.5 -49q0 -8 25.5 -25.5t25.5 -21.5q0 -150 -34 -254q-12 -37 -21 -41q-18 -12 -80 -70l-20 -20q-31 -47 -131 -94l-35 -15q-4 0 -21.5 27.5t-25.5 27.5l-39 -14 q-14 -14 -31 -63q-10 -10 -88 -13q-57 -4 -113 -12q-39 0 -73 43q-14 25 -41 43q-23 23 -45 152l-7 43q0 18 41 71.5t48.5 58.5t11.5 5l6 -2q31 -35 95.5 -69t94 -34t96 63.5t66.5 96.5l-16 166q0 12 28.5 44t28.5 43t-24 36q-29 -2 -86.5 -64.5t-71.5 -97.5q-4 -10 -98 -10 h-31q-35 0 -122 98t-87 146q25 23 25 45t-29 51q-10 10 -19.5 64.5t-9.5 78.5zM346 504q0 -6 15.5 -21.5t13.5 -15.5q-2 -33 -2 -74t6 -51q35 -33 48 -33t49 30t36 34l-12 37q-14 35 -15 75q0 4 20.5 20.5t20.5 22.5q0 23 -16 56v2q6 18 6 49l-6 129v8q12 31 12 44t-24 30 q-29 0 -67 -33t-45 -38t-7 -60l8 -107q0 -25 -4 -28q-23 -23 -29 -31z" />
<glyph unicode="h" horiz-adv-x="1005" d="M41 -8q0 25 31 119l10 32q4 16 4 58l-6 266q0 49 3 53t23 17q39 23 39 41l-12 32q-6 14 -49 31l12 256l-26 219l22 29q2 2 2 16l-6 107l4 41q0 27 -18.5 106.5t-18.5 81.5q0 16 80 71.5t113 55.5t118 -11t85 -26l-21 -194v-13q-41 -37 -41 -47t8.5 -18t18.5 -15 q27 -16 26 -18q-12 -33 -24 -110.5t-12 -96.5v-160q18 -14 28 -14q41 0 80 135q111 45 154 45q111 -18 139.5 -31.5t82.5 -76t54 -90.5v-47q0 -141 6 -166v-2q0 -4 -24.5 -10.5t-28.5 -10.5q-33 -47 -33 -61q0 -20 60 -25q6 -6 6 -51l-10 -262q0 -98 16 -139 q49 -100 49 -108.5t-31.5 -23t-31.5 -34t-116 -19.5t-123 13.5t-71.5 58.5t-64.5 63v2l8 154q0 16 53 57q6 6 6 25v10q0 8 -27.5 22.5t-27.5 28t12.5 71.5t12.5 102t-25 90q0 25 39 78t39 57q0 12 -45 28q-29 0 -68 -44t-63 -89l-25 -43q-10 -41 -10 -114l12 -228 q0 -4 -20.5 -24.5t-20.5 -28.5t4 -12q23 -23 23 -111v-14q0 -31 -83 -68t-87 -41t-43 -4l-127 6q-20 0 -43 23z" />
<glyph unicode="i" horiz-adv-x="507" d="M43 -4l29 248q0 6 26.5 20.5t26.5 28.5t-27.5 34.5t-27.5 24.5v2q12 47 12 131l-14 244q0 4 14 20.5t14 47t-23.5 93t-23.5 79.5q0 12 92 69.5t129 57.5q190 -8 191 -29q0 -39 -23.5 -140.5t-23.5 -137t4 -68.5q-55 -35 -56 -80q25 -23 58 -23q4 1 4 -34l-10 -332 q0 -96 10 -119q41 -90 41 -108.5t-2 -20.5t-47 -16q-145 -51 -161.5 -58.5t-44.5 -7.5t-97.5 29t-69.5 45zM84 1366l16 113q0 10 -4 34v3q0 12 24.5 35.5t83 47t130.5 23.5q63 -12 63 -27v-2q-10 -41 -10 -73.5t6 -38.5t24.5 -12.5t22.5 -10.5q6 -27 6 -54.5t-6 -46 t-56 -67.5t-67 -49q-66 0 -123 26.5t-83.5 54.5t-26.5 44z" />
<glyph unicode="j" horiz-adv-x="499" d="M-348 -371.5q0 11.5 27.5 62.5t44.5 69q25 29 75 33q20 -35 61.5 -67.5t74 -32.5t90 45t55.5 59v17l8 262q0 70 -12.5 79t-12.5 13v2l7 109q0 12 21.5 19t29.5 15.5t8 23.5t-6 21.5t-21 14.5q-37 18 -36 28q8 51 8 140v106q0 14 -2 33q0 2 10 10t10 12q0 88 -35 207 l-10 41q0 18 60.5 61.5t74.5 43.5q76 4 103 12h4q29 0 97.5 -18.5t68.5 -28.5t-21.5 -139t-21.5 -256q32 -44 32 -76q0 -8 -19 -25.5t-19 -32t16 -28.5t16 -31q-20 -16 -20 -57v-37q0 -539 20 -586v-2q0 -16 -26.5 -65.5t-36.5 -49.5l-49 13q-35 -20 -35 -42t6 -40.5 t14 -22.5q20 -10 21 -18q0 -37 -68.5 -96.5t-118.5 -59.5q-43 0 -174 -31l-45 -10q-41 0 -106.5 34t-69.5 50q-12 37 -47 113t-43 84t-8 19.5zM82 1375.5q0 13.5 6 19.5q18 20 18 116v7q0 12 31 36.5t85 47.5q52 23 114 23h5q65 -1 65 -11q0 -84 31.5 -106.5t31.5 -30.5 q0 -90 -45 -179l-14 -26q-12 -12 -77 -39t-87 -27q-37 0 -86 29q-4 4 -4 12l8 39q0 10 -41 43t-41 46.5z" />
<glyph unicode="k" horiz-adv-x="1003" d="M25 -10l38 108l19 269q0 6 28.5 17t28.5 26q0 29 -71 61q-4 4 -5 53l9 232l12 14q4 4 4 45l-14 326q0 18 2 20q47 23 47 35v2l2 12q0 20 -25 21q-16 0 -20 34.5t-7 103.5t-16 118v2q0 18 95.5 71.5t119.5 53.5q186 0 187 -29q-33 -172 -33 -256q0 -6 -32 -32.5t-32 -37 t9.5 -19.5t24 -15t22.5 -8.5t8 -6.5q-18 -121 -18 -385q25 -33 38 -32q23 0 96.5 101t73.5 150q0 10 93.5 39t113.5 29q139 -4 140 -14q0 -80 -11 -88q-66 -35 -73 -43q-213 -193 -213 -219q0 -4 88 -40t88 -69v-2q-4 -20 -4 -55l10 -107q0 -35 -31 -63q-10 -14 -10 -47 q0 -15 18 -15l52 8l6 -2q4 -4 26.5 -125.5t30.5 -130.5q64 -75 64 -87q0 -11 -16 -18t-37 -16.5t-32.5 -20.5t-65.5 -26.5t-72.5 -15.5t-108.5 28.5t-90 41.5l-15 118l23 23q25 25 24 51q0 12 -61 25q-18 18 -29 207l-2 61q0 4 18.5 30.5t18.5 45.5q0 31 -47 39 q-10 0 -61 -60q-27 -27 -27 -141l4 -94q0 -10 -20.5 -28.5t-20.5 -35t45 -53.5q-2 -4 -2 -18l10 -111q0 -6 -14 -12q-47 -25 -86 -53.5t-88 -28.5t-65.5 4t-55.5 8q-106 10 -106 27z" />
<glyph unicode="l" horiz-adv-x="524" d="M43 1479.5q0 9.5 9 18.5t105.5 56.5t140.5 47.5t105.5 -9.5t61.5 -21.5l-45 -133l-2 -31l14 -287q0 -25 -2 -26q-57 -47 -57 -74t29.5 -35t29.5 -10l-18 -246q0 -131 11 -288.5t11 -165t-15 -26t-15 -35.5t44 -91t44 -100q0 -4 -23 -15q-63 -27 -72 -41q-16 -27 -88 -41 l-24 -6q-41 0 -141.5 27.5t-100.5 38.5l14 137q0 2 11 16q26 41 26 68q0 4 -18.5 34.5t-18.5 46t3.5 19.5t20.5 11.5t21 11.5q16 33 17 45q0 18 -72 47q6 25 6 84l-4 110q0 8 25 29q2 2 2 57l-8 379q0 8 26.5 30t26.5 50q0 14 -30 24.5t-30 14.5q0 119 -10 194.5t-10 85z " />
<glyph unicode="m" horiz-adv-x="1509" d="M31 1055q0 12 64.5 43.5t84.5 31.5q162 -23 201 -61q23 -74 23 -88q0 -12 -17 -58q-16 -44 -16 -56.5t16 -30t35 -17.5q43 100 57.5 114.5t112.5 65t122.5 50.5t78 -31t75.5 -53q41 -66 41 -84q10 -6 17.5 -6.5t12.5 5t31.5 65t28.5 61.5q23 23 115 61.5t129 38.5 q92 -31 107 -45q106 -158 106 -180v-2q-18 -16 -18 -138v-45l2 -57q0 -12 -25.5 -36.5t-25.5 -33.5q0 -29 5 -34t15 -9q25 -10 25 -12q0 -76 -7.5 -200t-7.5 -141t31 -85l29 -68q0 -6 -23.5 -18t-42 -30.5t-64.5 -33t-79 -16.5l-35 -4q-37 0 -114 42t-77 54l19 142l29 16 q29 16 28.5 29.5t-9.5 21.5t-19 15q-27 16 -27 20q12 86 12 182.5t-4 100.5q-12 12 -12 28q0 33 41 86l12 17q0 25 -47 41q-45 0 -90 -77t-45 -101l12 -33q0 -39 -31 -84q-2 -4 -2 -20.5t21 -41.5q-8 -49 -8 -112.5t14 -192.5v-2q0 -6 -20 -12q-70 -23 -82 -35 q-25 -25 -86 -35l-21 -2q-51 0 -105.5 19.5t-54.5 33.5v2q14 61 15 256v23q0 29 -19 47q0 20 28 41t28 36t-27 39.5t-27 29.5q0 49 28 116.5t28 74.5t-9.5 16.5t-27.5 9.5q-33 0 -78 -29q-16 -18 -57 -110.5t-41 -123.5q0 -47 26 -77q2 -2 2 -9l-16 -43q-6 -6 -6 -53 l16 -252q0 -12 -90 -60t-109 -48q-70 4 -159 37l-27 10l19 131l24 8q23 6 23 26.5t-28 45t-28 28.5l6 25q18 74 19 160l-12 377q0 25 2 26q12 8 16 13q10 6 10 39.5t-14 77.5t-33.5 63.5t-19.5 83.5z" />
<glyph unicode="n" horiz-adv-x="1005" d="M31 1022q0 16 99 65.5t126 49.5t82 -22.5t55 -31.5q-18 -147 -18 -198q20 -12 26.5 -12.5t6.5 4.5q82 143 112 174q109 43 205 43q29 0 109.5 -72t78.5 -90q-12 -61 -12 -242q-43 -23 -57 -39q-6 -23 -6 -36t6 -13q61 -6 61 -18q-10 -117 -10 -163t4 -50q23 -35 23 -62 q-29 -31 -29 -62.5t20.5 -98t41 -115.5t20.5 -54.5t-38 -28t-96.5 -44t-92 -21.5t-93 15.5t-69.5 25.5q-12 12 -19 127l-2 37l47 39q6 6 6 21l-4 28q-12 12 -34.5 17.5t-22.5 9.5l12 194q0 14 11.5 39t11.5 34t-21.5 53t-21.5 61q0 33 43 137l14 35q0 14 -49 35 q-29 0 -89 -86t-60 -136l14 -96q16 -47 16 -74l-8 -30q-41 -41 -41 -115v-2q0 -4 16.5 -16.5t16.5 -14.5q-8 -8 -8 -70.5t6 -101.5t6 -46t-8 -7t-83 -36t-106 -36q-68 0 -141 29l-41 10q0 37 9.5 95.5t17.5 68.5q10 10 10 37t-10.5 128t-10.5 173l39 31q10 10 11 28l-2 19 q-4 4 -24.5 16t-20.5 19l4 26q10 66 10 146q0 131 -37 235z" />
<glyph unicode="o" horiz-adv-x="940" d="M10 557q0 29 47 147.5t62 133.5v2l-15 32q0 14 95.5 101.5t119.5 97.5q156 33 211 33q6 0 55.5 -22.5t59.5 -25.5t39 -39t29 -44q-10 -57 -19 -58q-129 -6 -172 -30q-20 -10 -80.5 -77t-78 -102.5t-17.5 -228.5q59 -27 60 -59q-23 -96 -23 -109.5t16.5 -48.5t32.5 -51 q31 -16 50.5 -16t25.5 6q49 49 49 168q0 27 -4 55q-37 35 -37 78q0 6 18.5 23.5t18.5 38t-16.5 45t-33 37.5t-16.5 18q0 27 64.5 98t91.5 71h29q174 0 174 -22q-10 -55 -10 -63.5t36.5 -78t36.5 -132.5q-53 -43 -53 -62.5t20.5 -38t20.5 -20.5q0 -18 -16.5 -83t-16.5 -99.5 t-98 -133.5q-94 -90 -125 -90h-2q-10 8 -33 8l-22 -2q-31 0 -45 -41q-6 -18 -13.5 -25t-50.5 -7l-174 14q-51 14 -115.5 69.5t-64.5 69.5q0 2 20.5 27.5t20.5 38.5q0 20 -27 39l-72 -11q-10 0 -22 54q-31 115 -31 315z" />
<glyph unicode="p" horiz-adv-x="966" d="M4 -625q0 37 31 113t31 81t-16.5 19.5t-16.5 22.5v4q35 80 35 344v96q0 39 2 41q26 10 26 62q0 16 -16 160q-17 143 -17 200q0 2 29 20.5t29 34.5q0 31 -55 62q4 35 4 104q0 180 -35 254v2q0 14 62.5 66.5t89 64t116.5 11.5t90 -17v-2q-20 -68 -20 -219q18 -23 28 -22 q150 201 189 200q51 0 130 -13t107 -44q0 -29 -2 -43q131 -195 131 -283q-41 -147 -41 -305q0 -8 -39.5 -18.5t-39.5 -22.5q0 -27 23.5 -51.5t23.5 -30.5t-19 -37q-57 -100 -133 -176q-33 -31 -167 -75t-139 -50t-5 -61l2 -70q0 -6 -55 -41q-16 -16 -16.5 -32.5t5.5 -26.5 t11 -10q55 0 55 -9q0 -104 18 -151q0 -18 -59 -88l-19 -25q-8 -8 -34 -18q-70 -27 -70 -41q0 -6 -58.5 -6t-127 7t-68.5 19zM412 274.5q0 -84.5 8 -84.5q29 0 59.5 17.5t48.5 36.5l17 18q10 10 22.5 50t12.5 55l-23 96q0 8 15.5 40t15.5 53.5t-18.5 36.5t-18.5 28l31 124 q0 10 -19.5 20.5t-29 10.5t-51.5 -52t-51 -69.5t-9 -126.5v-47q0 -10 19.5 -26.5t19.5 -24.5q0 -23 -41 -63q-8 -8 -8 -92.5z" />
<glyph unicode="q" horiz-adv-x="1034" d="M10 414q0 131 23 237q45 199 80 199l32 -2q16 0 23 6l18 35q0 16 -12 33l-12 18q0 8 60.5 59.5t73.5 51.5t87 14t113 14t55 -16q35 -78 65 -78q14 0 24.5 23.5t10.5 42.5q0 4 17 10q61 18 77.5 35.5t99.5 17.5t91 -8q12 -29 12 -46.5t-30.5 -74.5t-30.5 -74v-32 q0 -59 -8 -60q-31 -2 -60 -31q-8 -16 -8 -31.5t6 -21.5t19 -10q35 -8 34 -16q-8 -176 -8 -273.5t6 -103.5q35 14 52 14l6 -2q25 -25 51.5 -82t26.5 -75.5t-9 -22.5q-35 -12 -47 -25q-57 -55 -116.5 -123.5t-60.5 -85t-1 -38t10 -21.5q47 35 68.5 35t21.5 -10q0 -2 -3 -20.5 t-7 -62.5t-4 -111t27 -165q0 -20 -75 -91t-91.5 -77t-114.5 -6t-106.5 8t-15.5 32t-7 34t2 12q33 33 33 207l-4 129q0 18 -59.5 65.5t-59.5 51.5q0 27 111 141l39 39q0 18 -41 31q-66 0 -150 -101q-29 -33 -39 -32q-96 0 -153 32q-35 35 -70 91.5t-35 97.5l19 22 q16 23 16 38t-15.5 23.5t-50.5 22.5zM356 535q0 -98 27 -162t59 -64q10 0 41 25.5t31 44.5l-18 96q0 10 18 40t18 54.5t-36 89.5q0 39 32 119l11 27q0 10 -20.5 27.5t-30 17.5t-59.5 -40t-50 -54l14 -183q0 -2 -18.5 -17t-18.5 -21z" />
<glyph unicode="r" horiz-adv-x="813" d="M25 1005.5q0 24.5 6 28.5t24.5 13.5t30.5 17.5t38 27.5t44 33.5q53 35 102 35l62 -6q18 0 37 6q35 -43 34 -59q-20 -74 -20 -172q6 -37 33 -37q145 215 188 215q102 -6 172 -78q27 -82 27 -166q-10 -141 -23 -151q-35 -10 -49 -11h-4q-74 50 -121 50h-1q-47 0 -132 -78 q-86 -78 -86 -109q2 -53 23 -53q16 6 32.5 6t16.5 -12q-10 -139 -10 -218t6 -93q-14 -35 -14.5 -47.5t19 -55.5t19.5 -55q0 -18 -97 -69.5t-133 -51.5t-122 7t-86 24q0 4 13.5 71.5t13.5 124.5l22 15q23 14 23 39.5t-56 56.5q10 43 21 256l2 68l-31 137q0 2 14.5 15t14.5 40 t-26.5 119t-26.5 116.5z" />
<glyph unicode="s" horiz-adv-x="884" d="M20 143l21 25q63 72 63 133q0 6 27 20.5t32 14.5t25 -23q58 -69 125 -69h2q18 0 40 9t38 9q47 0 84 29q35 35 43 96q0 20 -41 38.5t-65 18.5q-2 1 -2 9l2 36q0 16 -8 17q-53 0 -76 -18.5t-29 -18.5t-34.5 4t-28.5 8l-7 23q-14 14 -82.5 15t-78.5 11q-33 31 -33 107 t26.5 188.5t46 133t116 59.5t98.5 41q25 33 34 43q119 33 207 33q111 -8 121 -9q6 0 31 -36q67 -104 67 -168q0 -12 -25.5 -46t-31.5 -34l-18 14q-57 37 -136 37q-37 0 -117.5 -50t-80.5 -93q10 -51 31 -52q70 52 95 52h1q26 0 103 -22q79 -22 91 -36q168 -168 168 -220 t-25.5 -155.5t-37.5 -103.5h-2q-47 0 -76 -31q-8 -8 -8 -21.5t17.5 -31.5t17.5 -20q-4 -35 -116 -99.5t-181 -64.5q-8 0 -21.5 16t-33 16t-46.5 -18l-26 -16q-88 0 -159 29.5t-89 52.5q-23 20 -40.5 59t-17.5 59z" />
<glyph unicode="t" horiz-adv-x="669" d="M4 819q0 25 31 117t37 98t22 6l41 -2q12 0 16.5 4.5t4.5 55.5q0 111 -25 200l-10 31q0 20 91 79.5t130 59.5q145 -4 158 -16q2 -2 2 -12l-39 -285q2 -84 14 -96q14 -8 45 -8t96 43q8 0 28 -29t20 -45t-37 -89t-82 -116q-2 -2 -29 -2h-51q-61 0 -61 -12q0 -37 17 -51.5 t37.5 -14.5t23.5 -3t3 -38l-6 -207q0 -68 6 -90q0 -6 -30.5 -30.5t-30.5 -36.5v-13q0 -29 16 -28q37 14 48.5 14t11.5 -4q10 -147 35 -172q67 -44 67 -79q0 -9 -37 -42t-59 -45q-45 -23 -158 -39l-39 -4q-6 0 -51 23.5t-62.5 23.5t-53 40t-35.5 58v5q24 43 24 293v20v33 q0 4 21.5 20.5t21.5 34.5t-12 26.5t-24.5 14.5t-12.5 10q14 57 14 160.5t-4 108t-23.5 4.5t-29.5 -3.5t-15.5 -6.5t-7.5 -5t-10 -2t-27.5 18.5t-19.5 24.5z" />
<glyph unicode="u" horiz-adv-x="997" d="M43 446v5q18 37 18 137l-8 147l27 37q-35 162 -35 191q0 12 84 65t115 53q188 -10 188 -34q-25 -205 -25 -278q0 -72 3 -87q0 -4 -30 -29.5t-30 -40.5l-2 -16q0 -8 4 -12l27 -9q27 -8 27 -26v-8q-2 -12 -3 -47v-60q0 -80 -20 -98q25 -47 48.5 -47t75.5 59.5t52 89.5v25 l2 108q0 57 -8 66q-23 25 -23 40t18.5 40.5t18.5 38.5v57q0 174 -6 209v2q0 12 33 26.5t47 30t63.5 39t73.5 23.5q160 -23 160 -66q0 -2 -8 -19.5t-18.5 -75.5t-10.5 -114.5t8.5 -64.5t8.5 -41l-7 -156q0 -70 11 -104v-2q0 -4 -30 -26.5t-30 -44t25.5 -35t25.5 -21.5v-64 q0 -150 11 -184q43 -100 43 -131q0 -6 -21 -12q-70 -23 -84 -37.5t-46 -29.5t-60.5 -15t-77.5 24.5t-77 50t-28 35.5t25 61.5t25 59.5q0 14 -39 14h-4q-35 0 -91 -100l-18 -35q-6 -18 -85 -34.5t-107.5 -16.5t-30.5 2q-27 35 -86 47l-21 4q-8 0 -38.5 44t-49.5 77 q-8 16 -8 197q0 2 24.5 22.5t24.5 38t-25.5 33.5t-25.5 22z" />
<glyph unicode="v" horiz-adv-x="1077" d="M10 941q0 5 7.5 23.5t30 43t47 34t57 32t47.5 22.5h18q94 0 133 -19q35 -20 64 -20q-6 -141 -6 -180t2 -62q-39 -23 -39 -41v-12q0 -33 32 -37q39 -8 39 -18v-2q-4 -14 -4 -54l8 -145l-8 -39q0 -47 14.5 -96t16.5 -54q20 -20 46 -20t26 4q0 35 19.5 103.5t19.5 103.5 q-20 39 -21 88q0 6 13.5 18.5t19.5 24.5q37 170 37 229q18 17 18 25l-6 166q0 41 6 47q20 18 102 59t123 41q201 -12 201 -26q-70 -225 -84 -226q-67 -27 -67 -66q0 -13 17 -31.5t17 -30t-38.5 -117t-38.5 -138t-28 -132t-28 -132.5q0 -4 -30.5 -20.5t-30.5 -35t7 -25.5 t18.5 -10t20.5 -5t9 -4q0 -27 -63 -148l-21 -39q-18 -18 -81.5 -43.5t-119.5 -42.5l-55 -14q-4 0 -16 11.5t-33 11.5l-45 -17q-10 10 -53 29q-115 53 -115 63l-41 254q0 31 -24.5 79t-24.5 61.5t15.5 31t15.5 35t-35 34.5t-35 28l20 63q0 31 -28 146l-10 36q0 43 -29 96.5 t-29 58.5z" />
<glyph unicode="w" horiz-adv-x="1642" d="M4 920q0 6 71.5 75.5t78 77.5t58.5 18.5t69 10.5q92 -20 116 -45q4 -5 4 -23l-10 -153q0 -49 27 -66q12 -6 12 -26.5t-13.5 -36t-13.5 -33.5q20 -276 37 -295q27 -18 39.5 -18t48 125.5t35.5 139t26.5 28t26.5 33t-17 26.5t-17 10q4 39 14 66q2 84 12 94q168 100 221 100 q27 0 109 -13.5t88 -27.5q2 -4 10 -113.5t17 -117.5q29 -23 28 -47q-39 -47 -39 -67.5t14.5 -37t14.5 -20.5q0 -180 23 -203q39 -20 53 -21q8 0 19.5 64.5t15.5 64.5q47 8 47 34t-13.5 41.5t-13.5 19.5q41 184 41 266q0 2 11.5 15.5t11.5 29.5q-21 158 -21 172q0 18 87 57 t122 39t79 -14t74.5 -30.5t30.5 -22.5q-79 -166 -79 -248q0 -8 -35 -28.5t-35 -41.5q0 -6 20.5 -25.5t20.5 -35t-15.5 -32.5t-31 -58t-41.5 -162q-53 -256 -53 -307q0 -8 -35 -38t-50.5 -39t-28.5 -37t-26 -28q-27 0 -123 -45l-34 -14q-74 0 -166 28.5t-92 32.5l-13 115 q0 4 17.5 14.5t17.5 20.5l-18 39l-37 12q-6 4 -16.5 108.5t-18.5 112.5h-4q-23 0 -37 -13t-59 -164.5t-45 -203.5q0 -25 -74 -47l-25 -6q-8 -4 -26.5 -23.5t-24.5 -19.5q-80 0 -144.5 15.5t-91 31t-26.5 21.5q0 23 -28.5 111.5t-28.5 95t21.5 20.5t21.5 25q0 25 -33 36 t-38 16t-29.5 152.5t-30 159.5t-20.5 19.5t-15 17.5l28 78q0 35 -26.5 82t-26.5 76z" />
<glyph unicode="x" horiz-adv-x="1085" d="M39 86q0 14 45 75.5t45 78.5l-6 12q0 23 98 158l101 133q0 18 -32 64t-32 54.5t33 45.5q0 14 -11.5 24t-23.5 10l-39 -8q-10 0 -56 86t-55 94v2q0 18 72 92t96 74l162 19q8 0 25 -51q53 -166 86 -199q12 -4 21.5 -4t12.5 3t51 98t55 113.5t94 56.5t137 38 q150 -23 165 -37q12 -27 13 -45q-100 -94 -121 -119q-2 -2 -25 -2q-61 0 -61 -24.5t18.5 -39t18.5 -17.5t-90.5 -123.5t-90.5 -137t55.5 -136.5t98.5 -183q16 -29 45 -29q92 -80 92 -84q0 -37 -64.5 -126t-88.5 -89q-61 -10 -91 -10t-34 4q-57 57 -111 57q-4 0 -22 45 q-59 145 -68.5 154.5t-9.5 15.5q0 20 31 78l10 21q0 16 -43 24q-23 0 -50.5 -39t-43.5 -80l-19 -38l6 -123q0 -2 -8 -6q-29 -10 -34 -15.5t-24.5 -77t-22.5 -73.5t-83 -2t-94 14t-50 34.5t-44 28.5q-14 14 -33 86z" />
<glyph unicode="y" horiz-adv-x="1054" d="M4 922q0 35 53.5 104.5t73.5 69.5q4 0 36 -7.5t56 -7.5l125 6q18 0 23 -4q16 -143 18 -146t11.5 -7t11.5 -8q6 -33 29.5 -89.5t23.5 -62.5q-14 -16 -16 -25q41 -96 40 -116q12 -4 22.5 -4t14.5 4q91 158 105 258l-4 31q0 6 2 10t32.5 18.5t30.5 26.5t-11 28.5t-11 20.5 q18 72 24 78q156 63 219 63q137 -37 138 -88q0 -6 -37 -49q-14 -12 -44 -64.5t-30 -64.5l12 -27q0 -23 -36.5 -47t-36.5 -37q10 -18 10 -20t-29 -57q-88 -166 -88 -180.5t-16.5 -19.5t-33.5 -8t-31.5 -17.5t-14.5 -29t24.5 -28.5t24.5 -20q0 -29 -27.5 -59t-27.5 -62v-52 q0 -190 22 -249v-4q0 -10 -41 -25.5t-52 -28t-49 -26t-67 -17.5l-28 -4q-33 0 -99.5 37t-66.5 53v2q14 33 18 172v45q0 6 17 13q27 10 26 30l-6 33q-16 16 -31 23q-25 10 -24 16q0 86 -74 258l-25 57q-8 12 -28.5 23.5t-24.5 15.5q-4 8 -4 19l6 43q0 37 -102 160 q-33 41 -33 43z" />
<glyph unicode="z" horiz-adv-x="974" d="M10 10q0 80 37 172l12 31q4 4 28 5t30 7q12 12 12 31v6q0 12 -16.5 28.5t-16.5 22.5q0 10 131 211l43 66q6 6 25 53q57 131 67 131q78 0 91 12q18 18 32 52q0 8 -28 12v2h-4l-50 4q-80 0 -135 -21.5t-75.5 -48t-36 -48t-21.5 -21.5q-29 0 -61.5 29.5t-32.5 51t55.5 162 t96.5 140.5q69 -20 101 -20q1 0 2 -1q34 -1 133 11q103 12 140 12t42 -5t16 -20q16 -31 42.5 -30.5t47 19.5t26.5 19q33 2 111 2t78 -16q0 -33 -11.5 -79t-33.5 -46q-12 0 -101.5 -136.5t-89.5 -150.5l2 -38q0 -47 -26 -48q-33 0 -62.5 -27.5t-29.5 -49.5q0 -2 11 -10.5 t11 -16.5q-106 -164 -106 -213q10 -37 22 -37q29 -2 89.5 -2t89 20.5t61.5 65.5t50 76t21 31q66 -4 84 -23q31 -66 31 -182q0 -2 -6 -4q-20 -14 -25 -21q-37 -176 -65 -203q-10 -10 -111.5 -10t-120.5 19q-6 6 -147 6h-78q-217 -2 -233 -19l-80 -39q-25 0 -58 58zM449 850v2 h4h2z" />
<glyph unicode="{" horiz-adv-x="552" d="M20 755.5q0 18.5 61.5 102.5t67 97.5t5.5 170.5l-2 205v78q0 12 -12.5 69.5t-12.5 80t151.5 104.5t196.5 82q78 -23 78 -39q-14 -14 -35.5 -39t-56.5 -99.5t-35 -148.5q23 -59 23 -71.5t-15.5 -41t-15.5 -44.5v-256q20 -59 20 -99q0 -4 -56 -60t-56 -69q0 -29 52 -69.5 t52 -44.5l-8 -293q0 -43 2 -45q-53 -43 -53 -80q0 -20 30.5 -26.5t30.5 -8.5q-2 -37 -2 -128t18.5 -118.5t39 -49t32.5 -33t12 -15.5q0 -12 -44 -38t-71.5 -26t-170 80t-142.5 109q0 39 19 160l4 36q4 16 4 41l-16 252q0 33 20 33l37 -8q23 0 23 45v2q0 12 -87.5 98 t-87.5 104.5z" />
<glyph unicode="|" horiz-adv-x="501" d="M51 537l25 59q14 27 14 141l-8 328q0 53 6 59q20 18 21 97l-13 143l10 35q6 6 6.5 26.5t-15 96t-15.5 94.5q0 6 66.5 42t100.5 36t118 -11.5t84 -31.5q-25 -139 -25 -217q-51 -43 -51 -84q0 -16 29.5 -30.5t29.5 -29.5q0 -33 -17.5 -124t-17.5 -103q11 -31 11 -111 l-7 -374q0 -137 17.5 -168t17.5 -62q0 -8 -29.5 -36.5t-29.5 -46t20.5 -31t20.5 -17.5q2 -229 20 -280v-5q0 -10 -22.5 -23t-44.5 -20l-23 -8q-29 -29 -108 -28l-64 4q-37 37 -100 45q-18 2 -19 10l31 172q4 10 4 59l-8 242q0 25 2 27t10 6q23 6 23 31.5t-35 51t-35 36.5z " />
<glyph unicode="}" horiz-adv-x="552" d="M0 -156q14 14 35.5 39t56.5 99.5t35 148.5q-23 57 -23 69.5t14.5 43t14.5 45.5v256q-20 59 -20 98q0 4 57 60.5t57 68.5q0 27 -52 69t-52 46l8 293q0 43 -2 45q53 43 53 80q0 20 -30.5 25t-30.5 7q2 37 2 129.5t-18.5 120t-39 49t-33 32.5t-12.5 13q0 12 44.5 38t72 26 t170 -80t142.5 -104q0 -70 -17 -164l-6 -37q-4 -16 -4 -43l14 -244q0 -27 -5 -32t-13 -5l-37 6q-23 0 -23 -45v-2q0 -10 87 -97t87 -104.5t-61 -101.5t-66.5 -97t-5.5 -171l2 -205v-78q0 -12 12.5 -69.5t12.5 -80t-151.5 -105.5t-196.5 -83q-78 23 -78 41z" />
<glyph unicode="~" horiz-adv-x="618" d="M41 621q0 20 13.5 59t19.5 39l157 -43q20 0 92 37t92.5 37t91.5 -45.5t71 -57.5q0 -33 -14.5 -65.5t-20.5 -32.5t-58.5 22.5t-64.5 22.5l-227 -70q-18 0 -119 74z" />
<glyph unicode="&#xa1;" horiz-adv-x="477" d="M10 -426q0 90 23.5 199.5t50.5 136.5q8 8 8 17.5t-18.5 27.5t-18.5 21.5t11 48.5q33 131 32 233q0 2 -13 22.5t-13 29.5t4 14l43 59q8 8 8 51l-8 109q90 84 178 84q12 0 49 -22.5t37 -37.5q0 -252 10 -284q27 -55 27 -71.5t-2 -18.5q-37 -45 -37 -64.5t34 -45.5t34 -28 q0 -14 -18.5 -46t-18.5 -38q0 -41 26.5 -180t26.5 -182q0 -23 -90 -58.5t-129 -35.5l-140 36q-10 2 -36 7q-59 10 -60 16zM72 942q0 18 17 57t26 39l32 -2q35 0 54 19q4 8 4 14l-4 37q0 8 4 8h24q145 0 203 -55q8 -8 21.5 -67.5t13.5 -95.5t-6 -42t-25.5 -28.5t-36 -37 t-39.5 -32.5q-49 -37 -116 -37q-2 0 -54.5 34.5t-87.5 34.5q-14 0 -26 115z" />
<glyph unicode="&#xa2;" horiz-adv-x="862" d="M20 553q0 16 34 129t44.5 123t10.5 12l-19 47q0 12 84 94t113 82h18q27 0 33 7q0 10 31 22v45q0 49 -3.5 52t-3.5 8l19 38q102 18 127 19q74 -14 74 -29v-2q-14 -35 -15 -39l2 -57q68 -10 142.5 -31.5t74.5 -34.5q-8 -94 -8 -139t4 -57q59 -80 59.5 -86t-38.5 -36 t-92.5 -58.5t-83.5 -28.5q-131 47 -131 65q4 139 57 174q-23 35 -35 35q-76 -27 -84 -35q-51 -55 -51 -73l6 -19l-12 -123q0 -53 22 -75q2 -2 2 -7.5t-21.5 -30t-21.5 -28.5q4 -31 14.5 -40t28.5 -17q43 -23 43 -33q0 -25 -9 -53.5t-9 -37.5t13.5 -26.5t25.5 -17.5 q41 10 61 33q57 -12 128 -12.5t108 30.5q31 18 59 18q20 -55 21 -77q-23 -70 -23 -81.5t-55 -91t-84 -108.5q-6 -6 -113 -18v-9q0 -72 15 -86v-4l-7 -22q-84 -37 -111.5 -37t-64.5 10t-37 19v2l13 102q-55 0 -155.5 76t-100.5 96q0 2 20.5 18.5t20.5 31t-8.5 26.5t-13.5 12 t-10 -5t-22 -5l-49 12q0 39 -18.5 145.5t-18.5 186.5z" />
<glyph unicode="&#xa3;" horiz-adv-x="1173" d="M10 752q0 104 27 184l10 27q12 12 172 16q27 14 34 22.5t7 22.5l-8 41q-14 14 -33 22q-31 10 -31 20.5t25 68t25 73.5l-37 181q0 8 39 42.5t92 68.5t103 34t142.5 -15.5t92.5 -27.5q0 -27 -14.5 -131.5t-26.5 -110.5q-49 -25 -49 -52.5t31.5 -56t31.5 -36.5v-2 q-12 -109 -12 -141.5t3 -35.5t63.5 -3t71.5 11t94 11t95 -12q16 -31 17 -80q0 -6 -21.5 -61.5t-21.5 -83.5q-29 -8 -46.5 -8.5t-21.5 3.5q-8 29 -45 28t-47 -12t-25.5 -11t-50 9t-37.5 9h-34l-2 -59v-9q2 -6 19 -24.5t17 -28.5t-21.5 -43t-21.5 -59q14 -59 14.5 -82 t-3.5 -27q-72 -74 -72 -125q0 -8 10 -27.5t17.5 -19.5t47.5 31t60 31h4q70 -16 130.5 -16.5t80.5 20.5q74 74 101 137q6 14 12 14q57 0 106.5 -49t49.5 -80t-19.5 -54.5t-19.5 -35.5l6 -41q0 -29 -34 -105.5t-40 -82.5q-20 -20 -104 -21q-156 0 -283 17l-49 6 q-31 0 -56.5 -23.5t-72.5 -23.5l-189 12q-104 0 -104 22v5q14 59 14 168l-4 116v2q0 8 38 39t38 52.5t-18.5 41t-57.5 31.5q-4 12 -4 25l12 84q4 18 4 68t-2 77q0 27 -106 27q-27 0 -37 -6.5t-43 -6.5t-33 9z" />
<glyph unicode="&#xa4;" horiz-adv-x="1216" d="M82 258v2q2 8 68.5 91t85.5 116q31 4 49 18q4 0 12 15v2q-16 20 -23.5 20t-19.5 25q-31 70 -31 164q25 20 25 31.5t-9.5 14.5t-9.5 5q0 43 15.5 95t15.5 56v15q10 27 31 26q12 6 12 15q-2 8 -2 17t23 28q-8 14 -13 14q-14 14 -49 19q-16 33 -83.5 116.5t-69.5 89.5v2 q-2 4 18 23q48 40 109 65l16 3h4q121 -6 127 -23q45 -55 63 -106q6 -12 7 -21q0 -35 34 -63q57 20 75 20t24 -6t15 -6t18.5 10t11.5 10q70 0 149 -22l-4 20v4q2 8 41 54.5t51 74.5q0 10 2 13q0 8 48.5 15t88.5 7t50 -2h2q14 -4 54 -31.5t40 -40.5v-2q-145 -162 -201 -233 q43 -51 43 -71.5t16.5 -35t16.5 -18.5l-10 -35q18 -18 18 -72.5t-3 -57.5t-8 -43t-5 -50q0 -29 -68 -111l2 -2v-4q12 -29 168 -203l54 -59v-2q0 -12 -39 -40t-54 -32h-2q-10 -2 -51 -2t-89 7.5t-48 15.5q-2 2 -2 12q-12 29 -51 75t-41 54v4q6 27 6 41q-4 8 -14 17 q-51 -18 -68.5 -18.5t-24 5.5t-15.5 6t-19 -10q-14 -16 -72 -16l-107 8q-14 0 -16 2v4q-45 -33 -45 -68t-70 -129q-4 -14 -94 -20l-31 -2h-4l-16 2q-61 25 -95 54.5t-32 33.5zM442 694q0 -12 7 -12h4q6 0 6 -2q0 -20 21.5 -51t29.5 -31h2l2 2q57 -20 133 -20l58 14 q8 0 32.5 13.5t24.5 19.5v10q0 6 22 6q37 51 37 72q-6 10 -6 18l12 23v4q0 88 -36 110q-8 4 -7.5 8.5t0.5 11.5t-4 7q-4 6 -18 19.5t-21 13.5q-2 0 -2 7t-18 7q-37 18 -90 19l-58 -15q-8 0 -31.5 -13t-23.5 -22q0 -16 -24 -16q-6 -6 -5.5 -9t0.5 -5q-33 -37 -40 -62.5 t-7 -62.5v-29q10 -10 11 -12z" />
<glyph unicode="&#xa5;" horiz-adv-x="1280" d="M4 891q0 51 20.5 108.5t27.5 64.5t26 7l67 -2q43 0 56 10v4q0 20 -62 148l-18 41q-2 12 10 28.5t12 24.5q0 39 -22 39q-43 0 -50.5 7t-34 59.5t-26.5 58.5q0 12 119 56t119 48t45 4t119.5 -11t91.5 -27q45 -188 59 -213q-35 -51 -35 -68.5t20.5 -25t35.5 -7.5q4 0 14 -41 q33 -129 43 -139q27 -12 35 -12t40 83t30.5 98t-1.5 31.5t3 18.5q33 45 40 70q43 10 43 30q-4 23 -4 43.5t6.5 26.5t17.5 45t19.5 46t106.5 33t124.5 26t100.5 -27t74 -41q0 -2 -64.5 -87t-64.5 -126t-14 -41q-45 -12 -76 -43q-86 -145 -86 -164q0 -10 62.5 -10t103.5 8 q10 -18 10 -86q-31 -135 -53 -135h-2q-49 16 -130 16t-88 -8q-63 -129 -67 -182q0 -14 106.5 -14t157.5 18q27 -41 27 -117q0 -14 -23.5 -56t-23.5 -54q0 -9 -25 -9l-180 13q-66 0 -84 -19q-14 -156 -14 -260q29 -121 28 -160q0 -12 -39 -22q-137 -35 -162 -59 q-2 -2 -38.5 -2t-138 22.5t-101.5 42.5l33 191l-8 157q0 6 53 39q0 20 -17.5 41t-78.5 21q-102 0 -195 -13l-31 -4l-4 -2q-18 0 -31 72q0 25 21.5 82t21.5 73q0 8 43 9h25q41 -10 118 -10.5t77 16.5q0 31 -50 145l-14 37q-6 6 -49 6l-186 -12h-2q-14 0 -19 41z" />
<glyph unicode="&#xa6;" horiz-adv-x="501" d="M59 -84q0 37 23 135q0 53 6 60l6 6q14 49 15 90l-13 143l10 35q7 7 7 23l-31 194q0 6 65.5 14.5t83 8.5t88 11t101.5 11t31 -10q-25 -139 -25 -217q-51 -43 -51 -84q0 -16 29.5 -30.5t29.5 -29.5q0 -35 -14 -106q6 -190 20 -229v-4q0 -10 -22.5 -23.5t-44.5 -19.5l-23 -9 q-29 -29 -108 -28l-64 4q-37 37 -100 45q-18 2 -19 10zM78 1022q0 23 4 43q0 53 6 59l6 6q14 49 15 91l-13 143l10 35q6 6 6.5 26.5t-15 96t-15.5 94.5q0 6 66.5 42t100.5 36t118 -11.5t84 -31.5q-25 -139 -25 -217q-51 -43 -51 -84q0 -16 29.5 -30.5t29.5 -29.5 q0 -35 -14 -106q6 -190 20 -230v-4q0 -29 -28.5 -38t-87.5 -9h-60q-47 0 -104.5 -17.5t-64.5 -17t-7 8.5z" />
<glyph unicode="&#xa7;" horiz-adv-x="1218" d="M10 659q0 47 23.5 122t38 88.5t142.5 90t148 76.5q10 0 11 27v4q0 20 -118 48t-126 36t-8 66.5t14 72.5q37 74 66 105q174 123 237 123q8 0 28.5 -21.5t43.5 -21.5q12 0 31.5 37.5t33.5 37.5q115 2 148 35q59 8 118.5 8t76.5 -16q72 -86 71 -168q-23 -25 -36 -25t-17 5 h-16q-74 0 -99 -25q-6 -6 -16 -6l-45 12q-29 0 -100.5 -27.5t-71.5 -48.5q-2 -6 -2 -18t8 -12q37 -4 155.5 -48.5t151.5 -44.5h62q8 0 20 -15t12 -34q150 -72 199 -123q14 -14 14 -147q0 -16 -36.5 -74.5t-55.5 -58.5q-49 14 -60.5 14t-16.5 -17.5t-8 -39t-9 -27.5 q-47 -47 -110.5 -77.5t-63.5 -39t73.5 -59.5t73.5 -74q0 -115 -32 -188l-13 -25q-29 -29 -131 -77l-33 -17l-28 -45q-8 -10 -27 -10l-86 16q-10 0 -14 -4q-63 -66 -338 -65h-35q-31 0 -79 72.5t-48 100t12 27.5q100 0 200.5 22.5t152.5 45.5l49 22q25 25 43 74 q0 14 -58.5 42t-115.5 48l-58 19l-94 10q-25 0 -27 29.5t-42.5 51t-81.5 32.5l-43 10q-20 8 -58 69zM403 819q6 -39 10.5 -41t28.5 -10q72 -23 72 -33q0 -16 26.5 -30.5t53.5 -20.5l27 -6q33 0 135 61.5t102 100.5q0 27 -25.5 49t-50.5 33l-24 8q-4 -4 -19.5 -4t-62.5 20.5 t-60.5 20.5t-67.5 -37t-99 -74z" />
<glyph unicode="&#xa8;" d="M125 1357q0 50 3 55t24.5 27.5t44.5 35.5q88 27 108.5 26.5t50 -9.5t29.5 -17q-8 -20 -8 -39q39 -33 39 -45q0 -41 -11.5 -73t-31.5 -52q-16 -12 -57.5 -25.5t-79 -13.5t-54.5 16q-2 2 -2 23q0 31 -22 30h-13q-8 0 -14 5.5t-6 55.5zM563 1321q0 31 7.5 67.5t15.5 36.5 q27 0 110 68q20 8 37 8q104 -25 105 -55q-12 -18 -12.5 -29.5t22 -26t22.5 -26.5q-2 -61 -20.5 -79.5t-28.5 -18.5t-40.5 -28t-35.5 -28l-88 13q-29 10 -88 61q-6 6 -6 37z" />
<glyph unicode="&#xa9;" horiz-adv-x="1411" d="M29 453q0 2 19.5 18t19.5 34.5t-15.5 25t-15.5 10.5q0 72 25.5 156.5t25.5 93.5v26q18 43 53 43q20 10 21 25q-4 14 -4 29.5t94 100.5t119 85q10 23 12 26q160 66 235 66q4 0 14.5 -10.5t25 -10.5t31 17.5t18.5 17.5q84 0 176 -19.5t147 -43t55 -37.5q-2 -10 -2 -21.5 t11.5 -23.5t29.5 -12l37 -5q47 -35 100.5 -101t53.5 -98t26.5 -55.5t26.5 -31.5l-14 -58q12 -12 20 -74.5t8 -99.5t-5 -42t-13 -71.5t-8 -84.5q0 -31 -92 -156l-31 -43q-2 -4 -31 -4h-20q-16 0 -26.5 -23.5t-12.5 -48.5l-2 -22q-70 -45 -72 -47q-160 -70 -235 -70 q-2 0 -14.5 10t-27 10t-30.5 -16l-17 -18q-61 -10 -104 -11l-176 15q-23 0 -27 4q-4 35 -10 41q-16 4 -23.5 4t-9.5 -2l-30 -25q-27 0 -87.5 37t-80.5 60q-49 119 -86 118q-10 0 -29 40t-36 117t-17 155zM211 509q0 -58 4 -61.5t14.5 -16.5t10.5 -21.5t-12.5 -28 t-12.5 -23.5v-2q0 -35 10 -34q8 2 18.5 2t10.5 -7q0 -51 56.5 -131t78.5 -80q4 0 33 -12q92 -33 321 -37q31 0 74 18.5t70.5 18.5t90 33t62.5 53q0 25 12.5 35t51.5 10q98 129 98 185q-18 23 -18 39t15 37.5t15 29.5v8q0 233 -98 289q-18 10 -16 22.5t2 30t-8 23.5 q-78 78 -103 78l-10 18q-10 18 -43 19q-94 47 -229 47q-31 0 -74 -17.5t-70.5 -17.5t-90 -34t-62.5 -54q0 -25 -13.5 -36t-52.5 -11q-14 -12 -14 -20.5t4 -12.5q-86 -100 -94 -135q0 -8 -13 -58q-18 -88 -18 -146zM444 590l7 -101q0 -14 -1 -17t12 -16.5t13 -28.5t-29 -40 q0 -14 17.5 -63.5t39 -83t78 -68.5t84 -35t61.5 9.5t56.5 19.5t29.5 10t15.5 -9t10.5 -9q18 0 73.5 61.5t55.5 99.5q0 8 -35 60q-14 14 -46 31.5t-38 17.5h-4q-10 0 -10 -2q0 -31 -19.5 -63.5t-39 -51t-27.5 -18.5q-47 0 -68 44t-21 91v49q0 39 7 51q-25 20 -25 29.5 t15.5 24t15.5 27t-12.5 24.5t-12.5 27.5t6 48t6 36.5v15q0 25 26 51.5t51.5 26.5t25.5 -47q0 -8 8 -20.5t8 -53.5t-16 -60l14 -20q49 0 103 16q10 2 33.5 28t33.5 42t10 55v19q0 2 -17 14t-17 23.5t10 25.5t10 17.5t-13.5 23t-37 40t-41.5 20.5q-117 0 -176 -17l-23 -6 q-45 -16 -119.5 -84t-74.5 -94q10 -25 10 -39t-11.5 -60.5t-11.5 -70.5z" />
<glyph unicode="&#xaa;" horiz-adv-x="815" d="M20 733q0 80 14.5 152.5t31.5 105.5l14 35q23 29 133.5 88.5t179.5 59.5q6 0 18.5 -11.5t21.5 -11.5t26 8q29 12 28 27q0 27 -24 67q-20 20 -123 29l-35 4q-45 0 -102.5 -25.5t-61.5 -25.5t-17 21.5t-13 30.5t31.5 71.5t43.5 71.5q20 12 129 40.5t156 28.5 q76 -49 134.5 -62.5t112.5 -53.5t54 -76q0 -4 -17.5 -37t-17.5 -53.5t21 -53.5q0 -86 -6 -98q-18 -35 -18.5 -41t8 -13t8.5 -12v-10l8 -133q0 -16 -4 -16q-57 -35 -58 -82q0 -14 27 -25l27 -10l12 -92l33 -58q0 -2 -17 -12q-45 -35 -77.5 -35t-98.5 -37h-4q-25 0 -111 31 l-28 10q-2 10 -2 17l4 82v6l-23 6l-24 -27q-14 -18 -105 -77l-28 -21q-49 0 -99.5 31t-77 60.5t-26.5 33.5q25 29 24 43q0 29 -61 45zM319 854.5q0 -18.5 25 -41t39 -22.5t53 30.5t39 42.5q-12 25 -12 49l6 86q0 12 -4 13q-23 0 -78 -28t-55 -48q14 -23 14 -36t-4 -17 q-23 -10 -23 -28.5z" />
<glyph unicode="&#xab;" horiz-adv-x="1521" d="M10 633q33 78 60 102q213 131 229 152q23 53 43 53q76 2 76 25q12 41 18 41q20 0 180 114.5t169.5 122.5t9.5 9t2 1q12 0 28.5 -41t16.5 -67.5t-13.5 -68.5t-13.5 -58q-45 -59 -63 -60h-11q-25 0 -34 -10q-31 -74 -70 -74q-4 2 -10 3q-27 0 -39 -33q-262 -170 -262 -203 q0 -41 174 -162l61 -43q10 -39 37 -39h16q33 0 39 -8q35 -31 35 -55q0 -12 74 -57.5t80 -51.5t6 -47t-21.5 -109.5t-46.5 -68.5q-8 0 -53 46t-55 46q-8 -4 -10 -4q-18 0 -107.5 82t-111 82t-27.5 7t-11.5 20.5t-17.5 25.5t-51 12l-29 -2q-29 0 -37 60q0 18 -49 57t-98 68 l-51 30q-16 0 -52 76zM666 633q33 78 57 102q215 131 229 152q23 53 45 53q76 2 76 25q10 41 19 41q18 0 179 114.5t170 122.5t9 9t2 1q12 0 28.5 -41t16.5 -67.5t-13.5 -68.5t-13.5 -58q-47 -59 -65 -60h-10q-23 0 -33 -10q-31 -74 -70 -74q-4 2 -10 3q-29 0 -39 -33 q-264 -170 -264 -203q0 -41 176 -162l59 -43q10 -39 37 -39h17q35 0 41 -8q33 -33 32.5 -49t34.5 -38.5t74 -46.5t45 -30t6 -47t-20.5 -109.5t-44.5 -68.5q-8 0 -53.5 46t-55.5 46q-8 -4 -10 -4q-18 0 -108.5 82t-111 82t-26.5 7t-11 20.5t-17.5 25.5t-51.5 12l-28 -2 q-31 0 -39 60q0 18 -50.5 57t-99.5 68l-49 30q-14 0 -49 76z" />
<glyph unicode="&#xac;" horiz-adv-x="1122" d="M10 659q0 106 29 177l10 24q16 16 109 17h8q285 -10 301 -11l96 27l51 -12q16 -16 150.5 -16.5t142.5 8t45 8.5l144 -13q16 -28 16 -77l-2 -78l-10 -25q-12 -12 -12.5 -136t6 -135t6.5 -41t-8.5 -38t-90 -8t-114.5 32q-12 12 -13 89v41q4 84 9 153q-16 0 -50 9.5t-36 9.5 l-301 6q-33 -33 -60 -33l-24 8q-14 18 -162 18.5t-160 -6t-46 -6.5t-34 8z" />
<glyph unicode="&#xad;" horiz-adv-x="884" d="M20 442q0 109 21 176l6 25q16 16 84 16h10q217 -10 230 -10l71 27l41 -12q12 -16 112.5 -16.5t111.5 5.5q8 10 34 11l109 -13q14 -29 14 -78q0 -6 -17.5 -55t-17.5 -78q-23 -8 -35 -8t-19 10.5t-33.5 9.5t-35 -12.5t-16.5 -11.5l-69 18l-230 7q-25 -33 -45 -33l-18 8 q-16 18 -127 18t-120 -6t-35 -6t-26 8z" />
<glyph unicode="&#xae;" horiz-adv-x="1411" d="M29 453q0 2 19.5 18t19.5 34.5t-15.5 25t-15.5 10.5q0 72 25.5 156.5t25.5 93.5v26q18 43 53 43q20 10 21 25q-4 14 -4 29.5t94 100.5t119 85q10 23 12 26q160 66 235 66q4 0 14.5 -10.5t25 -10.5t31 17.5t18.5 17.5q84 0 176 -19.5t147 -43t55 -37.5q-2 -10 -2 -21.5 t11.5 -23.5t23.5 -12t25 8q18 0 95 -86t77 -137q0 -20 26.5 -44t26.5 -32l-14 -58q12 -12 20 -74.5t8 -99.5t-5 -42t-13 -71.5t-8 -84.5q0 -31 -92 -156l-31 -43q-2 -4 -31 -4h-20q-16 0 -26.5 -23.5t-12.5 -48.5l-2 -22q-70 -45 -72 -47q-160 -70 -235 -70q-2 0 -14.5 10 t-27 10t-30.5 -16l-17 -18q-61 -10 -104 -11l-176 15q-23 0 -27 4q-4 35 -10 41q-16 4 -23.5 4t-9.5 -2l-30 -25q-27 0 -87.5 37t-80.5 60q-49 119 -86 118q-10 0 -29 40t-36 117t-17 155zM211 509q0 -58 4 -61.5t14.5 -16.5t10.5 -21.5t-12.5 -28t-12.5 -23.5v-2 q0 -35 10 -34q8 2 18.5 2t10.5 -7q0 -51 56.5 -131t78.5 -80h4q2 2 5 2.5t40 -14.5q100 -37 305 -37q31 0 74 18.5t70.5 18.5t90 33t62.5 53q0 25 12.5 35t51.5 10q98 129 98 185q-18 23 -18 39t15 37.5t15 29.5v8q0 233 -98 289q-18 10 -16 22.5t2 30t-8 23.5 q-78 78 -103 78l-10 18q-10 18 -43 19q-94 47 -229 47q-31 0 -74 -17.5t-70.5 -17.5t-90 -34t-62.5 -54q0 -25 -13.5 -36t-52.5 -11q-14 -12 -14 -20.5t4 -12.5q-86 -100 -94 -135q0 -8 -13 -58q-18 -88 -18 -146zM444 897q0 4 27 21q80 47 139 47q8 0 18.5 -28t11.5 -37 t11.5 -9t32 27.5t31.5 31.5q49 6 105.5 6t68.5 -12q49 -51 49 -92q-23 -18 -23 -32.5t21 -14.5l22 4q12 -6 12.5 -68.5t-16.5 -78.5q-49 -51 -116 -87q-4 -10 -4 -14t2 -4q35 0 76.5 -27.5t41.5 -44.5v-39q0 -139 66 -202v-2q0 -10 -39 -44t-49 -34q-117 0 -141 26 q-2 29 -3.5 47.5t-2.5 22.5t12.5 16.5t13.5 22.5t-19.5 13t-19.5 5l-12 125q-4 23 -41 52q-18 0 -57 -31l24 -39q-12 -63 -12 -115v-10q2 0 9 -6t7 -10l6 -86v-9q-23 0 -60.5 -22.5t-57.5 -22.5q-41 8 -58 9q-27 0 -69 43q14 25 16 104l2 27q33 20 33 34q0 8 -15.5 14.5 t-15.5 10.5q0 53 9 102.5t9 52.5t-4 11q-6 4 -6 45q-4 139 -14 174q0 2 10 7t10 17.5t-10 38t-20.5 43t-10.5 21.5zM666 799q20 -20 20 -76q0 -2 -8 -10t-10 -8q6 -49 6 -76v-17q6 -10 16 -10t41 24.5t31 32.5l-14 39l22 37q0 74 -37 107q-14 0 -40.5 -17.5t-26.5 -23.5v-2z " />
<glyph unicode="&#xaf;" d="M160 1227q0 82 18 145q14 14 62 14h8q158 -8 166 -8l53 19l29 -11q14 -10 84.5 -10t78.5 4q4 6 25 6l80 -8q8 -20 8 -39.5t-11 -56.5t-11 -57q-16 -4 -29 -4h-8q-8 14 -27.5 13t-26 -9t-12.5 -8l-51 12l-168 6q-16 -25 -31 -25l-14 7q-12 12 -93 12t-86 -4t-24.5 -4 t-19.5 6z" />
<glyph unicode="&#xb0;" horiz-adv-x="358" d="M0 1298q0 10 55.5 74t71.5 66h20l66 -6l4 2q12 12 31.5 12t49.5 -33t30 -70l30 -65q0 -80 -43 -123q-6 -6 -35.5 -22.5t-54.5 -32.5q-4 -2 -30 -2l-97 4q-14 4 -55 74q-2 2 -6 2l-14 -2q-8 0 -15.5 48t-7.5 74zM115 1272q8 -37 16 -47q33 -16 56.5 -14t37.5 18 q14 10 14.5 29.5t-6 19.5t-14.5 27.5t-24 27.5q-45 0 -45 -12q0 -2 -17.5 -19.5t-17.5 -29.5z" />
<glyph unicode="&#xb1;" horiz-adv-x="1122" d="M10 229q0 106 29 177l10 24q16 16 109 16h8q285 -10 301 -10l96 27l51 -12q16 -16 150.5 -16.5t142.5 8t45 8.5l144 -13q16 -29 16 -78q0 -6 -22.5 -55t-22.5 -78q-29 -8 -45 -8t-21 4q-10 16 -46.5 15.5t-47 -12t-25 -11.5t-49 9t-36.5 9l-301 7q-33 -33 -60 -33l-24 8 q-14 18 -162 18t-160 -6t-46 -6t-34 8zM10 905q0 106 29 176l10 25q16 16 107 16h8q205 -8 278 -8l15 21l4 55q0 76 -8.5 85t-8.5 44l13 143q31 16 78 17q8 0 56 -21.5t77 -21.5q10 -29 10 -45.5t-6 -22.5q-14 -8 -13.5 -45t11 -47t10.5 -23.5t-4 -33t-9 -37t-5 -19.5v-28 q0 -10 16 -19q63 -6 142 -6t86 8t44 8l146 -12q16 -29 16 -78q0 -6 -22.5 -55t-22.5 -78q-29 -8 -46 -8t-22 4q-8 16 -44.5 15t-47 -12t-23 -11t-31.5 4t-36.5 10t-21.5 6h-115q-19 -10 -23 -24l5 -158q0 -96 6 -107.5t6 -41t-8.5 -37.5t-90 -8t-114.5 32q-12 12 -12 88v41 q12 147 12 160q0 18 -25 35q-16 16 -179 16t-171 -5t-42 -5t-34 8z" />
<glyph unicode="&#xb2;" horiz-adv-x="708" d="M41 745q10 6 23.5 67.5t15.5 64t14 6.5q33 10 33 26q0 20 -18 39q0 20 98 187l33 55q20 0 28 8l15 21l-19 32q0 2 50.5 63.5t50.5 69.5q0 82 -29 82q-68 0 -87.5 -13t-23.5 -19q-18 -20 -49 -86l-12 -25q-29 0 -63.5 38t-34.5 53.5t21.5 83t32.5 78.5t85 31.5t92 20.5 l117 -4q23 0 28 2h2q14 0 78 -30.5t86 -53.5q16 -70 16.5 -100.5t-9 -39.5t-9.5 -22l2 -24q0 -6 -2 -8q-80 -113 -104 -195q-63 -31 -64 -47l8 -45q0 -10 -24 -25q-10 -10 -49 -80.5t-39 -91.5q12 -18 76 -18h6q74 0 127 143q10 4 47 4q55 -25 55 -39q-19 -143 -31 -153 q-37 -25 -36.5 -37t24.5 -29q0 -10 -5 -33.5t-9 -23.5l-109 8l-37 16l-65 -14q-63 -14 -86 -14q-4 0 -15.5 15.5t-19.5 15.5t-20.5 -13.5t-94.5 -13.5l-94 6z" />
<glyph unicode="&#xb3;" horiz-adv-x="694" d="M49 823.5q0 18.5 34 52t40 33.5l24 -20q70 -61 121 -62l43 9v22q74 37 74 121q0 18 -43 74l-76 14q-2 0 -8 12.5t-10 12.5q-37 0 -98 -21h-3q-8 0 -24 31q0 74 37 131l14 18q4 4 37 4l72 -4q23 0 59.5 45t36.5 60.5t-5 35t-30 42t-53 22.5q-43 0 -105 -26l-61 -72 q-18 0 -47 30.5t-29 41t42 88t54 77.5q133 10 151.5 19.5t46.5 9.5t106.5 -23.5t105.5 -50.5q10 -12 21.5 -65t11.5 -68q18 -18 18 -24q0 -29 -45 -101.5t-57 -72.5h-2q-18 4 -39 4t-31 -11q-8 -16 -8 -22t2 -6q51 0 93 -25.5t58.5 -49.5t16.5 -30q-33 -27 -33 -39 q10 -25 23 -24q29 0 28 -6q0 -59 -8 -127t-19.5 -83.5t-57.5 -58.5t-52 -45t-29 -4q-63 -6 -90 -33q-14 -10 -32 -10l-117 17q-39 12 -96 12h-15q-16 0 -31.5 63.5t-15.5 82z" />
<glyph unicode="&#xb4;" d="M424 1281q0 17 51 80.5t51 70.5q2 25 2 26q49 61 52.5 64.5t45.5 8.5t66.5 5t74.5 -35t50 -53q0 -6 -16 -18q-63 -43 -82 -64q-2 -2 -25.5 -2t-23.5 -16l4 -31q0 -6 -18.5 -12.5t-65.5 -46t-56.5 -50t-19.5 -10.5t-50 33t-40 50z" />
<glyph unicode="&#xb5;" horiz-adv-x="997" d="M-221 -472q0 11 27.5 62.5t43.5 69.5q25 29 67 31t99.5 47t55.5 59v17l8 262v12q-12 16 -23.5 39t-11.5 203q0 2 24.5 22.5t24.5 38t-25.5 33.5t-25.5 22v5q18 37 18 137l-8 147l27 37q-35 162 -35 191q0 12 84 65t115 53q188 -10 188 -34q-25 -209 -24.5 -281t2.5 -84 q0 -4 -30 -29.5t-30 -40.5l-2 -16q0 -8 4 -12l27 -9q27 -8 27 -26v-8q-2 -12 -3 -47v-60q0 -80 -20 -98q25 -47 48.5 -47t75.5 59.5t52 89.5v25l2 108q0 57 -8 66q-23 25 -23 40t18.5 40.5t18.5 38.5v57q0 174 -6 209v2q0 12 33 26.5t47 30t63.5 39t73.5 23.5 q160 -23 160 -66q0 -2 -8 -19.5t-18.5 -75.5t-10.5 -114.5t8.5 -64.5t8.5 -41l-7 -156q0 -70 11 -104v-2q0 -4 -30 -26.5t-30 -44t25.5 -35t25.5 -21.5v-64q0 -150 11 -184q43 -100 43 -131q0 -6 -21 -12q-70 -23 -84 -37.5t-46 -29.5t-60.5 -15t-77.5 24.5t-77 50t-28 35.5 t25 61.5t25 59.5q0 14 -39 14h-4q-35 0 -91 -100l-18 -35q-6 -14 -59 -28q8 -203 18 -230v-2q0 -16 -26.5 -65.5t-36.5 -49.5l-50 13q-34 -21 -34 -35q0 -51 -7 -90q0 -39 -46 -96.5t-93 -57.5q-43 0 -174 -31l-45 -10q-72 31 -115 140q-16 41 -20 45t-4 15z" />
<glyph unicode="&#xb6;" horiz-adv-x="1075" d="M10 1110q0 41 121 202t180 161q29 -31 63 -31t47 17.5t19 38t9.5 24.5t137.5 30.5t165.5 26.5t148.5 -13.5t131 -13.5l8 2q4 -29 4 -65q0 -104 -34 -139q-14 -90 -14.5 -106.5t20 -37t20.5 -22.5q-2 -53 -30 -80q-6 -12 -11.5 -186.5t-5.5 -288t10 -123.5q33 -33 33 -76 q-41 -27 -41 -47q0 -201 17 -324q0 -20 -74 -53t-94.5 -33t-38 7.5t-17.5 15.5v2q20 41 20.5 171t-5.5 135t-6 40l14 197q0 27 -6 32q-29 29 -29 47.5t22.5 65.5t22.5 90t-16.5 104.5t-16.5 65.5t2 6q10 10 11 252v45l22 127q0 8 -39 21q-14 0 -80 -45l-20 -17 q-27 -27 -27 -139l4 -127q0 -20 -2 -22q-20 -20 -19 -46t24.5 -85.5t23.5 -69.5t-23.5 -58.5t-23.5 -66.5l27 -45q-10 -10 -11 -74l6 -190q0 -43 -4 -47.5t-4 -10.5t9.5 -32.5t9.5 -39t-6 -18.5q-33 -33 -33 -69v-5l24 -32q8 -6 8.5 -70.5t-12.5 -64.5q-29 0 -73 -50 q-10 -10 -56 -10h-24q-47 0 -68 -8h-2q-10 0 -14 41q31 31 30 194l-2 150q0 2 8.5 14.5t12.5 14.5q2 2 2 8t-23.5 35.5t-23.5 39t4 13.5q25 25 24 135l-8 139l-43 11q-2 0 -20.5 -48.5t-28.5 -48.5q-61 0 -159.5 30t-125.5 54q-18 20 -34.5 176t-16.5 197zM164 -48 q0 3 16 15q45 33 62 33q39 -14 43 -14l32 4h2q-9 -60 -40 -60q-35 12 -39 13l-62 -13q-6 0 -10 9.5t-4 12.5zM287 -141q0 2 29.5 19.5t35.5 17.5q14 -8 21 -13q37 -8 37 -14t-17.5 -22.5t-21.5 -16.5t-8.5 4t-14.5 4l-43 -2q-18 0 -18 23zM641 -94q0 10 45 22l27 15 q8 0 45 -21.5t37 -23.5q0 -16 -5.5 -22.5t-21.5 -6.5l-45 2q-16 0 -33 -10q-6 0 -27.5 20.5t-21.5 24.5z" />
<glyph unicode="&#xb7;" horiz-adv-x="407" d="M20.5 472q-0.5 40 12 92t24.5 52q37 0 111 74q27 8 45 8q121 -35 121 -71q-10 -18 -10 -37q0 -6 31.5 -30t31.5 -38q-4 -74 -26.5 -96.5t-35 -22.5t-46 -33.5t-39.5 -33.5l-107 14q-29 10 -86 60l-18 14q-8 8 -8.5 48z" />
<glyph unicode="&#xb8;" horiz-adv-x="860" d="M334 -268q0 6 7 21.5t16.5 25.5t11.5 10q23 -8 45 -8l39 8q12 8 12 47v6q-4 4 -52 16.5t-58.5 12.5t-10.5 10t45 88q16 12 41 12.5t43 -6.5q-23 -29 -22.5 -41t6.5 -14q102 -37 102 -65v-11q0 -59 -14 -77q-27 -31 -56.5 -48.5t-48.5 -17.5q-33 0 -104 23q-2 2 -2 8z" />
<glyph unicode="&#xb9;" horiz-adv-x="550" d="M16 1365q0 9 6.5 38t16.5 41t88 70.5t86 70.5l37 -6q6 0 8 2q27 31 29 31l137 8q45 -4 45 -10q0 -37 -16.5 -82t-18.5 -47l2 -35l-2 -115q0 -31 2 -37v-2q0 -4 -14 -16q-20 -18 -20.5 -28.5t4.5 -18.5q32 -15 32 -23l-12 -325q0 -35 10 -46.5t10 -13.5q6 -76 7 -104v-12 q-35 0 -86 -48q-4 -6 -29 -6h-4q-82 0 -121 19.5t-39 23.5l8 39q8 39 8 62v10q29 16 33 37q-2 8 -17.5 22.5t-15.5 20.5v2q10 82 10.5 201.5t-3.5 132.5v2q0 2 7 8t7 12q-31 39 -31 62l51 51q0 27 -30 26q-23 0 -75 -42t-54 -42q0 2 -28 30t-28 37z" />
<glyph unicode="&#xba;" horiz-adv-x="784" d="M10 999q0 25 40 126.5t52 113.5v2l-12 27q0 12 81 85.5t101 84.5q133 27 181 26q4 0 45 -18.5t51 -21.5t33.5 -33.5t23.5 -36.5q-8 -49 -14 -49q-111 -4 -138.5 -20.5t-78.5 -72t-65.5 -87t-14.5 -193.5q51 -23 51 -49q-18 -82 -18 -93.5t14 -42t27 -42.5 q27 -14 43 -14.5t20 5.5q43 41 43 142q0 23 -4 47q-31 31 -31 67q0 6 15.5 20.5t15.5 32t-14.5 38t-27.5 32.5t-13 15q0 23 54 83t79 60h22q150 0 150 -19q-10 -47 -10 -53t31.5 -65.5t31.5 -114.5q-45 -37 -45 -53.5t16 -32.5l19 -16q0 -16 -14.5 -70.5t-14.5 -85.5 t-82 -113q-84 -76 -106 -75h-2q-12 6 -29 6l-18 -2q-25 0 -35 -27t-14.5 -31t-42.5 -4l-148 12q-43 12 -98.5 58.5t-55.5 58.5q0 2 17.5 23.5t17.5 32.5q0 16 -22 34l-62 -10q-23 0 -34 119t-11 194z" />
<glyph unicode="&#xbb;" horiz-adv-x="1521" d="M20 1075q0 41 20.5 109.5t45.5 68.5q10 0 54 -46t55 -46q8 4 10 4q18 0 108 -82t111.5 -82t28 -7t11.5 -20t17.5 -25.5t50.5 -12.5l27 2q31 0 39 -59q0 -18 49 -57.5t98 -67.5l52 -31q18 0 49 -76l10 -26q-31 -78 -57 -103q-213 -131 -230 -151q-23 -53 -45 -54 q-76 -2 -75 -24q-10 -41 -17 -41q-20 0 -175 -110.5t-169 -124t-16 -13.5q-10 0 -28.5 41t-18.5 67.5t13 68.5t13 59q47 59 66 59h10q23 0 35 10q29 74 69 74q4 -2 11 -2q27 0 39 33q262 170 262 202q0 41 -174 162l-62 43q-10 39 -37 39h-16q-33 0 -41 8q-33 33 -33 49.5 t-34.5 39t-73.5 46t-45.5 29.5t-6.5 47zM676 1075q0 41 20.5 109.5t44.5 68.5q8 0 53.5 -46t55.5 -46q8 4 10 4q18 0 108.5 -82t111 -82t26.5 -7t11 -20t17.5 -25.5t51.5 -12.5l28 2q29 0 37 -59q0 -18 50.5 -57.5t99.5 -67.5l51 -31q18 0 49 -76l10 -26q-33 -78 -59 -103 q-213 -131 -229 -151q-20 -53 -43 -54q-76 -2 -76 -24q-12 -41 -19 -41q-18 0 -179 -115t-177 -131l-4 -2q-12 0 -28.5 41t-16.5 67.5t13.5 68.5t13.5 59q45 59 65 59h10q23 0 33 10q31 74 70 74q4 -2 10 -2q29 0 39 33q262 170 262 202q0 41 -176 162l-59 43q-8 39 -35 39 h-17q-35 0 -41 8q-33 29 -32 56q0 16 -74 59t-80 49t-6 47z" />
<glyph unicode="&#xbc;" horiz-adv-x="1495" d="M16 1365q0 9 6.5 38t16.5 41t88 70.5t86 70.5l37 -6q6 0 8 2q27 31 29 31l137 8q45 -4 45 -10q0 -37 -16.5 -82t-18.5 -47l2 -35l-2 -115q0 -31 2 -37v-2q0 -4 -14 -16q-20 -18 -20.5 -28.5t4.5 -18.5q32 -15 32 -23l-12 -325q0 -35 10 -46.5t10 -13.5q6 -76 7 -104v-12 q-35 0 -86 -48q-4 -6 -29 -6h-4q-82 0 -121 19.5t-39 23.5l8 39q8 39 8 62v10q29 16 33 37q-2 8 -17.5 22.5t-15.5 20.5v2q10 82 10.5 201.5t-3.5 132.5v2q0 2 7 8t7 12q-31 39 -31 62l51 51q0 27 -30 26q-23 0 -75 -42t-54 -42q0 2 -28 30t-28 37zM143 -31 q0 -27 97.5 -26.5t105.5 8.5q33 33 33 50t29.5 59t44.5 44q20 6 20 27t-4 41q111 229 131.5 249.5t45 77t46 101.5t39 45t132 215t122.5 215t45 66.5t79 144.5t52 88l25 25q33 33 33 47l4 59l30 15q14 4 35 67q0 18 -99 18.5t-114 -14.5q-61 -68 -61 -98v-4q2 -2 -38 -86 t-90 -167t-69 -83q-2 0 -31 -70q-86 -211 -124 -211q-10 0 -76 -107.5t-66 -131t-83 -162.5t-97 -154q-61 -66 -64.5 -71.5t-10.5 -38.5t-11 -39l-47 -90q-63 -88 -64 -109zM729 266v4l21 97q45 8 45 22q2 6 2 18.5t-11 22.5q70 168 76 174t15.5 10t11.5 13q70 188 92 188 q37 4 37 19q20 70 41 69q29 0 84 19.5t72.5 19.5t65.5 -17.5t48 -27.5q-16 -68 -16 -190v-62q12 -18 12 -27.5t-17.5 -23.5t-17.5 -30.5t14.5 -21.5t14.5 -7v-33q0 -45 -6 -49q-43 -15 -43 -54q0 -4 48 -4t71 23q8 0 16 -11.5t8 -19.5t-16.5 -42t-28.5 -101q-4 -12 -74 -29 q-4 -2 -4 -57v-54q0 -16 14.5 -50t14.5 -36q0 -16 -72.5 -34.5t-92 -18.5t-68 21.5t-66.5 23.5l-2 2q0 2 9 54.5t9 83.5q0 2 29 6t29 10q0 45 -68 45q-113 0 -229 -21l-35 -6h-2q-14 0 -29 19q4 20 4 39.5t-6 23.5zM944 378q0 -5 27.5 -11.5t60.5 -6.5t41 9.5t8 33.5v13 q-20 16 -20 25.5t12 21.5t12 31l-6 26v4l8 125l-6 13l-32 -9l-37 -73l12 -31q0 -12 -29 -29q-18 -33 -34.5 -85t-16.5 -57z" />
<glyph unicode="&#xbd;" horiz-adv-x="1544" d="M16 1365q0 9 6.5 38t16.5 41t88 70.5t86 70.5l37 -6q6 0 8 2q27 31 29 31l137 8q45 -4 45 -10q0 -37 -16.5 -82t-18.5 -47l2 -35l-2 -115q0 -31 2 -37v-2q0 -4 -14 -16q-20 -18 -20.5 -28.5t4.5 -18.5q32 -15 32 -23l-12 -325q0 -35 10 -46.5t10 -13.5q6 -76 7 -104v-12 q-35 0 -86 -48q-4 -6 -29 -6h-4q-82 0 -121 19.5t-39 23.5l8 39q8 39 8 62v10q29 16 33 37q-2 8 -17.5 22.5t-15.5 20.5v2q10 82 10.5 201.5t-3.5 132.5v2q0 2 7 8t7 12q-31 39 -31 62l51 51q0 27 -30 26q-23 0 -75 -42t-54 -42q0 2 -28 30t-28 37zM143 -31 q0 -27 97.5 -26.5t105.5 8.5q33 33 33 50t29.5 59t44.5 44q20 6 20 27t-4 41q111 229 131.5 249.5t45 77t46 101.5t39 45t132 215t122.5 215t45 66.5t79 144.5t52 88l25 25q33 33 33 47l4 59l30 15q14 4 35 67q0 18 -99 18.5t-114 -14.5q-61 -68 -61 -98v-4q2 -2 -38 -86 t-90 -167t-69 -83q-2 0 -31 -70q-86 -211 -124 -211q-10 0 -76 -107.5t-66 -131t-83 -162.5t-97 -154q-61 -66 -64.5 -71.5t-10.5 -38.5t-11 -39l-47 -90q-63 -88 -64 -109zM885 68q0 -55 6 -62q45 -6 110.5 -6t78 13.5t20.5 13.5t19 -15.5t16 -15.5q23 0 86 14l65 15 l37 -17q66 -8 109 -8q4 0 9 23.5t5 33.5q-25 16 -25 25q0 16 37 41q10 6 25 119l6 34q0 14 -55 39l-48 -4q-53 -143 -126 -143h-7q-57 0 -75 18q0 20 38.5 91t49.5 81q25 14 24 25l-8 45q0 12 64 47q18 66 84 164l20 31q2 2 2 8l-2 24q0 12 9 21.5t9 28.5l-16 112 q-23 23 -86 53.5t-78 30.5h-2q-6 -2 -29 -2l-116 4q-18 0 -92 -20.5t-85.5 -31.5t-33 -78.5t-21.5 -83t35 -53.5t64 -38q49 106 73 123q33 20 99 20q29 0 28 -81q0 -10 -50 -69.5t-50 -64.5l18 -32q-10 -29 -43 -29q-131 -217 -131 -242q18 -20 18.5 -33.5t-10 -20.5 t-22.5 -11t-14 -6t-15.5 -63.5t-23.5 -67.5z" />
<glyph unicode="&#xbe;" horiz-adv-x="1550" d="M49 823.5q0 18.5 34 52t40 33.5l24 -20q70 -61 121 -62l43 9v22q74 37 74 121q0 18 -43 74l-76 14q-2 0 -8 12.5t-10 12.5q-37 0 -98 -21h-3q-8 0 -24 31q0 74 37 131l14 18q4 4 37 4l72 -4q23 0 59.5 45t36.5 60.5t-5 35t-30 42t-53 22.5q-43 0 -105 -26l-61 -72 q-18 0 -47 30.5t-29 41t42 88t54 77.5q133 10 151.5 19.5t46.5 9.5t106.5 -23.5t105.5 -50.5q10 -12 21.5 -65t11.5 -68q18 -18 18 -24q0 -29 -45 -101.5t-57 -72.5h-2q-18 4 -39 4t-31 -11q-8 -16 -8 -22t2 -6q51 0 93 -25.5t58.5 -49.5t16.5 -30q-33 -27 -33 -39 q10 -25 23 -24q29 0 28 -6q0 -59 -8 -127t-19.5 -83.5t-57.5 -58.5t-52 -45t-29 -4q-63 -6 -90 -33q-14 -10 -32 -10l-117 17q-39 12 -96 12h-15q-16 0 -31.5 63.5t-15.5 82zM209 -31q0 16 49 86l14 23q41 78 46.5 87t12.5 42t9 37l66 73q14 14 97 153.5t83 163t65.5 131 t75.5 107.5q39 0 125 211q29 70 31 70q18 0 68 83t90 167t38 86v4q0 31 62 98q14 14 113.5 14.5t99.5 -18.5q-20 -63 -35 -67q-25 -6 -31 -15q-4 -41 -4 -55t-9 -25.5t-24 -25.5l-16 -17q-18 -18 -60 -96t-79 -144.5t-45.5 -66.5t-123 -215t-132 -215t-39 -45t-46 -101.5 t-38.5 -68.5q-23 -25 -109 -201l-28 -57q4 -20 4 -33q0 -27 -21 -35q-14 -2 -44 -44t-30 -59t-32 -50q-8 -8 -105.5 -8t-97.5 26zM784 266v4l21 97q45 8 45 22q2 6 2 18.5t-10 22.5q70 168 76 174t15 10t11 13q70 188 92 188q37 4 37 19q20 70 41 69q29 0 84 19.5t72.5 19.5 t65.5 -17.5t48 -27.5q-16 -68 -16 -190v-62q12 -18 12 -27.5t-17 -23.5t-17 -30.5t14 -21.5t14 -7v-33q0 -45 -6 -49q-43 -15 -43 -54q0 -4 48 -4t71 23q8 0 16 -11.5t8 -19.5t-16 -42t-29 -101q-4 -12 -73 -29q-4 -2 -4 -57v-54q0 -16 14 -50t14 -36q0 -16 -72.5 -34.5 t-92 -18.5t-67.5 21.5t-67 23.5l-2 2q0 2 9.5 54.5t9.5 83.5q0 2 28.5 6t28.5 10q0 45 -68 45q-113 0 -229 -21l-35 -6h-2q-14 0 -29 19q4 20 4.5 39.5t-6.5 23.5zM999 378q0 -5 28 -11.5t60.5 -6.5t41 9.5t8.5 33.5v13q-20 16 -20.5 25.5t12 21.5t12.5 31l-6 26v4l8 125 l-6 13l-33 -9l-37 -73l12 -31q0 -12 -28 -29q-18 -33 -35 -85t-17 -57z" />
<glyph unicode="&#xbf;" horiz-adv-x="792" d="M0 -72q0 55 47 167t66 126q12 12 49 12h12q31 0 122 59.5t105.5 75t14.5 38.5l-2 24q-25 0 -39 19q-18 16 -18.5 64t3.5 48q45 0 119 39t76 39q29 0 103.5 -24.5t72.5 -41t-2 -47.5l12 -176q0 -41 -14 -55q-205 -236 -258 -236h-6q-49 0 -62 -12q-4 -47 -4 -124t19 -95 q92 -72 141 -72q23 0 89.5 38t111.5 71q12 10 26.5 33.5t17.5 26.5t9 3q31 0 81 -39t50 -77q-39 -172 -63.5 -196t-187.5 -76t-225.5 -52t-218 73.5t-186.5 104.5q-8 8 -16 174l-4 56q0 2 -20.5 14t-20.5 18zM387 940q0 16 34 70.5t60 81.5q86 25 132 24.5t57 -10.5 q23 -43 32 -52.5t23 -9.5l35 3q8 0 13 -5.5t5 -46.5q0 -164 -84 -217q-16 -10 -67.5 -24.5t-114.5 -14.5q-18 0 -31.5 45t-23.5 45h-27q-18 0 -23.5 5.5t-12.5 47.5t-7 58z" />
<glyph unicode="&#xc0;" horiz-adv-x="1253" d="M0 51v4q31 39 74 166l16 45q27 0 62.5 32t35.5 45t-22.5 43t-22.5 36v2l76 188q0 45 48 317.5t48 319.5l-26 119q0 18 156.5 103t185 91.5t104.5 6.5t142 -15q139 -31 139 -59q0 -2 -10 -53q-33 -160 -33 -254q0 -10 20.5 -15.5t20.5 -7.5q0 -66 40 -396.5t68 -416.5v-2 q0 -4 -31.5 -26.5t-31.5 -49t31.5 -37t62.5 -15.5t31 -21q-2 -4 -2 -14.5t6 -36.5q6 -41 49 -109l12 -21q0 -35 -115.5 -74.5t-172 -39.5t-110.5 21.5t-88 46t-34 34.5q0 2 4 23q10 51 10 110l-45 281q0 8 37 14t37 27q0 27 -30.5 45t-74.5 18t-104.5 -22.5t-70 -42 t-30 -182t-20.5 -242.5q0 -16 -108.5 -45t-179.5 -29q-37 0 -121 53l-27 17q-6 6 -6 18zM424 1890q0 10 62.5 41t95.5 31q113 -23 116 -27q90 -186 129 -225v-2q0 -23 -50 -39t-87 -16q-10 0 -66.5 46t-64.5 46q-2 0 -2 10v21q0 18 -5 23t-17 5l-29 -2h-2q0 2 -40 43t-40 45 zM530 811q0 -39 11 -39q18 0 55 13.5t73 13.5t36 16l-3 6q-27 84 -26 262v9q0 43 -19 43q-82 0 -82 -48l9 -94q0 -12 -27 -77.5t-27 -104.5z" />
<glyph unicode="&#xc1;" horiz-adv-x="1253" d="M0 51v4q31 39 74 166l16 45q27 0 62.5 32t35.5 45t-22.5 43t-22.5 36v2l76 188q0 45 48 317.5t48 319.5l-26 119q0 18 156.5 103t185 91.5t104.5 6.5t142 -15q139 -31 139 -59q0 -2 -10 -53q-33 -160 -33 -254q0 -10 20.5 -15.5t20.5 -7.5q0 -66 40 -396.5t68 -416.5v-2 q0 -4 -31.5 -26.5t-31.5 -49t31.5 -37t62.5 -15.5t31 -21q-2 -4 -2 -14.5t6 -36.5q6 -41 49 -109l12 -21q0 -35 -115.5 -74.5t-172 -39.5t-110.5 21.5t-88 46t-34 34.5q0 2 4 23q10 51 10 110l-45 281q0 8 37 14t37 27q0 27 -30.5 45t-74.5 18t-104.5 -22.5t-70 -42 t-30 -182t-20.5 -242.5q0 -16 -108.5 -45t-179.5 -29q-37 0 -121 53l-27 17q-6 6 -6 18zM483 1711.5q0 17.5 51.5 82t51.5 68.5q2 25 2 26q49 61 52 64.5t45 8.5t66.5 5t75 -35t50.5 -53q0 -6 -17 -18q-63 -43 -82 -64q0 -2 -24.5 -2t-24.5 -16l4 -31q0 -6 -18.5 -12 t-65.5 -46t-56 -50.5t-19.5 -10.5t-50.5 33t-40 50.5zM530 811q0 -39 11 -39q18 0 55 13.5t73 13.5t36 16l-3 6q-27 84 -26 262v9q0 43 -19 43q-82 0 -82 -48l9 -94q0 -12 -27 -77.5t-27 -104.5z" />
<glyph unicode="&#xc2;" horiz-adv-x="1253" d="M0 51v4q31 39 74 166l16 45q27 0 62.5 32t35.5 45t-22.5 43t-22.5 36v2l76 188q0 45 48 317.5t48 319.5l-26 119q0 18 156.5 103t185 91.5t104.5 6.5t142 -15q139 -31 139 -59q0 -2 -10 -53q-33 -160 -33 -254q0 -10 20.5 -15.5t20.5 -7.5q0 -66 40 -396.5t68 -416.5v-2 q0 -4 -31.5 -26.5t-31.5 -49t31.5 -37t62.5 -15.5t31 -21q-2 -4 -2 -14.5t6 -36.5q6 -41 49 -109l12 -21q0 -35 -115.5 -74.5t-172 -39.5t-110.5 21.5t-88 46t-34 34.5q0 2 4 23q10 51 10 110l-45 281q0 8 37 14t37 27q0 27 -30.5 45t-74.5 18t-104.5 -22.5t-70 -42 t-30 -182t-20.5 -242.5q0 -16 -108.5 -45t-179.5 -29q-37 0 -121 53l-27 17q-6 6 -6 18zM334 1702l39 63q41 63 41 74q55 13 55 31l-8 41q37 59 51 59h43q61 0 66 -6q37 -31 42 -31t50 31q4 10 49 10t52 -6t40 -58t33 -61q-6 -23 -6 -43t43 -20q55 -70 55 -77t-4 -11 t-10.5 -8t-17.5 -15.5t-34.5 -23t-48.5 -15.5q-47 0 -47 9l-78 92q-35 6 -34 16q0 27 -18.5 56.5t-31.5 29.5q-10 0 -57 -57l-14 -21q0 -33 -13 -41q-33 0 -70.5 -41t-39.5 -41q-33 0 -64.5 15.5t-47 30t-15.5 18.5zM530 811q0 -39 11 -39q18 0 55 13.5t73 13.5t36 16l-3 6 q-27 84 -26 262v9q0 43 -19 43q-82 0 -82 -48l9 -94q0 -12 -27 -77.5t-27 -104.5z" />
<glyph unicode="&#xc3;" horiz-adv-x="1253" d="M0 51v4q31 39 74 166l16 45q27 0 62.5 32t35.5 45t-22.5 43t-22.5 36v2l76 188q0 45 48 317.5t48 319.5l-26 119q0 18 156.5 103t185 91.5t104.5 6.5t142 -15q139 -31 139 -59q0 -2 -10 -53q-33 -160 -33 -254q0 -10 20.5 -15.5t20.5 -7.5q0 -66 40 -396.5t68 -416.5v-2 q0 -4 -31.5 -26.5t-31.5 -49t31.5 -37t62.5 -15.5t31 -21q-2 -4 -2 -14.5t6 -36.5q6 -41 49 -109l12 -21q0 -35 -115.5 -74.5t-172 -39.5t-110.5 21.5t-88 46t-34 34.5q0 2 4 23q10 51 10 110l-45 281q0 8 37 14t37 27q0 27 -30.5 45t-74.5 18t-104.5 -22.5t-70 -42 t-30 -182t-20.5 -242.5q0 -16 -108.5 -45t-179.5 -29q-37 0 -121 53l-27 17q-6 6 -6 18zM424 1753q133 94 158.5 94t120 -33.5t103.5 -33.5t61.5 22.5t58.5 22.5t20.5 -33t14.5 -66q0 -14 -71 -58t-91.5 -44t-91 37t-87 37t-88 -22.5t-76.5 -22.5t-18.5 40t-13.5 60z M530 811q0 -39 11 -39q18 0 55 13.5t73 13.5t36 16l-3 6q-27 84 -26 262v9q0 43 -19 43q-82 0 -82 -48l9 -94q0 -12 -27 -77.5t-27 -104.5z" />
<glyph unicode="&#xc4;" horiz-adv-x="1253" d="M0 51v4q31 39 74 166l16 45q27 0 62.5 32t35.5 45t-22.5 43t-22.5 36v2l76 188q0 45 48 317.5t48 319.5l-26 119q0 18 156.5 103t185 91.5t104.5 6.5t142 -15q139 -31 139 -59q0 -2 -10 -53q-33 -160 -33 -254q0 -10 20.5 -15.5t20.5 -7.5q0 -66 40 -396.5t68 -416.5v-2 q0 -4 -31.5 -26.5t-31.5 -49t31.5 -37t62.5 -15.5t31 -21q-2 -4 -2 -14.5t6 -36.5q6 -41 49 -109l12 -21q0 -35 -115.5 -74.5t-172 -39.5t-110.5 21.5t-88 46t-34 34.5q0 2 4 23q10 51 10 110l-45 281q0 8 37 14t37 27q0 27 -30.5 45t-74.5 18t-104.5 -22.5t-70 -42 t-30 -182t-20.5 -242.5q0 -16 -108.5 -45t-179.5 -29q-37 0 -121 53l-27 17q-6 6 -6 18zM285 1787q0 50 3 55t24.5 27.5t43.5 35.5q88 27 108.5 26.5t50.5 -9.5t30 -17q-8 -20 -8 -39q38 -33 38 -45q0 -41 -11 -73t-32 -52q-16 -12 -57 -25.5t-79 -13.5t-54 16q-2 2 -2 23 q0 31 -23 30h-12q-8 0 -14 5.5t-6 55.5zM530 811q0 -39 11 -39q18 0 55 13.5t73 13.5t36 16l-3 6q-27 84 -26 262v9q0 43 -19 43q-82 0 -82 -48l9 -94q0 -12 -27 -77.5t-27 -104.5zM723 1751q0 31 7 67.5t15 36.5q27 0 111 68q20 8 37 8q104 -25 104 -55q-12 -18 -12 -29.5 t22.5 -26t22.5 -26.5q-2 -61 -20.5 -79.5t-28.5 -18.5t-41 -28t-35 -28l-88 13q-29 10 -88 61q-6 6 -6 37z" />
<glyph unicode="&#xc5;" horiz-adv-x="1253" d="M0 51v4q31 39 74 166l16 45q27 0 62.5 32t35.5 45t-22.5 43t-22.5 36v2l76 188q0 45 48 317.5t48 319.5l-26 119q0 18 156.5 103t185 91.5t104.5 6.5t142 -15q139 -31 139 -59q0 -2 -10 -53q-33 -160 -33 -254q0 -10 20.5 -15.5t20.5 -7.5q0 -66 40 -396.5t68 -416.5v-2 q0 -4 -31.5 -26.5t-31.5 -49t31.5 -37t62.5 -15.5t31 -21q-2 -4 -2 -14.5t6 -36.5q6 -41 49 -109l12 -21q0 -35 -115.5 -74.5t-172 -39.5t-110.5 21.5t-88 46t-34 34.5q0 2 4 23q10 51 10 110l-45 281q0 8 37 14t37 27q0 27 -30.5 45t-74.5 18t-104.5 -22.5t-70 -42 t-30 -182t-20.5 -242.5q0 -16 -108.5 -45t-179.5 -29q-37 0 -121 53l-27 17q-6 6 -6 18zM467 1831q0 10 55.5 73.5t71.5 65.5h20l66 -6l4 2q12 12 31.5 12t49.5 -32.5t30 -69.5l30 -66q0 -80 -43 -122q-6 -6 -35.5 -22.5t-54.5 -33.5q-4 -2 -30 -2l-97 4q-18 4 -55 74 q-2 2 -6 2l-15 -2q-8 0 -15 48t-7 75zM530 811q0 -39 11 -39q18 0 55 13.5t73 13.5t36 16l-3 6q-27 84 -26 262v9q0 43 -19 43q-82 0 -82 -48l9 -94q0 -12 -27 -77.5t-27 -104.5zM582 1804q8 -37 16 -47q33 -16 56.5 -14t37.5 18q14 10 14.5 29.5t-6 19.5t-14.5 28t-24 28 q-45 0 -46 -13q0 -2 -17 -19t-17 -30z" />
<glyph unicode="&#xc6;" horiz-adv-x="1724" d="M0 53v4q29 37 74 168l16 45q25 0 60.5 32t35.5 45t-21.5 43t-21.5 36v2l76 188q0 47 47 317.5t47 317.5l-24 121q0 18 155.5 103.5t186.5 91.5t109.5 6t154.5 -29q113 33 252 33q27 0 44 -21.5t30.5 -21.5t122 19.5t213 19.5t104.5 -33q0 -59 -23.5 -158.5t-42 -118 t-96.5 -18.5q-8 0 -21.5 30t-49 59.5t-79.5 29.5t-93.5 -17.5t-60.5 -28.5t-11 -103.5t10 -137.5v-4q0 -16 -31 -24q-53 -14 -53 -84q0 -12 68 -13l327 19q41 0 52.5 -2t11.5 -15q0 -55 -47 -163.5t-74 -108.5l-35 18q-35 18 -74 19q-150 0 -163 -14q-8 -12 -8.5 -193.5 t31.5 -213.5t135.5 -32t132 28t58 75t47 80.5t19.5 33.5q18 0 70.5 -51t52.5 -74.5t-44 -169t-62 -163.5q-4 -4 -15 -5l-116 13q-76 0 -111 -4t-37 -4l-110 16q0 -18 18 -59q0 -33 -102.5 -52.5t-167 -19.5t-118.5 20.5t-88 45t-34 34.5q0 2 2 23q12 76 12 112l-45 281 q0 6 37 12t37 27q0 27 -30.5 45t-73.5 18t-104.5 -22.5t-71 -42t-30 -182t-20.5 -242.5q0 -8 -51 -27q-131 -45 -237 -45q-35 0 -119 53l-27 17q-6 6 -6 16zM530 814q0 -38 9 -38q20 0 56 13.5t73 13.5t37 14v2q-29 84 -29 254v23q0 43 -21 43q-82 0 -82 -47l9 -97 q0 -10 -26 -76.5t-26 -104.5z" />
<glyph unicode="&#xc7;" horiz-adv-x="1093" d="M29 846q0 51 22.5 143t22.5 113.5t-11.5 53.5t-11.5 34q0 51 149.5 183t235.5 163q156 45 395 45q55 0 120 -71.5t65 -94.5q0 -2 -20.5 -30.5t-20.5 -50t33.5 -45t33.5 -32.5v-28q0 -86 -24 -127q-16 -23 -64.5 -72t-66.5 -55q-86 -31 -199 -31q-8 0 -20.5 14.5 t-12.5 24.5v4q35 33 35 174q0 23 -17.5 41.5t-17.5 26.5v4l2 14q0 33 -12 63.5t-39 30.5q-49 0 -101 -53t-52 -100l6 -29q0 -8 -14.5 -73.5t-14.5 -118.5q0 -8 24.5 -33t24.5 -48.5t-32.5 -52t-32.5 -43t13 -28.5t25.5 -22.5t12.5 -12.5q-8 -31 -8 -94l2 -117q0 -35 -4 -76 v-4q0 -41 55 -109.5t117 -68.5q29 0 99.5 90t70.5 172q0 10 24 10h6q14 -2 77 -36.5t81.5 -53t47 -68.5t28.5 -59q0 -76 -108.5 -196.5t-143.5 -120.5q-6 0 -22.5 17.5t-30 17.5t-35.5 -13q-84 -45 -150 -57q-29 -33 -28.5 -49t5.5 -17t21.5 -7.5t27.5 -10.5t28.5 -12 t27.5 -17q27 -20 27 -36v-11q0 -76 -27 -106q-23 -29 -86 -68q-14 -8 -39 -8q-49 0 -106 21l-21 8q-4 4 -4 14t16.5 39t26.5 29h2q27 -8 56 -9l47 9q18 12 18 57l-2 10q-4 4 -63.5 19.5t-72.5 15.5t-13 8q0 16 19.5 55t35.5 62q-63 18 -175 78.5t-136 101.5 q-55 88 -90 185.5t-35 123.5l30 29q31 29 31 54.5t-27.5 52t-26.5 34t1 35.5z" />
<glyph unicode="&#xc8;" horiz-adv-x="1040" d="M41 16q0 4 10 41q33 115 33 161t-4 61q0 2 25.5 19t25.5 46t-37 52.5t-37 25.5l19 86q18 86 18 116.5t-5 47t-5 18.5v4q16 78 16 173.5t-7 178t-7 85t20.5 18.5t20.5 37.5t-21 60.5q-57 117 -57 271q0 23 141.5 40t270.5 17q27 0 45 -22.5t31.5 -22.5t121 20.5 t168.5 20.5q150 0 150 -35q0 -59 -24.5 -158.5t-37.5 -111.5q-20 -25 -102 -25q-8 0 -21.5 29.5t-49 59.5t-78.5 30t-92.5 -17.5t-61.5 -30t-12 -103.5t10 -136v-6q0 -14 -41 -26.5t-41 -79.5q0 -11 61 -11l334 19q63 0 64 -19q0 -55 -47 -173t-74 -118l-35 21 q-35 18 -74 18q-147 0 -159.5 -12t-12.5 -185t33 -206t135.5 -33t130 27.5t57 75t48 81t20.5 33.5q18 0 70.5 -51t52.5 -74.5t-44 -168t-62 -162.5q-2 -4 -17 -5l-116 13q-74 0 -123.5 -5.5t-56.5 -5.5t-32.5 12.5t-37 12.5t-18.5 -6t-13 -16q-14 -25 -37 -25l-86 10 q-59 0 -128 -14t-99.5 -14t-74.5 11t-44 25zM317 1890q0 10 62.5 41t95.5 31q113 -23 117 -27q90 -186 129 -225v-2q0 -23 -50 -39t-87 -16q-10 0 -66.5 46t-64.5 46q-2 0 -2 10v21q0 18 -5.5 23t-17.5 5l-29 -2h-2q0 2 -40 43t-40 45z" />
<glyph unicode="&#xc9;" horiz-adv-x="1040" d="M41 16q0 4 10 41q33 115 33 161t-4 61q0 2 25.5 19t25.5 46t-37 52.5t-37 25.5l19 86q18 86 18 116.5t-5 47t-5 18.5v4q16 78 16 173.5t-7 178t-7 85t20.5 18.5t20.5 37.5t-21 60.5q-57 117 -57 271q0 23 141.5 40t270.5 17q27 0 45 -22.5t31.5 -22.5t121 20.5 t168.5 20.5q150 0 150 -35q0 -59 -24.5 -158.5t-37.5 -111.5q-20 -25 -102 -25q-8 0 -21.5 29.5t-49 59.5t-78.5 30t-92.5 -17.5t-61.5 -30t-12 -103.5t10 -136v-6q0 -14 -41 -26.5t-41 -79.5q0 -11 61 -11l334 19q63 0 64 -19q0 -55 -47 -173t-74 -118l-35 21 q-35 18 -74 18q-147 0 -159.5 -12t-12.5 -185t33 -206t135.5 -33t130 27.5t57 75t48 81t20.5 33.5q18 0 70.5 -51t52.5 -74.5t-44 -168t-62 -162.5q-2 -4 -17 -5l-116 13q-74 0 -123.5 -5.5t-56.5 -5.5t-32.5 12.5t-37 12.5t-18.5 -6t-13 -16q-14 -25 -37 -25l-86 10 q-59 0 -128 -14t-99.5 -14t-74.5 11t-44 25zM324 1711.5q0 17.5 51 82t51 68.5q2 25 2 26q49 61 52 64.5t45 8.5t66.5 5t75 -35t50.5 -53q0 -6 -17 -18q-63 -43 -82 -64q0 -2 -24.5 -2t-24.5 -16l4 -31q0 -6 -18 -12t-65.5 -46t-56.5 -50.5t-19.5 -10.5t-50 33t-39.5 50.5z " />
<glyph unicode="&#xca;" horiz-adv-x="1040" d="M41 16q0 4 10 41q33 115 33 161t-4 61q0 2 25.5 19t25.5 46t-37 52.5t-37 25.5l19 86q18 86 18 116.5t-5 47t-5 18.5v4q16 78 16 173.5t-7 178t-7 85t20.5 18.5t20.5 37.5t-21 60.5q-57 117 -57 271q0 23 141.5 40t270.5 17q27 0 45 -22.5t31.5 -22.5t121 20.5 t168.5 20.5q150 0 150 -35q0 -59 -24.5 -158.5t-37.5 -111.5q-20 -25 -102 -25q-8 0 -21.5 29.5t-49 59.5t-78.5 30t-92.5 -17.5t-61.5 -30t-12 -103.5t10 -136v-6q0 -14 -41 -26.5t-41 -79.5q0 -11 61 -11l334 19q63 0 64 -19q0 -55 -47 -173t-74 -118l-35 21 q-35 18 -74 18q-147 0 -159.5 -12t-12.5 -185t33 -206t135.5 -33t130 27.5t57 75t48 81t20.5 33.5q18 0 70.5 -51t52.5 -74.5t-44 -168t-62 -162.5q-2 -4 -17 -5l-116 13q-74 0 -123.5 -5.5t-56.5 -5.5t-32.5 12.5t-37 12.5t-18.5 -6t-13 -16q-14 -25 -37 -25l-86 10 q-59 0 -128 -14t-99.5 -14t-74.5 11t-44 25zM205 1702l41 63q39 63 39 74q55 13 55 31l-8 41q37 59 51 59h43q61 0 66 -6q37 -31 41 -31t51 31q6 10 50 10t51 -6t40 -58t33 -61q-6 -23 -6 -43t43 -20q55 -70 55 -77t-4 -11t-10.5 -8t-17.5 -15.5t-34.5 -23t-48.5 -15.5 q-47 0 -47 9l-78 92q-35 6 -35 16q0 27 -18 56.5t-31 29.5q-10 0 -55 -57l-16 -21q0 -33 -13 -41q-33 0 -70.5 -41t-39.5 -41q-33 0 -64.5 15.5t-47 30t-15.5 18.5z" />
<glyph unicode="&#xcb;" horiz-adv-x="1040" d="M41 16q0 4 10 41q33 115 33 161t-4 61q0 2 25.5 19t25.5 46t-37 52.5t-37 25.5l19 86q18 86 18 116.5t-5 47t-5 18.5v4q16 78 16 173.5t-7 178t-7 85t20.5 18.5t20.5 37.5t-21 60.5q-57 117 -57 271q0 23 141.5 40t270.5 17q27 0 45 -22.5t31.5 -22.5t121 20.5 t168.5 20.5q150 0 150 -35q0 -59 -24.5 -158.5t-37.5 -111.5q-20 -25 -102 -25q-8 0 -21.5 29.5t-49 59.5t-78.5 30t-92.5 -17.5t-61.5 -30t-12 -103.5t10 -136v-6q0 -14 -41 -26.5t-41 -79.5q0 -11 61 -11l334 19q63 0 64 -19q0 -55 -47 -173t-74 -118l-35 21 q-35 18 -74 18q-147 0 -159.5 -12t-12.5 -185t33 -206t135.5 -33t130 27.5t57 75t48 81t20.5 33.5q18 0 70.5 -51t52.5 -74.5t-44 -168t-62 -162.5q-2 -4 -17 -5l-116 13q-74 0 -123.5 -5.5t-56.5 -5.5t-32.5 12.5t-37 12.5t-18.5 -6t-13 -16q-14 -25 -37 -25l-86 10 q-59 0 -128 -14t-99.5 -14t-74.5 11t-44 25zM147 1787q0 50 3.5 55t25 27.5t43.5 35.5q88 27 108.5 26.5t50.5 -9.5t30 -17q-8 -20 -9 -39q39 -33 39 -45q0 -41 -10 -73t-29.5 -48.5t-60.5 -29.5t-79 -13t-54 16q-2 2 -2 23q0 31 -23 30h-12q-8 0 -14.5 5.5t-6.5 55.5z M586 1751q0 31 7 67.5t15 36.5q27 0 111 68q20 8 37 8q104 -25 104 -55q-12 -18 -12 -29.5t22.5 -26t22.5 -26.5q-2 -61 -20.5 -79.5t-30 -18.5t-40 -28t-34.5 -28l-88 13q-29 10 -88 61q-6 6 -6 37z" />
<glyph unicode="&#xcc;" horiz-adv-x="569" d="M41 1450q0 16 95 74.5t135 58.5t132.5 -25.5t92.5 -56.5q0 -23 -22.5 -113t-22.5 -102t13 -21.5t13 -21.5q-23 -233 -22.5 -314t2.5 -94.5t12 -30t10 -32.5q0 -2 -31.5 -28.5t-31.5 -47t34.5 -49.5t34.5 -59q-6 -41 -7 -44t-31.5 -24.5t-30.5 -30.5v-14q0 -27 41 -41 q20 -8 20 -18q-4 -39 -4 -135.5t55 -206.5q0 -10 -23.5 -26.5t-33.5 -24t-27.5 -21.5l-27.5 -22q-29 -23 -41 -23q-59 0 -195.5 22.5t-136.5 45.5q0 12 10 102t13 100l14 29q18 203 18 266.5t-5 157.5t-10 148.5t-5 57.5t16 13q45 31 45 65.5t-33.5 52t-33.5 23.5 q0 20 10 95t10 116t-25.5 115t-25.5 84zM84 1909q0 10 62.5 40.5t95.5 30.5q113 -23 116 -26q90 -186 129 -225v-3q0 -23 -50 -39t-87 -16q-10 0 -66.5 46t-64.5 46q-2 0 -2 11v20q0 18 -5 23.5t-17 5.5l-29 -2h-2q0 2 -40 43t-40 45z" />
<glyph unicode="&#xcd;" horiz-adv-x="569" d="M41 1450q0 16 95 74.5t135 58.5t132.5 -25.5t92.5 -56.5q0 -23 -22.5 -113t-22.5 -102t13 -21.5t13 -21.5q-23 -233 -22.5 -314t2.5 -94.5t12 -30t10 -32.5q0 -2 -31.5 -28.5t-31.5 -47t34.5 -49.5t34.5 -59q-6 -41 -7 -44t-31.5 -24.5t-30.5 -30.5v-14q0 -27 41 -41 q20 -8 20 -18q-4 -39 -4 -135.5t55 -206.5q0 -10 -23.5 -26.5t-33.5 -24t-27.5 -21.5l-27.5 -22q-29 -23 -41 -23q-59 0 -195.5 22.5t-136.5 45.5q0 12 10 102t13 100l14 29q18 203 18 266.5t-5 157.5t-10 148.5t-5 57.5t16 13q45 31 45 65.5t-33.5 52t-33.5 23.5 q0 20 10 95t10 116t-25.5 115t-25.5 84zM88 1711.5q0 17.5 51 82t51 68.5q2 25 3 26q49 61 52 64.5t45 8.5t66.5 5t74.5 -35t50 -53q0 -6 -16 -18q-63 -43 -82 -64q-2 -2 -25.5 -2t-23.5 -16l4 -31q0 -6 -18.5 -12t-65.5 -46t-56.5 -50.5t-19.5 -10.5t-50 33t-40 50.5z" />
<glyph unicode="&#xce;" horiz-adv-x="569" d="M-37 1702l41 63q39 63 39 74q55 13 55 31l-8 41q37 59 51 59h43q61 0 66 -6q37 -31 41 -31t51 31q6 10 50 10t51.5 -6t40 -58t32.5 -61q-6 -23 -6 -43t43 -20q55 -70 55 -77t-4 -11t-10 -8t-17.5 -15.5t-35 -23t-47.5 -15.5q-47 0 -48 9l-77 92q-35 6 -35 16 q0 27 -18.5 56.5t-30.5 29.5q-10 0 -56 -57l-16 -21q0 -33 -12 -41q-33 0 -71 -41t-40 -41q-33 0 -64.5 15.5t-47 30t-15.5 18.5zM41 1450q0 16 95 74.5t135 58.5t132.5 -25.5t92.5 -56.5q0 -23 -22.5 -113t-22.5 -102t13 -21.5t13 -21.5q-23 -233 -22.5 -314t2.5 -94.5 t12 -30t10 -32.5q0 -2 -31.5 -28.5t-31.5 -47t34.5 -49.5t34.5 -59q-6 -41 -7 -44t-31.5 -24.5t-30.5 -30.5v-14q0 -27 41 -41q20 -8 20 -18q-4 -39 -4 -135.5t55 -206.5q0 -10 -23.5 -26.5t-33.5 -24t-27.5 -21.5l-27.5 -22q-29 -23 -41 -23q-59 0 -195.5 22.5t-136.5 45.5 q0 12 10 102t13 100l14 29q18 203 18 266.5t-5 157.5t-10 148.5t-5 57.5t16 13q45 31 45 65.5t-33.5 52t-33.5 23.5q0 20 10 95t10 116t-25.5 115t-25.5 84z" />
<glyph unicode="&#xcf;" horiz-adv-x="569" d="M-88 1787q0 50 3 55t24.5 27.5t44.5 35.5q88 27 108.5 26.5t50 -9.5t29.5 -17q-8 -20 -8 -39q39 -33 39 -45q0 -41 -11.5 -73t-31.5 -52q-16 -12 -57.5 -25.5t-79 -13.5t-54.5 16q-2 2 -2 23q0 31 -22 30h-13q-8 0 -14 5.5t-6 55.5zM41 1450q0 16 95 74.5t135 58.5 t132.5 -25.5t92.5 -56.5q0 -23 -22.5 -113t-22.5 -102t13 -21.5t13 -21.5q-23 -233 -22.5 -314t2.5 -94.5t12 -30t10 -32.5q0 -2 -31.5 -28.5t-31.5 -47t34.5 -49.5t34.5 -59q-6 -41 -7 -44t-31.5 -24.5t-30.5 -30.5v-14q0 -27 41 -41q20 -8 20 -18q-4 -39 -4 -135.5 t55 -206.5q0 -10 -23.5 -26.5t-33.5 -24t-27.5 -21.5l-27.5 -22q-29 -23 -41 -23q-59 0 -195.5 22.5t-136.5 45.5q0 12 10 102t13 100l14 29q18 203 18 266.5t-5 157.5t-10 148.5t-5 57.5t16 13q45 31 45 65.5t-33.5 52t-33.5 23.5q0 20 10 95t10 116t-25.5 115t-25.5 84z M350 1751q0 31 7.5 67.5t15.5 36.5q27 0 110 68q20 8 37 8q104 -25 105 -55q-12 -18 -12.5 -29.5t22 -26t22.5 -26.5q-2 -61 -20.5 -79.5t-28.5 -18.5t-40.5 -28t-35.5 -28l-88 13q-29 10 -88 61q-6 6 -6 37z" />
<glyph unicode="&#xd0;" horiz-adv-x="1157" d="M-31 659q0 102 27 177l10 24q16 16 94 17v26q0 55 -20 101v4l20 53q4 12 4 47l-8 174q-10 63 -43 113.5t-33 53.5t5 13q14 35 36.5 48.5t173 48t202.5 34.5t190.5 -24.5t187.5 -49t143.5 -115.5t94.5 -114q0 -6 -18.5 -37.5t-18.5 -46t39 -38t43 -44.5q20 -113 24 -170 l2 -49q0 -37 -2 -102l-2 -66l6 -90q0 -16 -6 -18q-31 -27 -30 -107q-18 -131 -35 -139q-84 -14 -84 -64q0 -20 19.5 -37.5t19.5 -25.5t-54.5 -70.5t-112 -101.5t-141.5 -81t-124 -42q-4 0 -13.5 12.5t-21.5 12.5l-197 -17q-106 0 -221 29l-41 10q-10 4 -20.5 20.5 t-10.5 24.5l2 4q35 53 35 217v5q0 4 32 21t32 46t-37 57.5t-37 34.5v2q14 61 18 222l-41 -3h-6q-16 -8 -49 -8t-33 8zM449 255q0 -7 14 -22.5t40.5 -15.5t68.5 21.5t65 42.5l22 20q41 41 41 137l-8 88q0 6 30 22.5t30 35.5q0 33 -43 63q-25 8 -37 43q0 4 14 43 q43 117 43 148.5t-4 44.5q-23 39 -31 170t-26.5 164.5t-50 58t-54.5 33.5l-22 8q-14 0 -30.5 -10.5t-14.5 -22.5t2 -92t-11 -158v-2q0 -10 24 -35.5t24 -42t-30 -50.5t-30 -44t8 -22l144 -13q18 -29 18 -77q0 -6 -22.5 -55.5t-22.5 -78.5q-29 -8 -46 -8t-22 4q-5 13 -34 17 q-6 -49 -6 -134t16 -184q0 -39 -45 -78q-14 -12 -14 -19z" />
<glyph unicode="&#xd1;" horiz-adv-x="1257" d="M41 1471.5q0 -9.5 39 -131t39 -138t-16.5 -37t-16.5 -22.5q18 -96 18 -125q-10 -74 -10 -104.5t4 -34.5l19 -17q41 -37 41 -54t-12.5 -33.5t-24.5 -25t-12 -10.5q-2 -33 -2.5 -74.5t6 -48t6.5 -65.5l-8 -254q0 -18 2 -21q-49 -139 -50 -258q0 -10 78 -37.5t97.5 -27.5 t21.5 2q133 72 176 84q33 14 33 35q0 6 -14.5 73.5t-14.5 100.5q-63 0 -63 28q0 8 11 35t26 41q2 13 2 31l-4 311q0 127 8 135q39 -4 51 -16q86 -283 86 -354q4 -4 21 -13q45 -20 45 -39.5t-8.5 -36t-15.5 -25.5t-7 -11l12 -23q18 -45 36.5 -133t18.5 -145q0 -14 118 -35 t155 -21t109.5 28t121.5 58.5t49 40.5v2q-47 96 -47 218q0 18 11.5 31.5t11.5 21.5q0 20 -53 57l-17 12q0 37 51 89q-6 35 -6 153l6 322l-12 55q0 4 27.5 32.5t27.5 43t-41 63.5q0 102 33 332l13 78q0 16 -99 22l-35 2q-72 0 -190 -73q-41 -25 -41 -29l22 -92q0 -8 -15 -38 t-15 -40t10 -20q29 -29 45 -78q0 -10 -20.5 -38t-20.5 -36q33 -37 33 -342v-18q0 -10 -10 -11l-29 11q-10 10 -64.5 159.5t-54.5 175.5l8 72q0 23 -48 35t-48 20q0 47 41 84v4l-37 160q-35 35 -248 35l-69 -2q-23 -16 -135 -16h-11q-18 0 -81.5 -40t-63.5 -49.5zM424 1753 q133 94 158.5 94t120 -33.5t103.5 -33.5t61.5 22.5t58.5 22.5t20.5 -33t14.5 -66q0 -14 -71 -58t-91.5 -44t-91 37t-87 37t-88 -22.5t-76.5 -22.5t-18.5 40t-13.5 60z" />
<glyph unicode="&#xd2;" horiz-adv-x="1208" d="M20 674l25 278q0 6 24.5 41t24.5 43l-4 176q0 80 6 88q27 37 170.5 143.5t214.5 106.5q14 35 31 35q102 6 238.5 6t158.5 -22q2 -2 47 -43t76 -72t60.5 -76t29.5 -75l-41 -52q23 -47 65 -197.5t42 -215.5q-8 -319 -31 -320q-67 -26 -67 -53q0 -41 40 -78 q0 -45 -30.5 -113.5t-64.5 -115.5t-44 -47q-47 0 -109.5 -27t-101.5 -53l-39 -27q-20 -18 -188 -37l-55 -6q-86 0 -178.5 72.5t-140.5 140.5t-48 76t9.5 34.5t9.5 51.5q0 49 -64 49l-16 -2q-16 0 -41 219zM401 1890q0 10 62.5 41t95.5 31q113 -23 117 -27q90 -186 129 -225 v-2q0 -23 -50 -39t-87 -16q-10 0 -66.5 46t-64.5 46q-2 0 -2 10v21q0 18 -5.5 23t-17.5 5l-29 -2h-2q0 2 -40 43t-40 45zM479 1008.5q0 -17.5 28 -40t28 -34.5q-47 -229 -48 -332q0 -23 50 -72q4 -4 4 -15t-19.5 -55t-19.5 -52q0 -55 49 -112.5t92 -57.5q27 0 46.5 21.5 t35.5 41.5l18 21q2 2 2 6t-23.5 42t-23.5 52t21.5 78.5t21.5 93.5l-32 33q-2 2 -2 12v4q0 35 -15 49l-2 6q4 20 49 74q10 10 11 84l-11 199q0 18 -31.5 42.5t-31.5 30.5q0 53 29 121l10 23q0 25 -56 55l-18 10q-35 0 -84 -50t-49 -89l33 -94q0 -4 -31 -41t-31 -54.5z" />
<glyph unicode="&#xd3;" horiz-adv-x="1208" d="M20 674l25 278q0 6 24.5 41t24.5 43l-4 176q0 80 6 88q27 37 170.5 143.5t214.5 106.5q14 35 31 35q102 6 238.5 6t158.5 -22q2 -2 47 -43t76 -72t60.5 -76t29.5 -75l-41 -52q23 -47 65 -197.5t42 -215.5q-8 -319 -31 -320q-67 -26 -67 -53q0 -41 40 -78 q0 -45 -30.5 -113.5t-64.5 -115.5t-44 -47q-47 0 -109.5 -27t-101.5 -53l-39 -27q-20 -18 -188 -37l-55 -6q-86 0 -178.5 72.5t-140.5 140.5t-48 76t9.5 34.5t9.5 51.5q0 49 -64 49l-16 -2q-16 0 -41 219zM428 1711.5q0 17.5 51 82t51 68.5q2 25 2 26q49 61 52.5 64.5 t45.5 8.5t66.5 5t74.5 -35t50 -53q0 -6 -16 -18q-63 -43 -82 -64q-2 -2 -25.5 -2t-23.5 -16l4 -31q0 -6 -18.5 -12t-65.5 -46t-56.5 -50.5t-19.5 -10.5t-50 33t-40 50.5zM479 1008.5q0 -17.5 28 -40t28 -34.5q-47 -229 -48 -332q0 -23 50 -72q4 -4 4 -15t-19.5 -55 t-19.5 -52q0 -55 49 -112.5t92 -57.5q27 0 46.5 21.5t35.5 41.5l18 21q2 2 2 6t-23.5 42t-23.5 52t21.5 78.5t21.5 93.5l-32 33q-2 2 -2 12v4q0 35 -15 49l-2 6q4 20 49 74q10 10 11 84l-11 199q0 18 -31.5 42.5t-31.5 30.5q0 53 29 121l10 23q0 25 -56 55l-18 10 q-35 0 -84 -50t-49 -89l33 -94q0 -4 -31 -41t-31 -54.5z" />
<glyph unicode="&#xd4;" horiz-adv-x="1208" d="M20 674l25 278q0 6 24.5 41t24.5 43l-4 176q0 80 6 88q27 37 170.5 143.5t214.5 106.5q14 35 31 35q102 6 238.5 6t158.5 -22q2 -2 47 -43t76 -72t60.5 -76t29.5 -75l-41 -52q23 -47 65 -197.5t42 -215.5q-8 -319 -31 -320q-67 -26 -67 -53q0 -41 40 -78 q0 -45 -30.5 -113.5t-64.5 -115.5t-44 -47q-47 0 -109.5 -27t-101.5 -53l-39 -27q-20 -18 -188 -37l-55 -6q-86 0 -178.5 72.5t-140.5 140.5t-48 76t9.5 34.5t9.5 51.5q0 49 -64 49l-16 -2q-16 0 -41 219zM301 1702l39 63q41 63 41 74q55 13 55 31l-8 41q37 59 51 59h43 q61 0 66 -6q37 -31 42 -31t50 31q4 10 49 10t52 -6t40 -58t33 -61q-6 -23 -6 -43t43 -20q55 -70 55 -77t-4 -11t-10 -8t-17.5 -15.5t-35 -23t-48.5 -15.5q-47 0 -47 9l-77 92q-35 6 -35 16q0 27 -18.5 56.5t-30.5 29.5q-10 0 -58 -57l-14 -21q0 -33 -12 -41q-33 0 -71 -41 t-40 -41q-33 0 -64.5 15.5t-47 30t-15.5 18.5zM479 1008.5q0 -17.5 28 -40t28 -34.5q-47 -229 -48 -332q0 -23 50 -72q4 -4 4 -15t-19.5 -55t-19.5 -52q0 -55 49 -112.5t92 -57.5q27 0 46.5 21.5t35.5 41.5l18 21q2 2 2 6t-23.5 42t-23.5 52t21.5 78.5t21.5 93.5l-32 33 q-2 2 -2 12v4q0 35 -15 49l-2 6q4 20 49 74q10 10 11 84l-11 199q0 18 -31.5 42.5t-31.5 30.5q0 53 29 121l10 23q0 25 -56 55l-18 10q-35 0 -84 -50t-49 -89l33 -94q0 -4 -31 -41t-31 -54.5z" />
<glyph unicode="&#xd5;" horiz-adv-x="1208" d="M20 674l25 278q0 6 24.5 41t24.5 43l-4 176q0 80 6 88q27 37 170.5 143.5t214.5 106.5q14 35 31 35q102 6 238.5 6t158.5 -22q2 -2 47 -43t76 -72t60.5 -76t29.5 -75l-41 -52q23 -47 65 -197.5t42 -215.5q-8 -319 -31 -320q-67 -26 -67 -53q0 -41 40 -78 q0 -45 -30.5 -113.5t-64.5 -115.5t-44 -47q-47 0 -109.5 -27t-101.5 -53l-39 -27q-20 -18 -188 -37l-55 -6q-86 0 -178.5 72.5t-140.5 140.5t-48 76t9.5 34.5t9.5 51.5q0 49 -64 49l-16 -2q-16 0 -41 219zM403 1753q133 94 159 94t120 -33.5t103.5 -33.5t61.5 22.5t58 22.5 t20.5 -33t14.5 -66q0 -14 -70.5 -58t-91 -44t-91.5 37t-87 37t-88 -22.5t-77 -22.5t-18.5 40t-13.5 60zM479 1008.5q0 -17.5 28 -40t28 -34.5q-47 -229 -48 -332q0 -23 50 -72q4 -4 4 -15t-19.5 -55t-19.5 -52q0 -55 49 -112.5t92 -57.5q27 0 46.5 21.5t35.5 41.5l18 21 q2 2 2 6t-23.5 42t-23.5 52t21.5 78.5t21.5 93.5l-32 33q-2 2 -2 12v4q0 35 -15 49l-2 6q4 20 49 74q10 10 11 84l-11 199q0 18 -31.5 42.5t-31.5 30.5q0 53 29 121l10 23q0 25 -56 55l-18 10q-35 0 -84 -50t-49 -89l33 -94q0 -4 -31 -41t-31 -54.5z" />
<glyph unicode="&#xd6;" horiz-adv-x="1208" d="M20 674l25 278q0 6 24.5 41t24.5 43l-4 176q0 80 6 88q27 37 170.5 143.5t214.5 106.5q14 35 31 35q102 6 238.5 6t158.5 -22q2 -2 47 -43t76 -72t60.5 -76t29.5 -75l-41 -52q23 -47 65 -197.5t42 -215.5q-8 -319 -31 -320q-67 -26 -67 -53q0 -41 40 -78 q0 -45 -30.5 -113.5t-64.5 -115.5t-44 -47q-47 0 -109.5 -27t-101.5 -53l-39 -27q-20 -18 -188 -37l-55 -6q-86 0 -178.5 72.5t-140.5 140.5t-48 76t9.5 34.5t9.5 51.5q0 49 -64 49l-16 -2q-16 0 -41 219zM252 1787q0 50 3 55t24.5 27.5t44.5 35.5q88 27 108.5 26.5t50 -9.5 t29.5 -17q-8 -20 -8 -39q39 -33 39 -45q0 -41 -11.5 -73t-31.5 -52q-16 -12 -57.5 -25.5t-79 -13.5t-54.5 16q-2 2 -2 23q0 31 -22 30h-13q-8 0 -14 5.5t-6 55.5zM479 1008.5q0 -17.5 28 -40t28 -34.5q-47 -229 -48 -332q0 -23 50 -72q4 -4 4 -15t-19.5 -55t-19.5 -52 q0 -55 49 -112.5t92 -57.5q27 0 46.5 21.5t35.5 41.5l18 21q2 2 2 6t-23.5 42t-23.5 52t21.5 78.5t21.5 93.5l-32 33q-2 2 -2 12v4q0 35 -15 49l-2 6q4 20 49 74q10 10 11 84l-11 199q0 18 -31.5 42.5t-31.5 30.5q0 53 29 121l10 23q0 25 -56 55l-18 10q-35 0 -84 -50 t-49 -89l33 -94q0 -4 -31 -41t-31 -54.5zM690 1751q0 31 7.5 67.5t15.5 36.5q27 0 110 68q20 8 37 8q104 -25 105 -55q-12 -18 -12.5 -29.5t22 -26t22.5 -26.5q-2 -61 -20.5 -79.5t-28.5 -18.5t-40.5 -28t-35.5 -28l-88 13q-29 10 -88 61q-6 6 -6 37z" />
<glyph unicode="&#xd7;" horiz-adv-x="966" d="M0 343.5q0 21.5 35 72.5t59 53q6 0 53 61q139 188 185 215q4 2 4 11l-2 16q-43 66 -99.5 137.5t-66.5 71.5t-24.5 12.5t-32 34t-33 40.5t-32.5 43t-23 32q6 98 55 98q10 0 62.5 37t62.5 37t28.5 -20.5t18.5 -37.5v-2q0 -25 24.5 -54.5t41 -29.5t28.5 -13t21.5 -27.5 t18.5 -32t11 -19.5l82 -118q10 -4 15.5 -4.5t7.5 1.5q125 141 125 166t18.5 43.5t50 47t49.5 59.5q20 25 45 24q8 0 25.5 -13t25 -22.5t45.5 -41t58 -58.5q-49 -100 -68 -100q-4 2 -8 2q-23 0 -44 -30.5t-21 -50t-11.5 -35t-23.5 -27t-26.5 -22.5t-16.5 -13 q-88 -100 -88 -111.5t57.5 -68t57.5 -73t67.5 -100t85.5 -83.5q12 0 32.5 -38t20.5 -51v-2q-37 -47 -81 -81.5t-68 -47.5l-27 -12q-12 0 -56 58.5t-54 58.5q-29 -2 -94.5 118.5t-84 120.5t-64.5 -66.5t-57.5 -66.5t-75 -91t-67.5 -109.5t-25.5 -43t-31.5 -24.5 q-31 0 -100.5 74t-69.5 95.5z" />
<glyph unicode="&#xd8;" horiz-adv-x="1208" d="M20 674l25 278q0 6 24.5 41t24.5 43l-4 176q0 80 6 88q27 37 170.5 143.5t214.5 106.5q14 35 31 35q102 6 238.5 6t158.5 -22q4 -6 15 -15q31 -25 51 -45q12 35 51 70q12 12 106.5 12t94.5 -22q-23 -63 -37 -68q-25 -6 -31 -14v-14q0 -20 2 -29v-2q0 -10 -26 -37l-25 -29 l-8 -12q20 -35 20 -61l-41 -52q23 -47 65 -197.5t42 -215.5q-8 -319 -31 -320q-67 -26 -67 -53q0 -41 40 -78q0 -45 -30.5 -113.5t-64.5 -115.5t-44 -47q-47 0 -109.5 -27t-101.5 -53l-39 -27q-20 -18 -188 -37l-55 -6q-92 0 -191 80q-33 -49 -33 -51q0 -23 -32 -56 q-10 -10 -68 -10q-125 0 -125 31q0 18 49 86l17 22q43 78 49 87.5t10 31.5q-43 63 -43 69.5t9.5 33t9.5 51.5q0 49 -64 49l-16 -2q-16 0 -41 219zM479 1008.5q0 -17.5 28 -40t28 -34.5q-31 -150 -43 -262q43 63 45 63h2q12 18 39.5 70.5t47 83.5t28 31t19.5 18t24.5 47 t21.5 41l18 37q-4 14 -32.5 35.5t-28.5 29.5q0 53 29 121l10 23q0 25 -56 55l-18 10q-35 0 -84 -50t-49 -89l33 -94q0 -4 -31 -41t-31 -54.5zM508 371q14 -51 57 -92t66.5 -41t40.5 12q20 12 53 51l18 21q2 2 2 6t-23.5 42t-23.5 52t21.5 78.5t21.5 93.5l-32 33q-2 2 -2 12 v4q0 35 -15 49q-110 -137 -110 -176l4 -12q0 -10 -78 -133z" />
<glyph unicode="&#xd9;" horiz-adv-x="1171" d="M31 1491q0 10 119.5 67.5t146.5 57.5q45 -20 74 -21l45 9q33 0 73.5 -17.5t61.5 -38.5q-49 -344 -49 -389q25 -18 24 -29l-2 -45q-10 -135 -10 -206.5t8 -107.5t8 -73q-51 -57 -51 -77.5t8.5 -33t18.5 -16.5q14 -6 31 -12q2 -4 2 -8l-23 -189q6 -49 36 -86.5t71 -37.5 q20 0 46.5 35.5t26.5 78.5q-4 33 -4 61.5t6 35.5q33 29 33 55q-43 51 -43 65l35 82v113q0 117 -4 127q23 14 22 59q0 16 -24.5 33.5t-24.5 36.5q6 68 27 121q4 8 4 111.5t-8 111.5q-23 23 -23 117q0 4 2 10q10 10 105.5 54t100.5 44t27.5 -12t35 -12t20.5 8t19.5 8t15.5 -2 q113 -47 112 -63q0 -10 -21.5 -104.5t-21.5 -162.5q0 -10 20.5 -28.5t20.5 -29.5t-16 -40t-16 -31q-4 -121 -4 -256t10 -162v-2q0 -8 -27.5 -36.5t-27.5 -41t9 -23.5t19 -13q27 -8 27 -15q-6 -25 -6 -88q0 -90 2 -172l2 -28q0 -33 -78 -140l-27 -34q-127 -29 -155 -43 q-45 -18 -117 -97l-23 -24q-172 0 -288.5 19.5t-147.5 37.5l-31 18l-110 136l-33 10q-8 2 -27.5 32.5t-19.5 38t6 13.5q20 20 34.5 104t14.5 126t-8 50.5t-8 96.5l4 114q0 55 -29 84q0 35 11.5 49.5t22.5 30t18 21.5l10 49q0 2 -31 33.5t-31 38t9 28.5q29 68 28.5 102.5 t-32 173t-31.5 140.5zM383 1909q0 10 62.5 40.5t95.5 30.5q113 -23 116 -26q90 -186 129 -225v-3q0 -23 -50 -39t-87 -16q-10 0 -66.5 46t-64.5 46q-2 0 -2 11v20q0 18 -5 23.5t-17 5.5l-29 -2h-2q0 2 -40 43t-40 45z" />
<glyph unicode="&#xda;" horiz-adv-x="1171" d="M31 1491q0 10 119.5 67.5t146.5 57.5q45 -20 74 -21l45 9q33 0 73.5 -17.5t61.5 -38.5q-49 -344 -49 -389q25 -18 24 -29l-2 -45q-10 -135 -10 -206.5t8 -107.5t8 -73q-51 -57 -51 -77.5t8.5 -33t18.5 -16.5q14 -6 31 -12q2 -4 2 -8l-23 -189q6 -49 36 -86.5t71 -37.5 q20 0 46.5 35.5t26.5 78.5q-4 33 -4 61.5t6 35.5q33 29 33 55q-43 51 -43 65l35 82v113q0 117 -4 127q23 14 22 59q0 16 -24.5 33.5t-24.5 36.5q6 68 27 121q4 8 4 111.5t-8 111.5q-23 23 -23 117q0 4 2 10q10 10 105.5 54t100.5 44t27.5 -12t35 -12t20.5 8t19.5 8t15.5 -2 q113 -47 112 -63q0 -10 -21.5 -104.5t-21.5 -162.5q0 -10 20.5 -28.5t20.5 -29.5t-16 -40t-16 -31q-4 -121 -4 -256t10 -162v-2q0 -8 -27.5 -36.5t-27.5 -41t9 -23.5t19 -13q27 -8 27 -15q-6 -25 -6 -88q0 -90 2 -172l2 -28q0 -33 -78 -140l-27 -34q-127 -29 -155 -43 q-45 -18 -117 -97l-23 -24q-172 0 -288.5 19.5t-147.5 37.5l-31 18l-110 136l-33 10q-8 2 -27.5 32.5t-19.5 38t6 13.5q20 20 34.5 104t14.5 126t-8 50.5t-8 96.5l4 114q0 55 -29 84q0 35 11.5 49.5t22.5 30t18 21.5l10 49q0 2 -31 33.5t-31 38t9 28.5q29 68 28.5 102.5 t-32 173t-31.5 140.5zM455 1727.5q0 17.5 51 81t51 69.5q2 25 2 27q49 61 52 64t45 8t67 5t75 -34.5t50 -53.5q0 -6 -17 -18q-63 -43 -81 -64q-2 -2 -26 -2t-24 -16l5 -31q0 -6 -18.5 -12t-66 -46t-56.5 -50t-19 -10t-50 32.5t-40 50z" />
<glyph unicode="&#xdb;" horiz-adv-x="1171" d="M31 1491q0 10 119.5 67.5t146.5 57.5q45 -20 74 -21l45 9q33 0 73.5 -17.5t61.5 -38.5q-49 -344 -49 -389q25 -18 24 -29l-2 -45q-10 -135 -10 -206.5t8 -107.5t8 -73q-51 -57 -51 -77.5t8.5 -33t18.5 -16.5q14 -6 31 -12q2 -4 2 -8l-23 -189q6 -49 36 -86.5t71 -37.5 q20 0 46.5 35.5t26.5 78.5q-4 33 -4 61.5t6 35.5q33 29 33 55q-43 51 -43 65l35 82v113q0 117 -4 127q23 14 22 59q0 16 -24.5 33.5t-24.5 36.5q6 68 27 121q4 8 4 111.5t-8 111.5q-23 23 -23 117q0 4 2 10q10 10 105.5 54t100.5 44t27.5 -12t35 -12t20.5 8t19.5 8t15.5 -2 q113 -47 112 -63q0 -10 -21.5 -104.5t-21.5 -162.5q0 -10 20.5 -28.5t20.5 -29.5t-16 -40t-16 -31q-4 -121 -4 -256t10 -162v-2q0 -8 -27.5 -36.5t-27.5 -41t9 -23.5t19 -13q27 -8 27 -15q-6 -25 -6 -88q0 -90 2 -172l2 -28q0 -33 -78 -140l-27 -34q-127 -29 -155 -43 q-45 -18 -117 -97l-23 -24q-172 0 -288.5 19.5t-147.5 37.5l-31 18l-110 136l-33 10q-8 2 -27.5 32.5t-19.5 38t6 13.5q20 20 34.5 104t14.5 126t-8 50.5t-8 96.5l4 114q0 55 -29 84q0 35 11.5 49.5t22.5 30t18 21.5l10 49q0 2 -31 33.5t-31 38t9 28.5q29 68 28.5 102.5 t-32 173t-31.5 140.5zM268 1720l39 64q41 63 41 74q55 12 55 30l-8 41q37 59 51 60h43q61 0 66 -7q37 -31 42 -30.5t50 30.5q4 10 49 10.5t52.5 -6t40 -58.5t32.5 -60q-6 -23 -6 -43.5t43 -20.5q55 -70 55 -77t-4 -11t-10 -8t-17.5 -15.5t-35 -22.5t-47.5 -15q-47 0 -47 8 l-78 92q-35 6 -35 17q0 27 -18.5 56.5t-30.5 29.5q-10 0 -58 -60l-14 -18q0 -33 -12 -41q-33 0 -71 -41t-40 -41q-33 0 -64.5 15.5t-47 29.5t-15.5 18z" />
<glyph unicode="&#xdc;" horiz-adv-x="1171" d="M31 1491q0 10 119.5 67.5t146.5 57.5q45 -20 74 -21l45 9q33 0 73.5 -17.5t61.5 -38.5q-49 -344 -49 -389q25 -18 24 -29l-2 -45q-10 -135 -10 -206.5t8 -107.5t8 -73q-51 -57 -51 -77.5t8.5 -33t18.5 -16.5q14 -6 31 -12q2 -4 2 -8l-23 -189q6 -49 36 -86.5t71 -37.5 q20 0 46.5 35.5t26.5 78.5q-4 33 -4 61.5t6 35.5q33 29 33 55q-43 51 -43 65l35 82v113q0 117 -4 127q23 14 22 59q0 16 -24.5 33.5t-24.5 36.5q6 68 27 121q4 8 4 111.5t-8 111.5q-23 23 -23 117q0 4 2 10q10 10 105.5 54t100.5 44t27.5 -12t35 -12t20.5 8t19.5 8t15.5 -2 q113 -47 112 -63q0 -10 -21.5 -104.5t-21.5 -162.5q0 -10 20.5 -28.5t20.5 -29.5t-16 -40t-16 -31q-4 -121 -4 -256t10 -162v-2q0 -8 -27.5 -36.5t-27.5 -41t9 -23.5t19 -13q27 -8 27 -15q-6 -25 -6 -88q0 -90 2 -172l2 -28q0 -33 -78 -140l-27 -34q-127 -29 -155 -43 q-45 -18 -117 -97l-23 -24q-172 0 -288.5 19.5t-147.5 37.5l-31 18l-110 136l-33 10q-8 2 -27.5 32.5t-19.5 38t6 13.5q20 20 34.5 104t14.5 126t-8 50.5t-8 96.5l4 114q0 55 -29 84q0 35 11.5 49.5t22.5 30t18 21.5l10 49q0 2 -31 33.5t-31 38t9 28.5q29 68 28.5 102.5 t-32 173t-31.5 140.5zM233 1791q0 50 3.5 55t25 27.5t43.5 35.5q88 27 108.5 26.5t50.5 -9.5t30 -17q-8 -20 -9 -39q39 -33 39 -45q0 -41 -10 -73t-29.5 -48t-60.5 -29.5t-79 -13.5t-54 16q-2 2 -2 23q0 31 -23 31h-12q-8 0 -14.5 5t-6.5 55zM672 1755q0 31 7 68t15 37 q27 0 111 67q20 8 37 8q104 -25 104 -55q-12 -18 -12 -29.5t22.5 -26t22.5 -26.5q-2 -61 -20.5 -79.5t-28.5 -18.5t-40 -27.5t-36 -27.5l-88 12q-29 10 -88 61q-6 6 -6 37z" />
<glyph unicode="&#xdd;" horiz-adv-x="1198" d="M4 1446q0 4 25 18q65 41 104 41l25 -4q39 0 100 29q236 -20 238 -33q27 -184 26.5 -217t-2.5 -35q-39 -35 -43 -45v-4q0 -35 29 -37q27 -4 26 -6q27 -195 56 -195q39 8 43 23q70 186 76 240q25 10 31.5 21t28 69.5t21.5 85.5v18q0 72 9 76q172 53 221 53q176 -43 176 -71 q-127 -180 -150 -234v-6q0 -70 -30 -100q-76 -12 -76 -56q18 -25 18 -37q-145 -291 -184 -456q-66 -16 -80 -64q14 -43 51 -43h5q-16 -256 -17 -309l25 -148v-4q0 -8 -35 -16q-49 0 -107 -31q-25 -29 -84 -45q-74 0 -137 20.5t-91 42t-28 33.5v3q43 61 43 294v54 q0 14 -24.5 40.5t-24.5 30.5q0 20 39 60q0 86 -53 219l-16 43l-2 6l6 39q0 10 -2 16l-129 316v4q0 8 23.5 38.5t23.5 43.5q0 20 -72 33q-14 0 -25 65l-2 23q-2 6 -28.5 46t-26.5 52zM424 1711.5q0 17.5 51 82t51 68.5q2 25 2 26q49 61 52.5 64.5t45.5 8.5t66.5 5t74.5 -35 t50 -53q0 -6 -16 -18q-63 -43 -82 -64q-2 -2 -25.5 -2t-23.5 -16l4 -31q0 -6 -18.5 -12t-65.5 -46t-56.5 -50.5t-19.5 -10.5t-50 33t-40 50.5z" />
<glyph unicode="&#xde;" horiz-adv-x="1073" d="M29 1497q115 100 211 100l153 -32q41 -31 41 -97l-8 -149v-12l6 -64q14 -10 22.5 -10t10.5 4q59 84 74 123q117 6 170 6l22 -2h4q27 -4 86.5 -23.5t71.5 -31.5q63 -63 123 -199q20 -45 26 -49v-2q0 -6 -31.5 -42t-31.5 -46v-2q0 -20 16.5 -33.5t38.5 -13.5q19 -1 19 -54 l-6 -133q0 -35 6 -55v-6q0 -41 -82 -152.5t-105.5 -111.5t-96.5 -54.5t-73 -70.5q0 -12 -109.5 -29.5t-109.5 -22.5q0 -170 29 -170q4 0 14 11q-2 -12 -63.5 -42t-71.5 -40q-23 -23 -96 -35q-37 0 -143.5 26.5t-106.5 47.5q23 47 39 223l4 61q0 2 8 9q29 14 29 43.5t-36 53 t-36 28.5q0 25 29 75l10 19l4 141q0 70 -6 76t-6 14l24 103q4 29 4 65q0 106 -24 266l-10 58l28 47q0 37 -53 145zM455 819q0 -16 4 -20q31 -29 30.5 -42.5t-5.5 -18.5t-5 -33l2 -91q0 -45 -6 -57q31 -35 54.5 -35t68.5 21t45 37l-25 38q0 2 5.5 7.5t12.5 19.5t15 37 q18 51 19 164q0 2 -27 23.5t-27 31.5q0 18 35 96l13 25q0 25 -25 47.5t-49 32.5l-23 10q-86 -72 -86 -106l13 -136q-39 -35 -39 -51z" />
<glyph unicode="&#xdf;" horiz-adv-x="1214" d="M41 -68q37 74 43 275l2 67q-14 14 -18 91q0 12 47 34q10 8 10 29l-4 25q-4 4 -19 14q-37 31 -36 43v4q23 55 22.5 252t-16.5 295v2q0 4 20.5 22.5t20.5 42t-23.5 44t-23.5 26.5q0 88 151.5 227.5t231.5 139.5q29 -27 49 -27q182 78 248.5 78t186.5 -70.5t120 -122.5 q-23 -49 -23 -65q0 -8 56.5 -33t56.5 -37q-4 -207 -43 -246q-10 2 -37 2t-37 -12q-174 -119 -174 -166q14 -55 29 -55q66 43 82 43q51 0 146 -100.5t95 -184.5q0 -8 -18.5 -85.5t-18.5 -102.5l7 -23q0 -23 -16.5 -64.5t-31.5 -41.5q-59 -10 -59 -45q23 -29 23 -41v-2 q-117 -119 -242 -164q-90 -16 -147.5 -16t-69.5 12q-51 55 -51 209q2 31 16 31q31 -6 65.5 -6.5t57.5 22.5q47 47 47 125q0 4 37 19.5t37 37.5q0 86 -23 109q-39 39 -128 73.5t-111 34.5q-14 0 -24.5 61.5t-10.5 127t16 94.5t91 97.5t114 94.5q4 33 4 56l-2 18 q-6 27 -55 97.5t-88 70.5t-98.5 -46t-65.5 -79q-16 -74 -17 -127q43 -33 43 -59q-37 -53 -36 -74q-12 -328 -12.5 -499t7.5 -179q23 -20 23 -29v-2q-6 -45 -6 -120.5t16 -141.5v-2q0 -23 -79 -79t-107 -56q-74 0 -162 17.5t-88 35.5v4z" />
<glyph unicode="&#xe0;" d="M10 221q0 92 17.5 178t33.5 125l19 41q25 33 156 102.5t213 69.5q6 0 21 -13t26.5 -13t27.5 10q35 18 35 31q0 31 -29 79q-23 23 -145 35l-41 4q-41 0 -114.5 -29.5t-78 -29.5t-20.5 24.5t-16 36t37.5 84t52.5 82.5q25 14 151.5 49t182.5 35q90 -59 158.5 -74.5 t132 -61.5t63.5 -91q0 -4 -19.5 -43t-19.5 -63.5t10 -43.5l13 -18q0 -102 -7 -117q-23 -45 -22 -49l18 -29v-12l11 -155q0 -18 -5 -19q-68 -41 -67 -96q0 -16 31 -29l30 -12l17 -109l37 -67q0 -4 -19 -17q-53 -39 -82 -39q-47 0 -106 -34l-19 -11h-4q-33 0 -131 37l-33 13 q-4 4 -4 18l6 96v8l-26 9q-6 0 -23 -23q-27 -35 -129 -102l-35 -23q-59 0 -117.5 37t-89 70.5t-30.5 38t8 10.5q20 18 20 39q0 37 -73 55zM309 1460q0 10 62.5 41t95.5 31q113 -23 117 -27q90 -186 129 -225v-2q0 -23 -50.5 -39t-87.5 -16q-10 0 -66 46t-65 46q-2 0 -2 10 v21q0 18 -5 23t-17 5l-29 -2h-2q0 2 -40 43t-40 45zM362 363.5q0 -21.5 28 -49t46.5 -27.5t63.5 35.5t45 52.5l-2 4q-13 12 -13 53l7 103q0 14 -5 14q-27 0 -91 -33t-64 -57q16 -27 16 -42.5t-6 -21.5q-25 -10 -25 -31.5z" />
<glyph unicode="&#xe1;" d="M10 221q0 92 17.5 178t33.5 125l19 41q25 33 156 102.5t213 69.5q6 0 21 -13t26.5 -13t27.5 10q35 18 35 31q0 31 -29 79q-23 23 -145 35l-41 4q-41 0 -114.5 -29.5t-78 -29.5t-20.5 24.5t-16 36t37.5 84t52.5 82.5q25 14 151.5 49t182.5 35q90 -59 158.5 -74.5 t132 -61.5t63.5 -91q0 -4 -19.5 -43t-19.5 -63.5t10 -43.5l13 -18q0 -102 -7 -117q-23 -45 -22 -49l18 -29v-12l11 -155q0 -18 -5 -19q-68 -41 -67 -96q0 -16 31 -29l30 -12l17 -109l37 -67q0 -4 -19 -17q-53 -39 -82 -39q-47 0 -106 -34l-19 -11h-4q-33 0 -131 37l-33 13 q-4 4 -4 18l6 96v8l-26 9q-6 0 -23 -23q-27 -35 -129 -102l-35 -23q-59 0 -117.5 37t-89 70.5t-30.5 38t8 10.5q20 18 20 39q0 37 -73 55zM362 363.5q0 -21.5 28 -49t46.5 -27.5t63.5 35.5t45 52.5l-2 4q-13 12 -13 53l7 103q0 14 -5 14q-27 0 -91 -33t-64 -57 q16 -27 16 -42.5t-6 -21.5q-25 -10 -25 -31.5zM434 1281q0 17 51.5 80.5t51.5 70.5q2 25 2 26q49 61 52 64.5t45 8.5t66.5 5t74.5 -35t50 -53q0 -6 -16 -18q-63 -43 -82 -64q0 -2 -24.5 -2t-24.5 -16l4 -31q0 -6 -18.5 -12.5t-65.5 -46t-56 -50t-19.5 -10.5t-50.5 33t-40 50 z" />
<glyph unicode="&#xe2;" d="M10 221q0 92 17.5 178t33.5 125l19 41q25 33 156 102.5t213 69.5q6 0 21 -13t26.5 -13t27.5 10q35 18 35 31q0 31 -29 79q-23 23 -145 35l-41 4q-41 0 -114.5 -29.5t-78 -29.5t-20.5 24.5t-16 36t37.5 84t52.5 82.5q25 14 151.5 49t182.5 35q90 -59 158.5 -74.5 t132 -61.5t63.5 -91q0 -4 -19.5 -43t-19.5 -63.5t10 -43.5l13 -18q0 -102 -7 -117q-23 -45 -22 -49l18 -29v-12l11 -155q0 -18 -5 -19q-68 -41 -67 -96q0 -16 31 -29l30 -12l17 -109l37 -67q0 -4 -19 -17q-53 -39 -82 -39q-47 0 -106 -34l-19 -11h-4q-33 0 -131 37l-33 13 q-4 4 -4 18l6 96v8l-26 9q-6 0 -23 -23q-27 -35 -129 -102l-35 -23q-59 0 -117.5 37t-89 70.5t-30.5 38t8 10.5q20 18 20 39q0 37 -73 55zM213 1272l41 63q39 63 39 74q55 13 55 31l-8 41q37 59 51 59h43q61 0 66 -6q37 -31 41 -31t51 31q6 10 50 10t51 -6t40 -58.5 t33 -60.5q-6 -23 -6 -43t43 -20q55 -70 55 -77t-4 -11t-10 -8.5t-17.5 -15.5t-35 -22.5t-48.5 -15.5q-47 0 -47 8l-78 93q-35 6 -34 16q0 27 -18.5 56.5t-30.5 29.5q-10 0 -56 -57l-16 -21q0 -33 -12 -41q-33 0 -71 -41t-40 -41q-33 0 -64.5 15.5t-47 30t-15.5 18.5z M362 363.5q0 -21.5 28 -49t46.5 -27.5t63.5 35.5t45 52.5l-2 4q-13 12 -13 53l7 103q0 14 -5 14q-27 0 -91 -33t-64 -57q16 -27 16 -42.5t-6 -21.5q-25 -10 -25 -31.5z" />
<glyph unicode="&#xe3;" d="M10 221q0 92 17.5 178t33.5 125l19 41q25 33 156 102.5t213 69.5q6 0 21 -13t26.5 -13t27.5 10q35 18 35 31q0 31 -29 79q-23 23 -145 35l-41 4q-41 0 -114.5 -29.5t-78 -29.5t-20.5 24.5t-16 36t37.5 84t52.5 82.5q25 14 151.5 49t182.5 35q90 -59 158.5 -74.5 t132 -61.5t63.5 -91q0 -4 -19.5 -43t-19.5 -63.5t10 -43.5l13 -18q0 -102 -7 -117q-23 -45 -22 -49l18 -29v-12l11 -155q0 -18 -5 -19q-68 -41 -67 -96q0 -16 31 -29l30 -12l17 -109l37 -67q0 -4 -19 -17q-53 -39 -82 -39q-47 0 -106 -34l-19 -11h-4q-33 0 -131 37l-33 13 q-4 4 -4 18l6 96v8l-26 9q-6 0 -23 -23q-27 -35 -129 -102l-35 -23q-59 0 -117.5 37t-89 70.5t-30.5 38t8 10.5q20 18 20 39q0 37 -73 55zM207 1292q0 20 13.5 59.5t19.5 39.5l157 -43q20 0 92 36.5t92.5 36.5t91 -45t70.5 -57q0 -33 -14 -65.5t-20.5 -32.5t-58.5 22.5 t-64 22.5l-228 -70q-18 0 -118 74zM362 363.5q0 -21.5 28 -49t46.5 -27.5t63.5 35.5t45 52.5l-2 4q-13 12 -13 53l7 103q0 14 -5 14q-27 0 -91 -33t-64 -57q16 -27 16 -42.5t-6 -21.5q-25 -10 -25 -31.5z" />
<glyph unicode="&#xe4;" d="M10 221q0 92 17.5 178t33.5 125l19 41q25 33 156 102.5t213 69.5q6 0 21 -13t26.5 -13t27.5 10q35 18 35 31q0 31 -29 79q-23 23 -145 35l-41 4q-41 0 -114.5 -29.5t-78 -29.5t-20.5 24.5t-16 36t37.5 84t52.5 82.5q25 14 151.5 49t182.5 35q90 -59 158.5 -74.5 t132 -61.5t63.5 -91q0 -4 -19.5 -43t-19.5 -63.5t10 -43.5l13 -18q0 -102 -7 -117q-23 -45 -22 -49l18 -29v-12l11 -155q0 -18 -5 -19q-68 -41 -67 -96q0 -16 31 -29l30 -12l17 -109l37 -67q0 -4 -19 -17q-53 -39 -82 -39q-47 0 -106 -34l-19 -11h-4q-33 0 -131 37l-33 13 q-4 4 -4 18l6 96v8l-26 9q-6 0 -23 -23q-27 -35 -129 -102l-35 -23q-59 0 -117.5 37t-89 70.5t-30.5 38t8 10.5q20 18 20 39q0 37 -73 55zM131 1357q0 50 3 55t24.5 27.5t44.5 35.5q88 27 108.5 26.5t50 -9.5t29.5 -17q-8 -20 -8 -39q39 -33 39 -45q0 -41 -10.5 -73 t-30 -48.5t-60 -29.5t-78.5 -13t-55 16q-2 2 -2 23q0 31 -22 30h-12q-8 0 -14.5 5.5t-6.5 55.5zM362 363.5q0 -21.5 28 -49t46.5 -27.5t63.5 35.5t45 52.5l-2 4q-13 12 -13 53l7 103q0 14 -5 14q-27 0 -91 -33t-64 -57q16 -27 16 -42.5t-6 -21.5q-25 -10 -25 -31.5z M569 1321q0 31 7.5 67.5t15.5 36.5q27 0 110 68q20 8 37 8q104 -25 105 -55q-12 -18 -12.5 -29.5t22.5 -26t23 -26.5q-2 -61 -20.5 -79.5t-30 -18.5t-40 -28t-34.5 -28l-88 13q-29 10 -89 61q-6 6 -6 37z" />
<glyph unicode="&#xe5;" d="M10 221q0 92 17.5 178t33.5 125l19 41q25 33 156 102.5t213 69.5q6 0 21 -13t26.5 -13t27.5 10q35 18 35 31q0 31 -29 79q-23 23 -145 35l-41 4q-41 0 -114.5 -29.5t-78 -29.5t-20.5 24.5t-16 36t37.5 84t52.5 82.5q25 14 151.5 49t182.5 35q90 -59 158.5 -74.5 t132 -61.5t63.5 -91q0 -4 -19.5 -43t-19.5 -63.5t10 -43.5l13 -18q0 -102 -7 -117q-23 -45 -22 -49l18 -29v-12l11 -155q0 -18 -5 -19q-68 -41 -67 -96q0 -16 31 -29l30 -12l17 -109l37 -67q0 -4 -19 -17q-53 -39 -82 -39q-47 0 -106 -34l-19 -11h-4q-33 0 -131 37l-33 13 q-4 4 -4 18l6 96v8l-26 9q-6 0 -23 -23q-27 -35 -129 -102l-35 -23q-59 0 -117.5 37t-89 70.5t-30.5 38t8 10.5q20 18 20 39q0 37 -73 55zM340 1401q0 10 55.5 73.5t71.5 65.5h20l66 -6l4 2q12 12 31.5 12t49.5 -32.5t30 -69.5l30 -66q0 -80 -43 -123q-6 -6 -35.5 -22 t-54.5 -33q-4 -2 -30 -2l-97 4q-14 4 -55 74q-2 2 -6 2l-15 -2q-8 0 -15 48t-7 75zM362 363.5q0 -21.5 28 -49t46.5 -27.5t63.5 35.5t45 52.5l-2 4q-13 12 -13 53l7 103q0 14 -5 14q-27 0 -91 -33t-64 -57q16 -27 16 -42.5t-6 -21.5q-25 -10 -25 -31.5zM455 1374 q8 -37 16 -47q33 -16 56.5 -14t37.5 18q14 10 14.5 29.5t-6 19.5t-14.5 28t-24 28q-45 0 -46 -13q0 -2 -17 -19.5t-17 -29.5z" />
<glyph unicode="&#xe6;" horiz-adv-x="1417" d="M10 219q0 92 17.5 178t33.5 127l19 39q25 33 156 102.5t213 69.5q6 0 21 -13t26.5 -13t27.5 8q35 20 35 33q0 33 -29 81q-25 20 -145 33l-41 4q-45 0 -116.5 -28.5t-76 -28.5t-20.5 23.5t-16 36t36.5 84t57 84t147.5 47t183 34.5q90 -59 157 -73q49 -14 82 -33 q39 31 118 63.5t124 32.5q227 -8 256 -35q96 -133 96 -254q-51 -23 -64.5 -34t-13.5 -38.5t25 -27.5l47 8q6 0 6 -4q0 -162 -96 -262q-27 -27 -146.5 -50.5t-150.5 -23.5q-8 0 -45 33t-40 33t-21.5 -20.5t-18.5 -35.5q33 -98 78 -143q16 -16 88 -16q182 0 264 82 q27 33 36 32.5t29.5 -9.5t20.5 -17v-11l16 -159q0 -12 -4 -25.5t-45 -57.5t-46 -61.5t-71.5 -43t-87 -25.5t-23.5 3t-17.5 36.5t-35 33.5t-46 -30.5t-27.5 -30.5q-92 0 -156 47q-39 0 -110 -55l-23 -19h-4q-33 0 -131 37l-33 13q-4 4 -4 20l6 88q0 12 -2 14l-24 9 q-10 0 -25 -23q-23 -35 -127 -102l-35 -23q-59 0 -118.5 37t-90 70.5t-30.5 40.5l14 16q16 18 16 37q0 35 -73 49zM360 361.5q0 -21.5 29 -49t47.5 -27.5t62.5 35.5t44 46t-6.5 15.5t-6.5 44l7 104q0 16 -5 17q-27 0 -91 -33t-64 -57q16 -25 16 -40.5t-6 -21.5 q-27 -12 -27 -33.5zM907 696q2 -10 6.5 -24.5t33 -39t73.5 -24.5q14 0 16 27t4 61.5t11.5 44t9.5 17.5q0 16 -37 41q-4 4 -4 27.5t18 70.5q0 16 -28 16l-33 -4q-39 -16 -68 -90q6 -43 6 -78.5t-8 -44.5z" />
<glyph unicode="&#xe7;" horiz-adv-x="860" d="M10 551q0 18 34 131t52 131v2l-18 47q0 12 84 94t112 82h19q29 0 35 6q145 68 184 68t150.5 -27.5t111.5 -42.5q-6 -90 -6 -140t4 -62q57 -78 57 -85t-38.5 -37t-91 -58.5t-83.5 -28.5q-131 47 -131 65q4 139 58 174q-23 37 -35 37q-78 -29 -84 -35q-53 -57 -53 -75 l6 -21l-10 -119q0 -55 22 -77q2 -2 2 -7.5t-21.5 -30t-21.5 -28.5q4 -31 14.5 -41t26.5 -18q45 -20 45 -31q0 -25 -9 -52.5t-9 -36.5t12 -27.5t27 -18.5q39 12 61 33q55 -12 128 -12.5t108 30.5q31 20 57 20q20 -57 20 -79q-20 -70 -20 -79t-55.5 -90t-83.5 -112 q-6 -6 -87 -15.5t-110 -9.5q-23 -29 -22.5 -41t6.5 -14q102 -37 102 -65v-11q0 -59 -14 -77q-27 -31 -56.5 -48.5t-48.5 -17.5q-33 0 -104 23q-2 2 -2 8t7 21.5t16.5 25.5t11.5 10q23 -8 45 -8l39 8q12 8 12 47v6q-4 4 -52 16.5t-58.5 12.5t-10.5 10t45 88q-72 0 -176 70 t-104 92l20 16q20 16 20.5 31t-8 27t-13.5 12t-10 -5t-22 -5l-49 12q0 41 -18.5 146.5t-18.5 185.5z" />
<glyph unicode="&#xe8;" horiz-adv-x="894" d="M10 509q0 77 2 79t26.5 15t33 21.5t8.5 22.5l-4 25q-41 41 -41 43q0 18 45 115.5t78 130.5q244 141 350 141q217 -2 244 -29q96 -133 96 -254q-49 -23 -62.5 -35t-13.5 -38.5t25 -26.5l45 8q6 0 6 -4q0 -166 -96 -262q-27 -27 -134.5 -50.5t-136.5 -23.5q-8 0 -45 33 t-40 33t-21.5 -20.5t-18.5 -35.5q33 -98 78 -143q16 -16 74 -16q172 0 254 81q25 33 34 33t30.5 -9t21.5 -17v-11l16 -159q0 -12 -5 -24.5t-45 -57.5t-45 -62.5t-71.5 -43t-88 -25.5t-24.5 4t-12 22q-16 47 -34 47q-25 0 -50.5 -30.5t-27.5 -30.5q-119 0 -219 41 q-37 14 -37 24q0 25 -119 130l-41 34q-16 14 -25.5 131t-9.5 194zM246 1460q0 10 62.5 41t94.5 31q113 -23 117 -27q90 -186 129 -225v-2q0 -23 -50 -39t-87 -16q-10 0 -66.5 46t-64.5 46q-2 0 -2 10v21q0 18 -5.5 23t-17.5 5l-28 -2h-2q0 2 -40 43t-40 45zM383 694 q2 -10 7 -24.5t34 -39t74 -24.5q14 0 16 26.5t4 61.5t11.5 44.5t9.5 17.5q0 18 -39 41q-4 4 -4 27.5t18 70.5q0 16 -29 16l-32 -4q-35 -16 -66 -88q6 -39 6 -76.5t-10 -48.5z" />
<glyph unicode="&#xe9;" horiz-adv-x="894" d="M10 509q0 77 2 79t26.5 15t33 21.5t8.5 22.5l-4 25q-41 41 -41 43q0 18 45 115.5t78 130.5q244 141 350 141q217 -2 244 -29q96 -133 96 -254q-49 -23 -62.5 -35t-13.5 -38.5t25 -26.5l45 8q6 0 6 -4q0 -166 -96 -262q-27 -27 -134.5 -50.5t-136.5 -23.5q-8 0 -45 33 t-40 33t-21.5 -20.5t-18.5 -35.5q33 -98 78 -143q16 -16 74 -16q172 0 254 81q25 33 34 33t30.5 -9t21.5 -17v-11l16 -159q0 -12 -5 -24.5t-45 -57.5t-45 -62.5t-71.5 -43t-88 -25.5t-24.5 4t-12 22q-16 47 -34 47q-25 0 -50.5 -30.5t-27.5 -30.5q-119 0 -219 41 q-37 14 -37 24q0 25 -119 130l-41 34q-16 14 -25.5 131t-9.5 194zM307 1281q0 17 51.5 80.5t51.5 70.5q2 25 2 26q49 61 52 64.5t45 8.5t66.5 5t74.5 -35t50 -53q0 -6 -16 -18q-63 -43 -82 -64q0 -2 -24.5 -2t-24.5 -16l4 -31q0 -6 -18.5 -12.5t-65.5 -46t-56 -50 t-19.5 -10.5t-50.5 33t-40 50zM383 694q2 -10 7 -24.5t34 -39t74 -24.5q14 0 16 26.5t4 61.5t11.5 44.5t9.5 17.5q0 18 -39 41q-4 4 -4 27.5t18 70.5q0 16 -29 16l-32 -4q-35 -16 -66 -88q6 -39 6 -76.5t-10 -48.5z" />
<glyph unicode="&#xea;" horiz-adv-x="894" d="M10 509q0 77 2 79t26.5 15t33 21.5t8.5 22.5l-4 25q-41 41 -41 43q0 18 45 115.5t78 130.5q244 141 350 141q217 -2 244 -29q96 -133 96 -254q-49 -23 -62.5 -35t-13.5 -38.5t25 -26.5l45 8q6 0 6 -4q0 -166 -96 -262q-27 -27 -134.5 -50.5t-136.5 -23.5q-8 0 -45 33 t-40 33t-21.5 -20.5t-18.5 -35.5q33 -98 78 -143q16 -16 74 -16q172 0 254 81q25 33 34 33t30.5 -9t21.5 -17v-11l16 -159q0 -12 -5 -24.5t-45 -57.5t-45 -62.5t-71.5 -43t-88 -25.5t-24.5 4t-12 22q-16 47 -34 47q-25 0 -50.5 -30.5t-27.5 -30.5q-119 0 -219 41 q-37 14 -37 24q0 25 -119 130l-41 34q-16 14 -25.5 131t-9.5 194zM154 1272l39 63q41 63 40 74q56 13 56 31l-8 41q37 59 51 59h43q61 0 65 -6q37 -31 41 -31t51 31q4 10 49.5 10t52.5 -6t40 -58.5t33 -60.5q-6 -23 -6.5 -43t42.5 -20q55 -70 55.5 -77t-3.5 -11t-10.5 -8.5 t-17.5 -15.5t-34.5 -22.5t-48.5 -15.5q-47 0 -47 8l-78 93q-35 6 -35 16q0 27 -18.5 56.5t-30.5 29.5q-10 0 -57 -57l-15 -21q0 -33 -12 -41q-33 0 -70.5 -41t-39.5 -41q-33 0 -65 15.5t-47 30t-15 18.5zM383 694q2 -10 7 -24.5t34 -39t74 -24.5q14 0 16 26.5t4 61.5 t11.5 44.5t9.5 17.5q0 18 -39 41q-4 4 -4 27.5t18 70.5q0 16 -29 16l-32 -4q-35 -16 -66 -88q6 -39 6 -76.5t-10 -48.5z" />
<glyph unicode="&#xeb;" horiz-adv-x="894" d="M10 509q0 77 2 79t26.5 15t33 21.5t8.5 22.5l-4 25q-41 41 -41 43q0 18 45 115.5t78 130.5q244 141 350 141q217 -2 244 -29q96 -133 96 -254q-49 -23 -62.5 -35t-13.5 -38.5t25 -26.5l45 8q6 0 6 -4q0 -166 -96 -262q-27 -27 -134.5 -50.5t-136.5 -23.5q-8 0 -45 33 t-40 33t-21.5 -20.5t-18.5 -35.5q33 -98 78 -143q16 -16 74 -16q172 0 254 81q25 33 34 33t30.5 -9t21.5 -17v-11l16 -159q0 -12 -5 -24.5t-45 -57.5t-45 -62.5t-71.5 -43t-88 -25.5t-24.5 4t-12 22q-16 47 -34 47q-25 0 -50.5 -30.5t-27.5 -30.5q-119 0 -219 41 q-37 14 -37 24q0 25 -119 130l-41 34q-16 14 -25.5 131t-9.5 194zM92 1357q0 50 3 55t24.5 27.5t44.5 35.5q88 27 108.5 26.5t50 -9.5t29.5 -17q-8 -20 -8 -39q39 -33 39 -45q0 -41 -11.5 -73t-31.5 -52q-16 -12 -57 -25.5t-79 -13.5t-54 16q-2 2 -3 23q0 31 -22 30h-12 q-8 0 -14.5 5.5t-6.5 55.5zM383 694q2 -10 7 -24.5t34 -39t74 -24.5q14 0 16 26.5t4 61.5t11.5 44.5t9.5 17.5q0 18 -39 41q-4 4 -4 27.5t18 70.5q0 16 -29 16l-32 -4q-35 -16 -66 -88q6 -39 6 -76.5t-10 -48.5zM530.5 1321q-0.5 31 7 67.5t15.5 36.5q27 0 111 68q20 8 36 8 q104 -25 105 -55q-12 -18 -12 -29.5t22.5 -26t22.5 -26.5q-2 -61 -20.5 -79.5t-29 -18.5t-40 -28t-35.5 -28l-88 13q-29 10 -88 61q-6 6 -6.5 37z" />
<glyph unicode="&#xec;" horiz-adv-x="507" d="M43 -4l29 248q0 6 26.5 20.5t26.5 28.5t-27.5 34.5t-27.5 24.5v2q12 47 12 131l-14 244q0 4 14 20.5t14 47t-23.5 93t-23.5 79.5q0 12 92 69.5t129 57.5q190 -8 191 -29q0 -39 -23.5 -140.5t-23.5 -137t4 -68.5q-55 -35 -56 -80q25 -23 58 -23q4 1 4 -34l-10 -332 q0 -96 10 -119q41 -90 41 -108.5t-2 -20.5t-47 -16q-145 -51 -161.5 -58.5t-44.5 -7.5t-97.5 29t-69.5 45zM53 1460q0 10 62.5 41t95.5 31q113 -23 117 -27q90 -186 129 -225v-2q0 -23 -50.5 -39t-87.5 -16q-10 0 -66 46t-65 46q-2 0 -2 10v21q0 18 -5 23t-17 5l-29 -2h-2 q0 2 -40 43t-40 45z" />
<glyph unicode="&#xed;" horiz-adv-x="507" d="M43 -4l29 248q0 6 26.5 20.5t26.5 28.5t-27.5 34.5t-27.5 24.5v2q12 47 12 131l-14 244q0 4 14 20.5t14 47t-23.5 93t-23.5 79.5q0 12 92 69.5t129 57.5q190 -8 191 -29q0 -39 -23.5 -140.5t-23.5 -137t4 -68.5q-55 -35 -56 -80q25 -23 58 -23q4 1 4 -34l-10 -332 q0 -96 10 -119q41 -90 41 -108.5t-2 -20.5t-47 -16q-145 -51 -161.5 -58.5t-44.5 -7.5t-97.5 29t-69.5 45zM57 1281q0 17 51.5 80.5t51.5 70.5q2 25 2 26q49 61 52 64.5t45 8.5t66.5 5t75 -35t50.5 -53q0 -6 -17 -18q-63 -43 -82 -64q0 -2 -24.5 -2t-24.5 -16l4 -31 q0 -6 -18.5 -12.5t-65.5 -46t-56 -50t-19.5 -10.5t-50.5 33t-40 50z" />
<glyph unicode="&#xee;" horiz-adv-x="507" d="M-68 1272l39 63q41 63 41 74q56 13 56 31l-9 41q37 59 52 59h43q61 0 65 -6q37 -31 42 -31t50 31q4 10 49.5 10t52.5 -6t39.5 -58.5t32.5 -60.5q-6 -23 -6 -43t43 -20q55 -70 55.5 -77t-4 -11t-10.5 -8.5t-17 -15.5t-35 -22.5t-48 -15.5q-47 0 -47 8l-78 93q-35 6 -35 16 q0 27 -18.5 56.5t-30.5 29.5q-10 0 -57 -57l-15 -21q0 -33 -12 -41q-33 0 -71 -41t-40 -41q-33 0 -64.5 15.5t-47 30t-15.5 18.5zM43 -4l29 248q0 6 26.5 20.5t26.5 28.5t-27.5 34.5t-27.5 24.5v2q12 47 12 131l-14 244q0 4 14 20.5t14 47t-23.5 93t-23.5 79.5q0 12 92 69.5 t129 57.5q190 -8 191 -29q0 -39 -23.5 -140.5t-23.5 -137t4 -68.5q-55 -35 -56 -80q25 -23 58 -23q4 1 4 -34l-10 -332q0 -96 10 -119q41 -90 41 -108.5t-2 -20.5t-47 -16q-145 -51 -161.5 -58.5t-44.5 -7.5t-97.5 29t-69.5 45z" />
<glyph unicode="&#xef;" horiz-adv-x="507" d="M-119 1357q0 50 3 55t24.5 27.5t44.5 35.5q88 27 108.5 26.5t50 -9.5t29.5 -17q-8 -20 -8 -39q39 -33 39 -45q0 -41 -10 -73t-29.5 -48.5t-60.5 -29.5t-79 -13t-54 16q-2 2 -2 23q0 31 -23 30h-12q-8 0 -14.5 5.5t-6.5 55.5zM43 -4l29 248q0 6 26.5 20.5t26.5 28.5 t-27.5 34.5t-27.5 24.5v2q12 47 12 131l-14 244q0 4 14 20.5t14 47t-23.5 93t-23.5 79.5q0 12 92 69.5t129 57.5q190 -8 191 -29q0 -39 -23.5 -140.5t-23.5 -137t4 -68.5q-55 -35 -56 -80q25 -23 58 -23q4 1 4 -34l-10 -332q0 -96 10 -119q41 -90 41 -108.5t-2 -20.5 t-47 -16q-145 -51 -161.5 -58.5t-44.5 -7.5t-97.5 29t-69.5 45zM319.5 1321q-0.5 31 7 67.5t15.5 36.5q27 0 111 68q20 8 36 8q104 -25 105 -55q-12 -18 -12 -29.5t22.5 -26t22.5 -26.5q-2 -61 -20.5 -79.5t-30 -18.5t-40 -28t-34.5 -28l-88 13q-29 10 -88 61q-6 6 -6.5 37z " />
<glyph unicode="&#xf0;" horiz-adv-x="952" d="M10 459l2 76l29 18q27 18 27 34.5t-19.5 38t-19.5 29.5q0 35 28.5 137.5t34.5 107.5t79 56.5t87 63.5q59 59 248 59q10 0 10 95v34q-68 -12 -80 -24q-20 -27 -55 -27q-6 0 -6 2q-29 76 -29 154v8q8 16 82 45q76 20 88 27q-37 117 -39 118q-41 37 -100 97v2 q0 10 28.5 39.5t45.5 29.5q51 0 155.5 -22.5t110.5 -22.5q61 -70 100 -135q55 14 55 29q0 14 35 21t47 12q20 -18 35 -54q12 -49 12 -116q-51 -1 -51 -15q0 -6 -50 -22.5t-50 -22.5q4 -49 10 -55t6 -22.5t-17.5 -115t-17.5 -137.5q25 -12 25 -22q-12 -111 -12 -230.5 t10 -246.5q-76 -61 -76 -96q16 -43 58 -44q8 -252 55 -296q31 -57 31 -65.5t-14.5 -17t-36 -19.5t-33.5 -23q-27 -27 -97 -39l-24 -4l-146 30q-41 41 -69 97l-10 18q16 41 32 109l4 22q-6 6 -16 6q-27 0 -66 -35q-8 -6 -20 -47q-35 -119 -45 -118q-152 0 -197 18 q-20 8 -106 119l-29 37l-24 116l24 19q25 18 25 30q0 25 -51 52q-12 10 -13 88zM354 594q0 -33 13.5 -46t13.5 -26q-8 -41 -8 -81t14 -54q43 -35 55 -35q20 0 50 53.5t30 71t-20.5 34.5t-20.5 21l27 72q8 10 8 84l-2 146q0 31 2 38q0 8 -11 8.5t-45 -19t-41 -28t-14.5 -52.5 t-7.5 -66.5t2 -26.5v-4q0 -8 -22.5 -37t-22.5 -47v-6z" />
<glyph unicode="&#xf1;" horiz-adv-x="1005" d="M31 1022q0 16 99 65.5t126 49.5t82 -22.5t55 -31.5q-18 -147 -18 -198q20 -12 26.5 -12.5t6.5 4.5q82 143 112 174q109 43 205 43q29 0 109.5 -72t78.5 -90q-12 -61 -12 -242q-43 -23 -57 -39q-6 -23 -6 -36t6 -13q61 -6 61 -18q-10 -117 -10 -163t4 -50q23 -35 23 -62 q-29 -31 -29 -62.5t20.5 -98t41 -115.5t20.5 -54.5t-38 -28t-96.5 -44t-92 -21.5t-93 15.5t-69.5 25.5q-12 12 -19 127l-2 37l47 39q6 6 6 21l-4 28q-12 12 -34.5 17.5t-22.5 9.5l12 194q0 14 11.5 39t11.5 34t-21.5 53t-21.5 61q0 33 43 137l14 35q0 14 -49 35 q-29 0 -89 -86t-60 -136l14 -96q16 -47 16 -74l-8 -30q-41 -41 -41 -115v-2q0 -4 16.5 -16.5t16.5 -14.5q-8 -8 -8 -70.5t6 -101.5t6 -46t-8 -7t-83 -36t-106 -36q-68 0 -141 29l-41 10q0 37 9.5 95.5t17.5 68.5q10 10 10 37t-10.5 128t-10.5 173l39 31q10 10 11 28l-2 19 q-4 4 -24.5 16t-20.5 19l4 26q10 66 10 146q0 131 -37 235zM272 1292q0 20 13.5 59.5t19.5 39.5l158 -43q20 0 92 36.5t92.5 36.5t91 -45t70.5 -57q0 -33 -14.5 -65.5t-20.5 -32.5t-58 22.5t-65 22.5l-227 -70q-18 0 -119 74z" />
<glyph unicode="&#xf2;" horiz-adv-x="940" d="M10 557q0 29 47 147.5t62 133.5v2l-15 32q0 14 95.5 101.5t119.5 97.5q156 33 211 33q6 0 55.5 -22.5t59.5 -25.5t39 -39t29 -44q-10 -57 -19 -58q-129 -6 -172 -30q-20 -10 -80.5 -77t-78 -102.5t-17.5 -228.5q59 -27 60 -59q-23 -96 -23 -109.5t16.5 -48.5t32.5 -51 q31 -16 50.5 -16t25.5 6q49 49 49 168q0 27 -4 55q-37 35 -37 78q0 6 18.5 23.5t18.5 38t-16.5 45t-33 37.5t-16.5 18q0 27 64.5 98t91.5 71h29q174 0 174 -22q-10 -55 -10 -63.5t36.5 -78t36.5 -132.5q-53 -43 -53 -62.5t20.5 -38t20.5 -20.5q0 -18 -16.5 -83t-16.5 -99.5 t-98 -133.5q-94 -90 -125 -90h-2q-10 8 -33 8l-22 -2q-31 0 -45 -41q-6 -18 -13.5 -25t-50.5 -7l-174 14q-51 14 -115.5 69.5t-64.5 69.5q0 2 20.5 27.5t20.5 38.5q0 20 -27 39l-72 -11q-10 0 -22 54q-31 115 -31 315zM268 1460q0 10 62.5 41t95.5 31q113 -23 117 -27 q90 -186 129 -225v-2q0 -23 -50.5 -39t-86.5 -16q-10 0 -66.5 46t-65.5 46q-2 0 -2 10v21q0 18 -5 23t-17 5l-29 -2h-2q0 2 -40 43t-40 45z" />
<glyph unicode="&#xf3;" horiz-adv-x="940" d="M10 557q0 29 47 147.5t62 133.5v2l-15 32q0 14 95.5 101.5t119.5 97.5q156 33 211 33q6 0 55.5 -22.5t59.5 -25.5t39 -39t29 -44q-10 -57 -19 -58q-129 -6 -172 -30q-20 -10 -80.5 -77t-78 -102.5t-17.5 -228.5q59 -27 60 -59q-23 -96 -23 -109.5t16.5 -48.5t32.5 -51 q31 -16 50.5 -16t25.5 6q49 49 49 168q0 27 -4 55q-37 35 -37 78q0 6 18.5 23.5t18.5 38t-16.5 45t-33 37.5t-16.5 18q0 27 64.5 98t91.5 71h29q174 0 174 -22q-10 -55 -10 -63.5t36.5 -78t36.5 -132.5q-53 -43 -53 -62.5t20.5 -38t20.5 -20.5q0 -18 -16.5 -83t-16.5 -99.5 t-98 -133.5q-94 -90 -125 -90h-2q-10 8 -33 8l-22 -2q-31 0 -45 -41q-6 -18 -13.5 -25t-50.5 -7l-174 14q-51 14 -115.5 69.5t-64.5 69.5q0 2 20.5 27.5t20.5 38.5q0 20 -27 39l-72 -11q-10 0 -22 54q-31 115 -31 315zM274 1281q0 17 51.5 80.5t51.5 70.5q2 25 2 26 q49 61 52 64.5t45 8.5t66.5 5t75 -35t50.5 -53q0 -6 -17 -18q-63 -43 -82 -64q0 -2 -24.5 -2t-24.5 -16l4 -31q0 -6 -18.5 -12.5t-65.5 -46t-56 -50t-19.5 -10.5t-50.5 33t-40 50z" />
<glyph unicode="&#xf4;" horiz-adv-x="940" d="M10 557q0 29 47 147.5t62 133.5v2l-15 32q0 14 95.5 101.5t119.5 97.5q156 33 211 33q6 0 55.5 -22.5t59.5 -25.5t39 -39t29 -44q-10 -57 -19 -58q-129 -6 -172 -30q-20 -10 -80.5 -77t-78 -102.5t-17.5 -228.5q59 -27 60 -59q-23 -96 -23 -109.5t16.5 -48.5t32.5 -51 q31 -16 50.5 -16t25.5 6q49 49 49 168q0 27 -4 55q-37 35 -37 78q0 6 18.5 23.5t18.5 38t-16.5 45t-33 37.5t-16.5 18q0 27 64.5 98t91.5 71h29q174 0 174 -22q-10 -55 -10 -63.5t36.5 -78t36.5 -132.5q-53 -43 -53 -62.5t20.5 -38t20.5 -20.5q0 -18 -16.5 -83t-16.5 -99.5 t-98 -133.5q-94 -90 -125 -90h-2q-10 8 -33 8l-22 -2q-31 0 -45 -41q-6 -18 -13.5 -25t-50.5 -7l-174 14q-51 14 -115.5 69.5t-64.5 69.5q0 2 20.5 27.5t20.5 38.5q0 20 -27 39l-72 -11q-10 0 -22 54q-31 115 -31 315zM168 1272l41 63q39 63 39 74q55 13 55 31l-8 41 q37 59 51 59h43q61 0 66 -6q37 -31 41 -31t51 31q6 10 50 10t51 -6t40 -58.5t33 -60.5q-6 -23 -6 -43t43 -20q55 -70 55 -77t-4 -11t-10 -8.5t-17.5 -15.5t-35 -22.5t-48.5 -15.5q-47 0 -47 8l-78 93q-35 6 -34 16q0 27 -18.5 56.5t-31.5 29.5q-10 0 -55 -57l-16 -21 q0 -33 -12 -41q-33 0 -71 -41t-40 -41q-33 0 -64.5 15.5t-47 30t-15.5 18.5z" />
<glyph unicode="&#xf5;" horiz-adv-x="940" d="M10 557q0 29 47 147.5t62 133.5v2l-15 32q0 14 95.5 101.5t119.5 97.5q156 33 211 33q6 0 55.5 -22.5t59.5 -25.5t39 -39t29 -44q-10 -57 -19 -58q-129 -6 -172 -30q-20 -10 -80.5 -77t-78 -102.5t-17.5 -228.5q59 -27 60 -59q-23 -96 -23 -109.5t16.5 -48.5t32.5 -51 q31 -16 50.5 -16t25.5 6q49 49 49 168q0 27 -4 55q-37 35 -37 78q0 6 18.5 23.5t18.5 38t-16.5 45t-33 37.5t-16.5 18q0 27 64.5 98t91.5 71h29q174 0 174 -22q-10 -55 -10 -63.5t36.5 -78t36.5 -132.5q-53 -43 -53 -62.5t20.5 -38t20.5 -20.5q0 -18 -16.5 -83t-16.5 -99.5 t-98 -133.5q-94 -90 -125 -90h-2q-10 8 -33 8l-22 -2q-31 0 -45 -41q-6 -18 -13.5 -25t-50.5 -7l-174 14q-51 14 -115.5 69.5t-64.5 69.5q0 2 20.5 27.5t20.5 38.5q0 20 -27 39l-72 -11q-10 0 -22 54q-31 115 -31 315zM203 1292q0 20 13.5 59.5t19.5 39.5l157 -43 q20 0 92 36.5t92.5 36.5t91 -45t70.5 -57q0 -33 -14 -65.5t-20.5 -32.5t-58.5 22.5t-64 22.5l-228 -70q-18 0 -118 74z" />
<glyph unicode="&#xf6;" horiz-adv-x="940" d="M10 557q0 29 47 147.5t62 133.5v2l-15 32q0 14 95.5 101.5t119.5 97.5q156 33 211 33q6 0 55.5 -22.5t59.5 -25.5t39 -39t29 -44q-10 -57 -19 -58q-129 -6 -172 -30q-20 -10 -80.5 -77t-78 -102.5t-17.5 -228.5q59 -27 60 -59q-23 -96 -23 -109.5t16.5 -48.5t32.5 -51 q31 -16 50.5 -16t25.5 6q49 49 49 168q0 27 -4 55q-37 35 -37 78q0 6 18.5 23.5t18.5 38t-16.5 45t-33 37.5t-16.5 18q0 27 64.5 98t91.5 71h29q174 0 174 -22q-10 -55 -10 -63.5t36.5 -78t36.5 -132.5q-53 -43 -53 -62.5t20.5 -38t20.5 -20.5q0 -18 -16.5 -83t-16.5 -99.5 t-98 -133.5q-94 -90 -125 -90h-2q-10 8 -33 8l-22 -2q-31 0 -45 -41q-6 -18 -13.5 -25t-50.5 -7l-174 14q-51 14 -115.5 69.5t-64.5 69.5q0 2 20.5 27.5t20.5 38.5q0 20 -27 39l-72 -11q-10 0 -22 54q-31 115 -31 315zM98 1357q0 50 3 55t24.5 27.5t44.5 35.5 q88 27 108.5 26.5t50 -9.5t29.5 -17q-8 -20 -8 -39q39 -33 39 -45q0 -41 -10 -73t-29.5 -48.5t-60.5 -29.5t-79 -13t-54 16q-2 2 -2 23q0 31 -23 30h-12q-8 0 -14.5 5.5t-6.5 55.5zM537 1321q0 31 7 67.5t15 36.5q27 0 111 68q20 8 37 8q104 -25 104 -55q-12 -18 -12 -29.5 t22.5 -26t22.5 -26.5q-2 -61 -20.5 -79.5t-30 -18.5t-40 -28t-34.5 -28l-88 13q-29 10 -88 61q-6 6 -6 37z" />
<glyph unicode="&#xf7;" horiz-adv-x="1122" d="M10 659q0 102 27 177l10 24q16 16 109 17h8q287 -10 303 -11l94 27l53 -12q16 -16 150.5 -16.5t141.5 8t44 8.5l144 -13q18 -29 18 -77q0 -6 -22.5 -55.5t-22.5 -78.5q-29 -8 -46 -8t-22 4q-8 16 -44.5 15.5t-47 -12t-26 -11.5t-50 9.5t-36.5 9.5l-301 6q-31 -33 -60 -33 l-22 8q-18 18 -165 18.5t-159 -6t-45 -6.5t-33 8zM412 297q0 31 7 67.5t15 36.5q16 0 57 28t54 40q20 8 37 8q104 -25 104 -55q-12 -18 -12 -29.5t22.5 -26t22.5 -26.5q-2 -61 -20.5 -79.5t-29 -18.5t-41 -28t-34.5 -28l-88 13q-29 10 -88 61q-6 6 -6 37zM424 1201 q0 48 2 50q16 31 70 64q90 27 109.5 26.5t49 -8.5t29.5 -16q-8 -23 -8 -39q39 -35 39 -47q0 -41 -11.5 -73t-31.5 -52q-66 -39 -119 -39t-70 16q-2 0 -2 7v14q0 33 -24 33h-13q-8 0 -14 8t-6 56z" />
<glyph unicode="&#xf8;" horiz-adv-x="940" d="M10 557q0 29 47 147.5t62 133.5v2l-15 32q0 14 95.5 101.5t119.5 97.5q156 33 211 33q6 0 55.5 -22.5t61.5 -27.5t43 -46q4 8 8 24v6q0 35 56 86q12 12 106 12.5t94 -22.5q-23 -63 -36 -67q-25 -6 -31 -15v-14q0 -20 2 -29v-2q0 -10 -25 -37l-26 -28q-37 -53 -62 -95 q70 -4 70 -18q-10 -55 -10 -63.5t36.5 -78t36.5 -132.5q-53 -43 -53 -62.5t20.5 -38t20.5 -20.5q0 -18 -16.5 -83t-16.5 -99.5t-98 -133.5q-94 -90 -125 -90h-2q-10 8 -33 8l-22 -2q-31 0 -45 -41q-6 -18 -13.5 -25t-50.5 -7l-174 14q-23 6 -49 22q-12 -20 -12 -22 q0 -23 -33 -55q-10 -10 -68 -11q-125 0 -125 31q0 18 49 86l17 23q43 78 48 87t11 33.5t8 26.5l5 8l-17 15l-72 -11q-10 0 -22 54q-31 115 -31 315zM346 477q2 -2 6 -4l135 195q10 16 74 109t82 134q-90 -8 -115.5 -22.5t-86 -81t-78 -102t-17.5 -228.5zM412 236 q25 -43 75 -43q14 0 21 6q49 49 49 168q0 27 -4 55q-8 6 -16 16l-86 -141q-4 0 -39 -61z" />
<glyph unicode="&#xf9;" horiz-adv-x="997" d="M43 446v5q18 37 18 137l-8 147l27 37q-35 162 -35 191q0 12 84 65t115 53q188 -10 188 -34q-25 -209 -24.5 -281t2.5 -84q0 -4 -30 -29.5t-30 -40.5l-2 -16q0 -8 4 -12l27 -9q27 -8 27 -26v-8q-2 -12 -3 -47v-60q0 -80 -20 -98q25 -47 48.5 -47t75.5 59.5t52 89.5v25 l2 108q0 57 -8 66q-23 25 -23 40t18.5 40.5t18.5 38.5v57q0 174 -6 209v2q0 12 33 26.5t47 30t63.5 39t73.5 23.5q160 -23 160 -66q0 -2 -8 -19.5t-18.5 -75.5t-10.5 -114.5t8.5 -64.5t8.5 -41l-7 -156q0 -70 11 -104v-2q0 -4 -30 -26.5t-30 -44t25.5 -35t25.5 -21.5v-64 q0 -150 11 -184q43 -100 43 -131q0 -6 -21 -12q-70 -23 -84 -37.5t-46 -29.5t-60.5 -15t-77.5 24.5t-77 50t-28 35.5t25 61.5t25 59.5q0 14 -39 14h-4q-35 0 -91 -100l-18 -35q-6 -18 -85 -34.5t-107.5 -16.5t-30.5 2q-27 35 -86 47l-21 4q-8 0 -38.5 44t-49.5 77 q-8 16 -8 197q0 2 24.5 22.5t24.5 38t-25.5 33.5t-25.5 22zM272 1460q0 10 62.5 41t95.5 31q113 -23 117 -27q90 -186 129 -225v-2q0 -23 -50.5 -39t-86.5 -16q-10 0 -66.5 46t-64.5 46q-2 0 -2 10v21q0 18 -5.5 23t-17.5 5l-29 -2h-2q0 2 -40 43t-40 45z" />
<glyph unicode="&#xfa;" horiz-adv-x="997" d="M43 446v5q18 37 18 137l-8 147l27 37q-35 162 -35 191q0 12 84 65t115 53q188 -10 188 -34q-25 -209 -24.5 -281t2.5 -84q0 -4 -30 -29.5t-30 -40.5l-2 -16q0 -8 4 -12l27 -9q27 -8 27 -26v-8q-2 -12 -3 -47v-60q0 -80 -20 -98q25 -47 48.5 -47t75.5 59.5t52 89.5v25 l2 108q0 57 -8 66q-23 25 -23 40t18.5 40.5t18.5 38.5v57q0 174 -6 209v2q0 12 33 26.5t47 30t63.5 39t73.5 23.5q160 -23 160 -66q0 -2 -8 -19.5t-18.5 -75.5t-10.5 -114.5t8.5 -64.5t8.5 -41l-7 -156q0 -70 11 -104v-2q0 -4 -30 -26.5t-30 -44t25.5 -35t25.5 -21.5v-64 q0 -150 11 -184q43 -100 43 -131q0 -6 -21 -12q-70 -23 -84 -37.5t-46 -29.5t-60.5 -15t-77.5 24.5t-77 50t-28 35.5t25 61.5t25 59.5q0 14 -39 14h-4q-35 0 -91 -100l-18 -35q-6 -18 -85 -34.5t-107.5 -16.5t-30.5 2q-27 35 -86 47l-21 4q-8 0 -38.5 44t-49.5 77 q-8 16 -8 197q0 2 24.5 22.5t24.5 38t-25.5 33.5t-25.5 22zM303 1281q0 17 51.5 80.5t51.5 70.5q2 25 2 26q49 61 52 64.5t45 8.5t66.5 5t74.5 -35t50 -53q0 -6 -16 -18q-63 -43 -82 -64q-2 -2 -25.5 -2t-23.5 -16l4 -31q0 -6 -18.5 -12.5t-65.5 -46t-56.5 -50t-19.5 -10.5 t-50 33t-40 50z" />
<glyph unicode="&#xfb;" horiz-adv-x="997" d="M43 446v5q18 37 18 137l-8 147l27 37q-35 162 -35 191q0 12 84 65t115 53q188 -10 188 -34q-25 -209 -24.5 -281t2.5 -84q0 -4 -30 -29.5t-30 -40.5l-2 -16q0 -8 4 -12l27 -9q27 -8 27 -26v-8q-2 -12 -3 -47v-60q0 -80 -20 -98q25 -47 48.5 -47t75.5 59.5t52 89.5v25 l2 108q0 57 -8 66q-23 25 -23 40t18.5 40.5t18.5 38.5v57q0 174 -6 209v2q0 12 33 26.5t47 30t63.5 39t73.5 23.5q160 -23 160 -66q0 -2 -8 -19.5t-18.5 -75.5t-10.5 -114.5t8.5 -64.5t8.5 -41l-7 -156q0 -70 11 -104v-2q0 -4 -30 -26.5t-30 -44t25.5 -35t25.5 -21.5v-64 q0 -150 11 -184q43 -100 43 -131q0 -6 -21 -12q-70 -23 -84 -37.5t-46 -29.5t-60.5 -15t-77.5 24.5t-77 50t-28 35.5t25 61.5t25 59.5q0 14 -39 14h-4q-35 0 -91 -100l-18 -35q-6 -18 -85 -34.5t-107.5 -16.5t-30.5 2q-27 35 -86 47l-21 4q-8 0 -38.5 44t-49.5 77 q-8 16 -8 197q0 2 24.5 22.5t24.5 38t-25.5 33.5t-25.5 22zM176 1272l41 63q39 63 39 74q55 13 55 31l-8 41q37 59 51 59h43q61 0 66 -6q37 -31 41 -31t51 31q6 10 50 10t51.5 -6t40 -58.5t32.5 -60.5q-6 -23 -6 -43t43 -20q55 -70 55 -77t-4 -11t-10 -8.5t-17.5 -15.5 t-35 -22.5t-47.5 -15.5q-47 0 -48 8l-77 93q-35 6 -35 16q0 27 -18.5 56.5t-30.5 29.5q-10 0 -56 -57l-16 -21q0 -33 -12 -41q-33 0 -71 -41t-40 -41q-33 0 -64.5 15.5t-47 30t-15.5 18.5z" />
<glyph unicode="&#xfc;" horiz-adv-x="997" d="M43 446v5q18 37 18 137l-8 147l27 37q-35 162 -35 191q0 12 84 65t115 53q188 -10 188 -34q-25 -209 -24.5 -281t2.5 -84q0 -4 -30 -29.5t-30 -40.5l-2 -16q0 -8 4 -12l27 -9q27 -8 27 -26v-8q-2 -12 -3 -47v-60q0 -80 -20 -98q25 -47 48.5 -47t75.5 59.5t52 89.5v25 l2 108q0 57 -8 66q-23 25 -23 40t18.5 40.5t18.5 38.5v57q0 174 -6 209v2q0 12 33 26.5t47 30t63.5 39t73.5 23.5q160 -23 160 -66q0 -2 -8 -19.5t-18.5 -75.5t-10.5 -114.5t8.5 -64.5t8.5 -41l-7 -156q0 -70 11 -104v-2q0 -4 -30 -26.5t-30 -44t25.5 -35t25.5 -21.5v-64 q0 -150 11 -184q43 -100 43 -131q0 -6 -21 -12q-70 -23 -84 -37.5t-46 -29.5t-60.5 -15t-77.5 24.5t-77 50t-28 35.5t25 61.5t25 59.5q0 14 -39 14h-4q-35 0 -91 -100l-18 -35q-6 -18 -85 -34.5t-107.5 -16.5t-30.5 2q-27 35 -86 47l-21 4q-8 0 -38.5 44t-49.5 77 q-8 16 -8 197q0 2 24.5 22.5t24.5 38t-25.5 33.5t-25.5 22zM125 1357q0 50 3 55t24.5 27.5t44.5 35.5q88 27 108.5 26.5t50 -9.5t29.5 -17q-8 -20 -8 -39q39 -33 39 -45q0 -41 -11.5 -73t-31.5 -52q-16 -12 -57.5 -25.5t-79 -13.5t-54.5 16q-2 2 -2 23q0 31 -22 30h-13 q-8 0 -14 5.5t-6 55.5zM563 1321q0 31 7.5 67.5t15.5 36.5q27 0 110 68q20 8 37 8q104 -25 105 -55q-12 -18 -12.5 -29.5t22 -26t22.5 -26.5q-2 -61 -20.5 -79.5t-28.5 -18.5t-40.5 -28t-35.5 -28l-88 13q-29 10 -88 61q-6 6 -6 37z" />
<glyph unicode="&#xfd;" horiz-adv-x="1054" d="M4 922q0 35 53.5 104.5t73.5 69.5q4 0 36 -7.5t56 -7.5l125 6q18 0 23 -4q16 -143 18 -146t11.5 -7t11.5 -8q6 -33 29.5 -89.5t23.5 -62.5q-14 -16 -16 -25q41 -96 40 -116q12 -4 22.5 -4t14.5 4q91 158 105 258l-4 31q0 6 2 10t32.5 18.5t30.5 26.5t-11 28.5t-11 20.5 q18 72 24 78q156 63 219 63q137 -37 138 -88q0 -6 -37 -49q-14 -12 -44 -64.5t-30 -64.5l12 -27q0 -23 -36.5 -47t-36.5 -37q10 -18 10 -20t-29 -57q-88 -166 -88 -180.5t-16.5 -19.5t-33.5 -8t-31.5 -17.5t-14.5 -29t24.5 -28.5t24.5 -20q0 -29 -27.5 -59t-27.5 -62v-52 q0 -190 22 -249v-4q0 -10 -41 -25.5t-52 -28t-49 -26t-67 -17.5l-28 -4q-33 0 -99.5 37t-66.5 53v2q14 33 18 172v45q0 6 17 13q27 10 26 30l-6 33q-16 16 -31 23q-25 10 -24 16q0 86 -74 258l-25 57q-8 12 -28.5 23.5t-24.5 15.5q-4 8 -4 19l6 43q0 37 -102 160 q-33 41 -33 43zM365 1281q0 17 51 80.5t51 70.5q2 25 2 26q49 61 52 64.5t45 8.5t66.5 5t75 -35t50.5 -53q0 -6 -17 -18q-63 -43 -82 -64q-2 -2 -25.5 -2t-23.5 -16l4 -31q0 -6 -18 -12.5t-65.5 -46t-56.5 -50t-19.5 -10.5t-50 33t-39.5 50z" />
<glyph unicode="&#xfe;" horiz-adv-x="966" d="M4 -625q0 37 31 113t31 81t-16.5 19.5t-16.5 22.5v4q35 80 35 344v96q0 27 14 53.5t14 46t-16.5 163t-16.5 200.5q0 2 29 20.5t29 34.5q0 31 -55 62q4 35 4 104v342q0 8 26.5 30t26.5 50q0 14 -30 24.5t-30 14.5q0 119 -10 194.5t-10 85t9 18.5t105.5 56.5t140.5 47.5 t105.5 -9.5t61.5 -21.5l-45 -133l-2 -31l14 -287q0 -25 -2 -26q-35 -51 -35 -78t18.5 -33t18.5 -8q0 -16 -4 -62q133 164 162 164q51 0 130 -13t107 -44q0 -29 -2 -43q131 -195 131 -283q-41 -147 -41 -305q0 -8 -39.5 -18.5t-39.5 -22.5q0 -27 23.5 -51.5t23.5 -30.5 t-19 -37q-57 -100 -133 -176q-33 -31 -167 -75t-139 -50t-5 -61l2 -70q0 -6 -55 -41q-16 -16 -16.5 -32.5t5.5 -26.5t11 -10q55 0 55 -9q0 -104 18 -151q0 -18 -59 -88l-19 -25q-8 -8 -34 -18q-70 -27 -70 -41q0 -6 -58.5 -6t-127 7t-68.5 19zM412 274.5q0 -84.5 8 -84.5 q29 0 59.5 17.5t48.5 36.5l17 18q10 10 22.5 50t12.5 55l-23 96q0 8 15.5 40t15.5 53.5t-18.5 36.5t-18.5 28l31 124q0 10 -19.5 20.5t-29 10.5t-51.5 -52t-51 -69.5t-9 -126.5v-47q0 -10 19.5 -26.5t19.5 -24.5q0 -23 -41 -63q-8 -8 -8 -92.5z" />
<glyph unicode="&#xff;" horiz-adv-x="1054" d="M4 922q0 35 53.5 104.5t73.5 69.5q4 0 36 -7.5t56 -7.5l125 6q18 0 23 -4q16 -143 18 -146t11.5 -7t11.5 -8q6 -33 29.5 -89.5t23.5 -62.5q-14 -16 -16 -25q41 -96 40 -116q12 -4 22.5 -4t14.5 4q91 158 105 258l-4 31q0 6 2 10t32.5 18.5t30.5 26.5t-11 28.5t-11 20.5 q18 72 24 78q156 63 219 63q137 -37 138 -88q0 -6 -37 -49q-14 -12 -44 -64.5t-30 -64.5l12 -27q0 -23 -36.5 -47t-36.5 -37q10 -18 10 -20t-29 -57q-88 -166 -88 -180.5t-16.5 -19.5t-33.5 -8t-31.5 -17.5t-14.5 -29t24.5 -28.5t24.5 -20q0 -29 -27.5 -59t-27.5 -62v-52 q0 -190 22 -249v-4q0 -10 -41 -25.5t-52 -28t-49 -26t-67 -17.5l-28 -4q-33 0 -99.5 37t-66.5 53v2q14 33 18 172v45q0 6 17 13q27 10 26 30l-6 33q-16 16 -31 23q-25 10 -24 16q0 86 -74 258l-25 57q-8 12 -28.5 23.5t-24.5 15.5q-4 8 -4 19l6 43q0 37 -102 160 q-33 41 -33 43zM154 1357q0 50 3 55t24.5 27.5t43.5 35.5q88 27 108.5 26.5t50.5 -9.5t30 -17q-8 -20 -8 -39q38 -33 38 -45q0 -41 -11 -73t-32 -52q-16 -12 -57 -25.5t-79 -13.5t-54 16q-2 2 -2 23q0 31 -23 30h-12q-8 0 -14 5.5t-6 55.5zM592 1321q0 31 7 67.5t15 36.5 q27 0 111 68q20 8 37 8q104 -25 104 -55q-12 -18 -12 -29.5t22.5 -26t22.5 -26.5q-2 -61 -20.5 -79.5t-28.5 -18.5t-41 -28t-35 -28l-88 13q-29 10 -88 61q-6 6 -6 37z" />
<glyph unicode="&#x152;" horiz-adv-x="1738" d="M20 670l25 278q0 8 24.5 42t24.5 42l-4 178q0 78 6 86q27 37 170.5 144.5t214.5 107.5q14 33 31 33q117 14 255 14t177 -39q80 20 217 21q27 0 45.5 -21.5t31.5 -21.5t120.5 19.5t212 19.5t104.5 -33q0 -59 -23.5 -158.5t-42 -118t-96.5 -18.5q-8 0 -21 30t-49 59.5 t-78 29.5t-92 -17.5t-62.5 -28.5t-12.5 -103.5t10 -137.5v-4q0 -16 -28 -24q-55 -14 -56 -84q0 -12 68 -13l330 19q63 0 63 -17q0 -55 -48 -163.5t-75 -108.5q-4 0 -16 10q-41 27 -90 27q-150 0 -162 -12.5t-12 -193.5t32.5 -214t136 -33t131 28t57.5 75t48.5 80.5 t20.5 33.5q18 0 69.5 -52t51.5 -74.5t-43.5 -168t-61.5 -163.5q-8 -4 -14 -5l-119 13q-74 0 -123 -4t-56 -4t-33 12t-38 12t-18 -6t-15 -16q-17 -25 -37 -25l-84 10q-84 0 -155.5 -14t-80.5 -14t-48 17t-47 19q-29 -33 -201 -53l-57 -8q-145 0 -293 184q-74 88 -74 109 q0 4 9.5 30.5t9.5 51.5q0 47 -60 47l-20 -2q-16 0 -41 219zM479 1005.5q0 -18.5 28 -41t28 -34.5q-47 -227 -48 -332q0 -23 23 -45l27 -27q4 -4 4 -14t-19.5 -55t-19.5 -51q0 -55 49 -114t92 -59q23 0 62.5 41t39.5 49.5t-18 50.5t-18 56t21.5 78.5t21.5 80t-5.5 20.5 t-13.5 14q-16 10 -16 22v4q0 33 -17 56q0 18 50 75q10 10 10 84l-10 199q0 18 -32 41.5t-32 30.5q0 57 23 114l6 21q0 25 -56 55l-18 10q-35 0 -85 -51t-50 -88l33 -96q0 -4 -30 -40t-30 -54.5z" />
<glyph unicode="&#x153;" horiz-adv-x="1452" d="M10 557q0 29 46 147.5t61 133.5v2l-15 32q0 12 95.5 99.5t119.5 99.5q156 33 211 33q6 0 47 -18.5t51.5 -21.5t28 -42t17.5 -49q-10 -57 -21 -58q-88 -6 -118.5 -23.5t-92 -84t-79 -102t-17.5 -228.5q61 -27 62 -59q-25 -96 -25 -109.5t16.5 -48.5t32.5 -51 q35 -16 52.5 -16t23.5 6q51 51 51 237q0 51 -6 64l18 71q0 49 -49 113q-14 20 -14 23q0 27 56 77t83 50q45 94 80 129q231 141 340 141q217 -2 244 -29q96 -133 96 -254q-51 -23 -64.5 -36t-13.5 -38.5t25 -25.5l47 8q6 0 6 -4q0 -166 -96 -262q-27 -27 -147 -50.5 t-150 -23.5q-8 0 -45 33t-40 33t-21.5 -20.5t-18.5 -35.5q33 -98 78 -143q16 -16 88 -16q182 0 264 82q27 33 36 32.5t29.5 -9.5t20.5 -17v-11l16 -157q0 -14 -4 -27.5t-45 -57.5t-46 -61.5t-71.5 -43t-87 -25.5t-23.5 3t-16.5 36.5t-35 33.5t-47 -30.5t-27.5 -30.5 q-117 0 -217 39q-37 16 -37 27q0 37 -14 59q-18 -25 -57.5 -49.5t-51.5 -24.5h-2q-8 8 -33 8l-22 -2q-31 0 -45 -41q-6 -18 -13.5 -25t-50.5 -7l-172 14q-51 14 -115.5 69.5t-64.5 69.5q0 2 19.5 27.5t19.5 38.5q0 25 -27 39l-72 -11q-25 0 -38 139.5t-13 229.5zM940 696 q2 -10 6 -24.5t33 -39t74 -24.5q14 0 17 27t4 61.5t10.5 44t9.5 17.5q0 16 -37 41q-4 4 -4 27.5t18 70.5q0 16 -29 16l-32 -4q-39 -16 -68 -90q6 -43 6 -78.5t-8 -44.5z" />
<glyph unicode="&#x178;" horiz-adv-x="1198" d="M4 1446q0 4 25 18q65 41 104 41l25 -4q39 0 100 29q236 -20 238 -33q27 -184 26.5 -217t-2.5 -35q-39 -35 -43 -45v-4q0 -35 29 -37q27 -4 26 -6q27 -195 56 -195q39 8 43 23q70 186 76 240q25 10 31.5 21t28 69.5t21.5 85.5v18q0 72 9 76q172 53 221 53q176 -43 176 -71 q-127 -180 -150 -234v-6q0 -70 -30 -100q-76 -12 -76 -56q18 -25 18 -37q-145 -291 -184 -456q-66 -16 -80 -64q14 -43 51 -43h5q-16 -256 -17 -309l25 -148v-4q0 -8 -35 -16q-49 0 -107 -31q-25 -29 -84 -45q-74 0 -137 20.5t-91 42t-28 33.5v3q43 61 43 294v54 q0 14 -24.5 40.5t-24.5 30.5q0 20 39 60q0 86 -53 219l-16 43l-2 6l6 39q0 10 -2 16l-129 316v4q0 8 23.5 38.5t23.5 43.5q0 20 -72 33q-14 0 -25 65l-2 23q-2 6 -28.5 46t-26.5 52zM229 1787q0 50 3.5 55t25 27.5t43.5 35.5q88 27 108.5 26.5t50 -9.5t29.5 -17 q-8 -20 -8 -39q39 -33 39 -45q0 -41 -10 -73t-29.5 -48.5t-60.5 -29.5t-79 -13t-54 16q-2 2 -2 23q0 31 -23 30h-12q-8 0 -14.5 5.5t-6.5 55.5zM668 1751q0 31 7 67.5t15 36.5q27 0 111 68q20 8 37 8q104 -25 104 -55q-12 -18 -12 -29.5t22.5 -26t22.5 -26.5 q-2 -61 -20.5 -79.5t-30 -18.5t-40 -28t-34.5 -28l-88 13q-29 10 -88 61q-6 6 -6 37z" />
<glyph unicode="&#x2c6;" d="M217 1272l41 63q39 63 39 74q55 13 55 31l-8 41q37 59 51 59h43q61 0 66 -6q37 -31 41 -31t51 31q6 10 50 10t51.5 -6t40 -58.5t32.5 -60.5q-6 -23 -6 -43t43 -20q55 -70 55 -77t-4 -11t-10 -8.5t-17.5 -15.5t-35 -22.5t-47.5 -15.5q-47 0 -48 8l-77 93q-35 6 -35 16 q0 27 -18.5 56.5t-30.5 29.5q-10 0 -56 -57l-16 -21q0 -33 -12 -41q-33 0 -71 -41t-40 -41q-33 0 -64.5 15.5t-47 30t-15.5 18.5z" />
<glyph unicode="&#x2dc;" horiz-adv-x="1005" d="M272 1292q0 20 13.5 59.5t19.5 39.5l158 -43q20 0 92 36.5t92.5 36.5t91 -45t70.5 -57q0 -33 -14.5 -65.5t-20.5 -32.5t-58 22.5t-65 22.5l-227 -70q-18 0 -119 74z" />
<glyph unicode="&#x2000;" horiz-adv-x="996" />
<glyph unicode="&#x2001;" horiz-adv-x="1992" />
<glyph unicode="&#x2002;" horiz-adv-x="996" />
<glyph unicode="&#x2003;" horiz-adv-x="1992" />
<glyph unicode="&#x2004;" horiz-adv-x="664" />
<glyph unicode="&#x2005;" horiz-adv-x="498" />
<glyph unicode="&#x2006;" horiz-adv-x="332" />
<glyph unicode="&#x2007;" horiz-adv-x="332" />
<glyph unicode="&#x2008;" horiz-adv-x="249" />
<glyph unicode="&#x2009;" horiz-adv-x="398" />
<glyph unicode="&#x200a;" horiz-adv-x="110" />
<glyph unicode="&#x2010;" horiz-adv-x="884" d="M20 442q0 109 21 176l6 25q16 16 84 16h10q217 -10 230 -10l71 27l41 -12q12 -16 112.5 -16.5t111.5 5.5q8 10 34 11l109 -13q14 -29 14 -78q0 -6 -17.5 -55t-17.5 -78q-23 -8 -35 -8t-19 10.5t-33.5 9.5t-35 -12.5t-16.5 -11.5l-69 18l-230 7q-25 -33 -45 -33l-18 8 q-16 18 -127 18t-120 -6t-35 -6t-26 8z" />
<glyph unicode="&#x2011;" horiz-adv-x="884" d="M20 442q0 109 21 176l6 25q16 16 84 16h10q217 -10 230 -10l71 27l41 -12q12 -16 112.5 -16.5t111.5 5.5q8 10 34 11l109 -13q14 -29 14 -78q0 -6 -17.5 -55t-17.5 -78q-23 -8 -35 -8t-19 10.5t-33.5 9.5t-35 -12.5t-16.5 -11.5l-69 18l-230 7q-25 -33 -45 -33l-18 8 q-16 18 -127 18t-120 -6t-35 -6t-26 8z" />
<glyph unicode="&#x2012;" horiz-adv-x="884" d="M20 442q0 109 21 176l6 25q16 16 84 16h10q217 -10 230 -10l71 27l41 -12q12 -16 112.5 -16.5t111.5 5.5q8 10 34 11l109 -13q14 -29 14 -78q0 -6 -17.5 -55t-17.5 -78q-23 -8 -35 -8t-19 10.5t-33.5 9.5t-35 -12.5t-16.5 -11.5l-69 18l-230 7q-25 -33 -45 -33l-18 8 q-16 18 -127 18t-120 -6t-35 -6t-26 8z" />
<glyph unicode="&#x2013;" horiz-adv-x="737" d="M20 442q0 92 17 176l6 25q12 16 70 16h6q180 -10 190 -10l60 27l32 -12q12 -16 96.5 -16.5t90 8t28.5 8.5l91 -13q10 -29 10 -56.5t-14.5 -76.5t-14.5 -78q-18 -8 -28.5 -8t-15.5 10.5t-27.5 9.5t-28.5 -12.5t-15.5 -11.5t-32 9t-24.5 9l-190 7q-20 -33 -37 -33l-15 8 q-12 18 -104 18t-99.5 -6t-29 -6t-21.5 8z" />
<glyph unicode="&#x2014;" horiz-adv-x="1433" d="M20 442q0 98 37 176l11 25q23 16 137 16h12q360 -10 381 -10l121 27l65 -12q23 -16 192 -16.5t180 8t56 8.5l181 -13q20 -29 20 -78q0 -6 -28.5 -55t-28.5 -78q-35 -8 -55.5 -8t-26.5 4q-14 16 -60.5 15.5t-58.5 -12t-30.5 -11.5t-62.5 9t-48 9l-381 7q-41 -33 -74 -33 l-31 8q-23 18 -208 18t-200.5 -6t-57.5 -6t-42 8z" />
<glyph unicode="&#x2018;" horiz-adv-x="407" d="M10 1255l2 58q41 27 41 53q-14 31 -14 37q0 43 129 180l4 6q14 14 125 15q18 0 27.5 -16.5t9.5 -31t-2 -16.5q-90 -90 -90 -123q0 -8 10 -42t21.5 -34t28.5 10.5t22 10.5h2q18 -4 44.5 -52t26.5 -85q0 -2 -17.5 -33t-17.5 -59q0 -43 -120 -101q-16 -8 -61.5 -8t-49.5 6 q-29 27 -37 47q-35 14 -47 27q-37 37 -37 151z" />
<glyph unicode="&#x2019;" horiz-adv-x="407" d="M10 1403q0 2 17.5 32.5t17.5 59.5q0 43 121 100q16 8 62 8.5t48 -6.5q29 -27 37 -47q35 -14 47 -26q37 -37 37 -152l-2 -57q-41 -27 -41 -53q14 -31 15 -37q0 -42 -129 -181l-4 -6q-14 -14 -125 -14q-18 0 -27.5 16.5t-9.5 30.5t2 16q90 90 90 123q0 8 -10.5 42t-21.5 34 t-28.5 -10t-21.5 -10h-2q-18 4 -45 52t-27 85z" />
<glyph unicode="&#x201a;" horiz-adv-x="417" d="M10 147q0 2 17.5 33t17.5 60q0 43 121 100q16 8 62 8t48 -6q29 -27 37 -47q35 -14 47 -27q37 -37 37 -151l-2 -58q-41 -27 -41 -53q14 -31 15 -37q0 -43 -129 -180l-4 -6q-14 -14 -125 -14q-18 0 -27.5 16t-9.5 30.5t2 16.5q90 90 90 123q0 8 -10.5 42t-21.5 34 t-28.5 -10.5t-21.5 -10.5h-2q-18 4 -45 52.5t-27 84.5z" />
<glyph unicode="&#x201c;" horiz-adv-x="835" d="M10 1255l2 58q41 27 41 53q-14 31 -14 37q0 43 129 180l4 6q14 14 125 15q18 0 27.5 -16.5t9.5 -31t-2 -16.5q-90 -90 -90 -123q0 -8 10 -42t21.5 -34t28.5 10.5t22 10.5h2q18 -4 44.5 -52t26.5 -85q0 -2 -17.5 -33t-17.5 -59q0 -43 -120 -101q-16 -8 -61.5 -8t-49.5 6 q-29 27 -37 47q-35 14 -47 27q-37 37 -37 151zM438 1255l2 58q41 27 41 53q-14 31 -14 37q0 43 129 180l4 6q14 14 125 15q18 0 27.5 -16.5t9.5 -31t-2 -16.5q-90 -90 -90 -123q0 -8 10 -42t21.5 -34t29 10.5t21.5 10.5h2q18 -4 44.5 -52t26.5 -85q0 -2 -17 -33t-17 -59 q0 -43 -121 -101q-16 -8 -62.5 -8t-48.5 6q-29 27 -37 47q-35 14 -47 27q-37 37 -37 151z" />
<glyph unicode="&#x201d;" horiz-adv-x="835" d="M10 1403q0 2 17.5 32.5t17.5 59.5q0 43 121 100q16 8 62 8.5t48 -6.5q29 -27 37 -47q35 -14 47 -26q37 -37 37 -152l-2 -57q-41 -27 -41 -53q14 -31 15 -37q0 -42 -129 -181l-4 -6q-14 -14 -125 -14q-18 0 -27.5 16.5t-9.5 30.5t2 16q90 90 90 123q0 8 -10.5 42t-21.5 34 t-28.5 -10t-21.5 -10h-2q-18 4 -45 52t-27 85zM438 1403q0 2 17.5 32.5t17.5 59.5q0 43 121 100q16 8 61 8.5t50 -6.5q29 -27 36 -47q35 -14 47 -26q37 -37 37 -152l-2 -57q-41 -27 -41 -53q14 -31 15 -37q0 -42 -129 -181l-4 -6q-14 -14 -125 -14q-18 0 -27.5 16.5 t-9.5 30.5t2 16q90 90 90 123q0 8 -10.5 42t-21.5 34t-28.5 -10t-21.5 -10h-2q-18 4 -45 52t-27 85z" />
<glyph unicode="&#x201e;" horiz-adv-x="845" d="M10 152q0 2 17.5 32.5t17.5 59.5q0 43 121 100q16 8 62 8t48 -6q29 -27 37 -47q35 -14 47 -27q37 -37 37 -151l-2 -58q-41 -27 -41 -53q14 -31 15 -37q0 -43 -129 -180l-4 -6q-14 -14 -125 -14q-18 0 -27.5 16t-9.5 30.5t2 16.5q90 90 90 123q0 8 -10.5 42t-21.5 34 t-28.5 -10.5t-21.5 -10.5h-2q-18 4 -45 52.5t-27 85.5zM438 152q0 2 17.5 32.5t17.5 59.5q0 43 121 100q16 8 61 8t50 -6q29 -27 36 -47q35 -14 47 -27q37 -37 37 -151l-2 -58q-41 -27 -41 -53q14 -31 15 -37q0 -43 -129 -180l-4 -6q-14 -14 -125 -14q-18 0 -27.5 16 t-9.5 30.5t2 16.5q90 90 90 123q0 8 -10.5 42t-21.5 34t-28.5 -10.5t-21.5 -10.5h-2q-18 4 -45 52.5t-27 85.5z" />
<glyph unicode="&#x2022;" horiz-adv-x="526" d="M41 497.5q0 47.5 14.5 112t30.5 64.5q23 0 69 33.5t64 54.5q35 12 53 12q147 -43 148 -88q-12 -23 -12 -43q0 -8 38.5 -38t38.5 -46q-3 -88 -28 -113q-35 -31 -48.5 -30.5t-54.5 -40.5t-47 -41q-37 0 -108 14l-21 4q-33 10 -104 70l-23 18q-10 10 -10 57.5z" />
<glyph unicode="&#x2026;" horiz-adv-x="1521" d="M20 182q0 -16 35 -63q-2 -6 -2 -21l4 -39v-2q0 -10 31 -26q57 -31 114.5 -31t68 18.5t31 31.5t39.5 22.5t23.5 14.5t14.5 44t10 59.5t-4 24.5t-23.5 8t-23.5 11.5t-4 23.5l4 51v4q-25 25 -80 37q-6 2 -37 2t-117 -28q-59 -29 -84 -140v-2zM586 125q0 39 12 92t25 53 q37 0 110 74q27 8 45 8q121 -35 121 -71q-10 -18 -10 -37q0 -6 31.5 -30t31.5 -38q-4 -74 -26.5 -96.5t-34.5 -22.5t-46 -33.5t-40 -33.5l-107 14q-29 10 -86 57l-18 17q-8 8 -8 47zM1130 162.5q0 -17.5 4.5 -21.5t23 -9t22.5 -12.5t4 -21.5l-6 -55v-2q4 -6 28 -21 q37 -25 79 -24.5t86 12.5t55.5 19.5t36 41t38.5 83.5v2q0 23 -31 67q2 6 3 25l-3 33v2q0 10 -30 28q-66 39 -119 39t-63.5 -17.5t-32 -29.5t-41 -20.5t-23.5 -12.5t-17.5 -46t-13.5 -59.5z" />
<glyph unicode="&#x202f;" horiz-adv-x="398" />
<glyph unicode="&#x2039;" horiz-adv-x="868" d="M10 633q33 78 60 102q213 131 229 152q23 53 43 53q76 2 76 25q12 41 18 41q20 0 180 114.5t169.5 122.5t9.5 9t2 1q12 0 28.5 -41t16.5 -67.5t-13.5 -68.5t-13.5 -58q-45 -59 -63 -60h-11q-25 0 -34 -10q-31 -74 -70 -74q-4 2 -10 3q-27 0 -39 -33q-262 -170 -262 -203 q0 -41 174 -162l61 -43q10 -39 37 -39h16q33 0 39 -8q35 -31 35 -55q0 -12 74 -57.5t80 -51.5t6 -47t-21.5 -109.5t-46.5 -68.5q-8 0 -53 46t-55 46q-8 -4 -10 -4q-18 0 -107.5 82t-111 82t-27.5 7t-11.5 20.5t-17.5 25.5t-51 12l-29 -2q-29 0 -37 60q0 18 -49 57t-98 68 l-51 30q-16 0 -52 76z" />
<glyph unicode="&#x203a;" horiz-adv-x="866" d="M20 1075q0 41 20.5 109.5t45.5 68.5q8 0 53 -46t56 -46q8 4 10 4q18 0 108 -82t110.5 -82t27 -7t11.5 -20t17.5 -25.5t50.5 -12.5l29 2q29 0 37 -59q0 -18 50 -57.5t99 -67.5l52 -31q18 0 49 -76l10 -26q-33 -78 -59 -103q-213 -131 -230 -151q-20 -53 -43 -54 q-76 -2 -75 -24q-12 -41 -19 -41q-18 0 -179 -115t-177 -131l-4 -2q-12 0 -28.5 41t-16.5 67.5t13 68.5t13 59q45 59 66 59h10q23 0 33 10q31 74 69 74q4 -2 11 -2q29 0 39 33q262 170 262 202q0 41 -176 162l-60 43q-8 39 -35 39h-16q-35 0 -41 8q-33 29 -33 56 q0 16 -73.5 59t-80 49t-6.5 47z" />
<glyph unicode="&#x205f;" horiz-adv-x="498" />
<glyph unicode="&#x20ac;" horiz-adv-x="1196" d="M10 901q0 59 60 160l18 35q6 4 31 4l61 -2q25 0 31 6t10 89t15 87q29 10 85 109.5t113 134.5q152 68 322 67q41 -37 60.5 -37t32.5 17.5t17 17.5h4q236 0 281 -43q35 -145 35 -171.5t-2 -28.5q-76 -55 -90 -56q-121 47 -205 47q-29 0 -111 -36.5t-143 -98.5 q-18 -80 -19 -98q0 -25 86 -25q35 0 44.5 9.5t121 9.5t119.5 -8.5t27.5 -57.5t19.5 -86q-18 -102 -41 -102h-2q-16 6 -149 6h-144q-2 0 -23.5 21.5t-41.5 21.5q-45 -33 -45 -45q-8 -70 -8 -111t9 -50t117.5 -9t118 9t92 9t95.5 -12q16 -31 16 -78q0 -8 -21.5 -62.5 t-21.5 -82.5q-29 -10 -45 -10t-22 6q-8 27 -45 25.5t-49.5 -12.5t-27 -11t-48 9t-35.5 9q-117 -2 -117 -18v-10q0 -82 41 -123q14 -14 50 -17.5t46 -13.5q20 -39 31.5 -52.5t126.5 -13.5t151 23q8 4 30 24.5t31 20.5t45 -21.5t36 -37.5q0 -39 -62 -197l-22 -53 q-27 -27 -148 -33l-41 -2q-12 0 -29.5 22.5t-29.5 22.5q-20 0 -61 -33q-10 -8 -149.5 -8t-180.5 17.5t-93.5 85t-66.5 67.5q-33 0 -69.5 95t-36.5 128q0 2 25.5 22.5t25.5 55.5q0 14 -45 26.5t-62.5 12.5t-29 -6t-44 -6t-32.5 10q0 100 28 182l9 29q16 16 90 16h26l7 174 q0 10 -21 11q-31 0 -102 -17l-23 -6h-2q-8 0 -35 47z" />
<glyph unicode="&#x2122;" horiz-adv-x="866" d="M20 894q0 3 13.5 60.5t15.5 59.5q29 -2 37 -6q78 8 88 8l27 -4q25 10 31 8t11 -6t19 -4l74 4h6q6 -6 14.5 -51t8.5 -56.5t-18.5 -24t-31.5 -12.5q-12 43 -30 62q-23 8 -39.5 7t-16.5 -13q29 -14 29 -19q-4 -39 -4 -78q-14 -12 -14 -16q0 -14 18 -22q-2 -66 -2 -113t2 -57 q14 -35 14 -52q0 -10 -41 -20l-24 -14q-68 0 -88 12l10 37q2 2 2 18v57q6 0 14 17l-20 26v3q10 20 10 30l-2 56q0 12 2 14t2 4t-7 9t-7 13l10 23q2 4 2 59v27q-37 0 -61 -78q-25 0 -39.5 14.5t-14.5 17.5zM371 563q18 59 18 105q-14 8 -14 10l14 63q-2 12 -2 101v30 q16 12 16 20.5t-18 22.5q4 8 4 27v29q0 10 -2 24q0 4 31 16.5t35 12.5l14 -8l61 2q4 0 23.5 -5t19.5 -12q1 -69 15 -83q-16 -23 -16.5 -29t9 -9t9.5 -6q6 -61 8 -67t12 -6q2 0 4 8q6 25 13 31q6 68 10 73q18 10 18 17.5t-6 13.5t-6 8t7 24.5t11.5 27t47.5 14.5t86 9t43 -11 q-10 -45 -11 -58v-2q6 0 6 -63v-12q-20 -14 -20 -27q18 -14 18 -18q-6 -23 -6 -113v-39q4 -12 4 -22v-7l-16 -24q0 -6 16 -10l19 -56q0 -10 -39 -20t-49 -10t-36 10t-26 14l11 53l-2 78q14 16 14 25.5t-12 13.5l6 25q0 96 -6 96l-11 -4q-2 -2 -17 -63.5t-15 -67.5l6 -21 l-17 -16l-4 -10l13 -17q0 -2 -11 -16q-27 -39 -45 -39t-48 9t-30 13l-6 31q18 4 19 17q0 6 -12.5 9t-12.5 7q0 39 -20 129l-9 29h-2l-6 -4q-4 -2 -4 -62l2 -90q6 -20 6 -31v-4q-16 -10 -16 -20v-4q0 -2 12 -9l2 -6l-2 -16l4 -25q0 -8 -4 -8l-53 -20q-6 0 -30.5 8t-24.5 14z " />
<glyph unicode="&#x25fc;" horiz-adv-x="1157" d="M0 0v1157h1157v-1157h-1157z" />
<glyph unicode="&#xfb01;" horiz-adv-x="1126" d="M0 816.5q0 -19.5 8 -19.5q57 14 141 14t84 -16q0 -51 -65 -62q-25 -4 -31 -10t-6 -35l14 -209q0 -90 -36 -90q-2 0 -2.5 -6t12 -94t12.5 -137.5t-17.5 -125t-17.5 -100.5q47 -23 47 -51q-10 -66 -55 -65q-20 -49 -20 -60q0 -6 38 -18q104 -33 197 -33q37 0 129 62.5 t92 88.5v5q-18 35 -18 204v35q0 2 -36 11.5t-36 37.5q0 14 35 44t35 36v2q-23 49 -23 279l6 268q0 12 20 19.5t34 7.5l137 -4q25 0 27 2q0 -31 -14.5 -53.5t-14.5 -24.5q12 -119 12 -218.5t-12 -146.5q0 -4 27.5 -25.5t27.5 -35.5t-25.5 -28.5t-25.5 -20.5 q-31 -217 -31 -248q0 -16 71 -45t96.5 -29t39.5 6t67.5 24.5t98.5 34t47 17.5t2 12q0 27 -31 95l-10 22q-10 23 -10 117l10 332q0 37 -4 36q-29 0 -55 23q0 35 55 78q-4 16 -4 61t23.5 146.5t23.5 140.5q0 18 -143 25l-49 2q-31 0 -99 -39q-25 -12 -135 -13h-37 q-78 0 -149 43q-29 16 -29 142l2 61q0 14 35 50t45 36q29 0 62.5 -20.5t42 -20.5t12.5 4q18 16 18 156v47q0 10 -27.5 34.5t-50.5 24.5l-78 -28l-63 20q-18 0 -87 -34.5t-109 -74.5t-69.5 -101.5t-29.5 -82.5q18 -147 18.5 -197t-6.5 -57q-66 -18 -74 -27t-38.5 -95 t-30.5 -105.5zM723 1364l16 113q0 12 -4 36v3q0 12 23.5 34.5t82 46t132.5 23.5q63 -10 63 -27v-2q-10 -39 -10 -71.5t6 -38.5t23.5 -12.5t21.5 -10.5q8 -29 8 -55.5t-6 -45t-56 -67.5t-67 -49q-66 0 -123 26.5t-83.5 54.5t-26.5 42z" />
<glyph unicode="&#xfb02;" horiz-adv-x="1329" d="M0 817.5q0 18.5 30.5 104.5t41.5 98l73 27q6 6 6.5 31.5t-2 54t-5.5 56.5t-5 52l-8 57q0 23 29.5 83.5t70.5 100.5t110 74.5t85 34.5l66 -20q115 29 143.5 28.5t67 -12.5t59 -26.5t20.5 -20.5q-20 -125 -20 -148.5t10 -61.5t21.5 -70.5t11.5 -36.5t-27 -15 q-76 -33 -147 -32q-113 41 -113 67q14 123 17 131v2q0 6 -9.5 12.5t-18.5 6.5t-47 -33t-39 -53.5t-1 -51.5q0 -125 37 -161.5t62.5 -44t88.5 -7.5q70 6 88 15h4q12 0 30 -29t18 -44t-44.5 -90t-72.5 -99q-3 -2 -13 -2l-75 4q-55 0 -56 -27q-6 -127 -6 -312.5t23 -234.5v-2 q0 -6 -35 -35.5t-35 -44.5q0 -29 36 -38t36 -11v-35q0 -170 18 -204v-5q0 -25 -92 -87t-132 -62t-97 10q-135 25 -135 39l20 60q39 0 55 65q0 25 -47 51q0 27 17.5 102.5t17.5 124t-11 135.5t-11 94t2 7q37 0 36 86l-16 215q0 29 6 34t31 9q66 10 65 62q0 16 -73 16l-133 -8 q-20 -4 -23.5 -4t-3.5 18.5zM848 1479.5q0 9.5 9 18.5t105.5 56.5t140.5 47.5t105.5 -9.5t61.5 -21.5l-45 -133l-2 -31l14 -287q0 -25 -2 -26q-57 -47 -57 -74t29.5 -35t29.5 -10l-18 -246q0 -131 11 -288.5t11 -165t-15.5 -26t-15.5 -35.5t44 -91t44 -100q0 -4 -20 -15 q-66 -27 -74 -41q-16 -27 -90 -41l-22 -6q-41 0 -141.5 27.5t-100.5 38.5l14 137q0 2 8 16q29 43 29 70q0 2 -18.5 32.5t-18.5 46t3 19.5t20.5 11.5t21.5 11.5q16 33 17 45q0 18 -72 47q6 25 6 84l-4 110q0 8 25 29q2 2 2 57l-9 379q0 8 27 30t27 50q0 14 -30 24.5t-30 14.5 q0 119 -10 194.5t-10 85z" />
</font>
</defs>
</svg>
