<?xml version="1.0" standalone="no"?>
<!DOCTYPE svg PUBLIC "-//W3C//DTD SVG 1.1//EN" "http://www.w3.org/Graphics/SVG/1.1/DTD/svg11.dtd" >
<svg xmlns="http://www.w3.org/2000/svg">
<metadata></metadata>
<defs>
<font id="square721_btbolditalic" horiz-adv-x="1183" >
<font-face units-per-em="2048" ascent="1638" descent="-410" />
<missing-glyph horiz-adv-x="567" />
<glyph horiz-adv-x="2048" />
<glyph horiz-adv-x="2048" />
<glyph unicode="&#xd;" horiz-adv-x="567" />
<glyph unicode=" "  horiz-adv-x="567" />
<glyph unicode="&#x09;" horiz-adv-x="567" />
<glyph unicode="&#xa0;" horiz-adv-x="567" />
<glyph unicode="!" horiz-adv-x="704" d="M211 0l41 326h287l-41 -326h-287zM285 608l108 881h287l-109 -881h-286z" />
<glyph unicode="&#x22;" horiz-adv-x="960" d="M264 1229l33 266h283l-33 -266l-119 -266h-111zM748 1229l32 266h283l-33 -266l-119 -266h-110z" />
<glyph unicode="#" horiz-adv-x="1126" d="M25 295v229h229l49 254h-197v234h242l78 413h217l-78 -413h205l82 413h213l-78 -413h164v-234h-201l-49 -254h193v-229h-242l-70 -356h-217l70 356h-209l-66 -356h-217l66 356h-184zM471 524h209l53 254h-213z" />
<glyph unicode="$" horiz-adv-x="1398" d="M141 276v33q0 6 4 39l11 84h342q-2 -14 -2 -39q0 -125 159 -125l43 353l-178 20q-289 33 -289 299q0 35 7 82l12 94q27 207 160 311q102 80 356 80h41l22 176h164l-22 -176h35q401 0 401 -286v-25q-4 -18 -4 -27l-10 -86h-342q2 14 2 39q0 98 -117 99l-39 -326l160 -16 q322 -33 321 -297q0 -10 -2 -27.5t-2 -28.5l-18 -147q-23 -182 -146 -289.5t-307 -107.5h-119l-26 -207h-164l27 207h-43q-197 0 -297 51q-139 70 -140 243zM598 1014q0 -78 137 -99l37 308q-147 0 -164 -123l-8 -64q-2 -16 -2 -22zM819 268q158 0 174 135l8 66q3 8 3 16v13 q0 57 -46 80q-29 14 -98 22z" />
<glyph unicode="%" horiz-adv-x="1703" d="M240 985q0 33 6 82l18 147q18 154 83 218.5t214 64.5h92q121 0 172 -39q62 -47 62 -162q0 -33 -6 -82l-19 -147q-18 -154 -80 -215q-68 -68 -217 -68h-92q-121 0 -172 39q-61 47 -61 162zM340 0l1040 1495h181l-1057 -1495h-164zM440 1006q0 -78 84 -78h27q68 0 90 47 q14 25 25 108l14 115q6 49 6 78q0 78 -84 78h-27q-68 0 -90 -47q-14 -25 -24 -109l-15 -115q-6 -49 -6 -77zM1024 195q0 35 6 84l19 147q18 154 80.5 218.5t213.5 64.5h93q121 0 174 -41q61 -47 61 -162q0 -31 -6 -80l-18 -147q-18 -154 -80 -216q-68 -68 -217 -67h-93 q-119 0 -172 39q-61 45 -61 160zM1225 215q0 -45 17.5 -60.5t64.5 -15.5h26q68 0 92 45q14 25 25 111l14 115q6 48 6 77q0 78 -84 78h-26q-68 0 -90 -47q-14 -25 -25 -108l-14 -115q-6 -49 -6 -80z" />
<glyph unicode="&#x26;" horiz-adv-x="1505" d="M131 274v33q4 25 4 35l23 195q31 270 311 315q-117 113 -117 231q0 25 2 45l8 80q18 178 166 250q111 51 314 51h114q180 0 273 -36q137 -57 137 -211q0 -8 -2 -26.5t-2 -27.5l-16 -143h-287l10 88q12 100 -113 100h-153q-127 0 -139 -100l-7 -49q-6 -51 25 -84l438 -457 l23 195h282l-28 -234q-14 -119 -64 -184l174 -180l-186 -195l-145 150q-80 -86 -185 -117q-82 -25 -219 -25h-190q-451 0 -451 301zM457 360q0 -123 161 -122h234q86 -1 139 71l-399 414q-63 -10 -90 -66q-16 -35 -27 -116l-16 -140q-2 -16 -2 -24v-17z" />
<glyph unicode="'" horiz-adv-x="485" d="M264 1229l33 266h283l-33 -266l-119 -266h-111z" />
<glyph unicode="(" horiz-adv-x="677" d="M150 375q0 283 112 555q66 160 168 313q43 66 184 252h205q-336 -477 -395 -938q-12 -96 -12 -201q0 -440 172 -770h-205q-82 174 -115 254q-115 281 -114 535z" />
<glyph unicode=")" horiz-adv-x="677" d="M6 -414q178 229 294 550t116 607q0 360 -174 752h204q72 -139 103 -211q125 -288 125 -569q0 -274 -99 -527q-53 -137 -157 -303q-68 -106 -207 -299h-205z" />
<glyph unicode="*" horiz-adv-x="790" d="M193 1176l71 147l201 -78l31 250h159l-30 -250l213 78l34 -147l-229 -78l135 -197l-145 -110l-127 196l-164 -196l-117 110l181 197z" />
<glyph unicode="+" d="M119 352v246h373v373h245v-373h373v-246h-373v-372h-245v372h-373z" />
<glyph unicode="," horiz-adv-x="704" d="M180 -145q137 0 142 112l2 53h-109l41 338h287l-51 -417q-12 -104 -109 -156q-78 -45 -193 -45h-10l15 115h-15z" />
<glyph unicode="-" horiz-adv-x="677" d="M70 426v279h557v-279h-557z" />
<glyph unicode="." horiz-adv-x="704" d="M211 0l43 356h287l-43 -356h-287z" />
<glyph unicode="/" horiz-adv-x="567" d="M16 0l430 1495h132l-431 -1495h-131z" />
<glyph unicode="0" horiz-adv-x="1398" d="M178 393q0 76 15 193l38 317q39 313 150 447q131 158 426 157h178q231 0 334 -90q106 -96 106 -323q0 -90 -12 -191l-39 -317q-39 -313 -149 -447q-131 -158 -426 -157h-178q-231 0 -334 90q-109 94 -109 321zM524 444q0 -100 47 -135q39 -29 144 -28h63q150 0 201 88 q33 53 53 229l35 293q12 103 12 158q0 96 -47 131q-41 29 -141 28h-64q-152 0 -202 -86q-33 -53 -54 -231l-34 -293q-12 -102 -13 -154z" />
<glyph unicode="1" horiz-adv-x="1398" d="M326 1055l542 434h410l-182 -1489h-334l143 1165l-409 -338z" />
<glyph unicode="2" horiz-adv-x="1398" d="M150 0l43 344q39 309 272 379l450 135q74 23 105 49q39 35 45 103l6 59q4 39 4 47q0 125 -176 125h-65q-102 0 -150.5 -37t-60.5 -135l-9 -63h-327l14 114q25 197 162 295q125 92 330 92h217q176 0 284 -71q127 -86 127 -252q0 -8 -2 -26.5t-2 -27.5l-16 -124 q-43 -324 -305 -394l-437 -114q-102 -27 -114 -119l-10 -82h770l-37 -297h-1118z" />
<glyph unicode="3" horiz-adv-x="1398" d="M172 303q0 8 2 26.5t2 26.5l14 117h336l-6 -51q-2 -16 -2 -39q0 -131 178 -131h70q197 0 215 160l6 55q2 18 2 35q0 129 -176 129h-102l32 264h99q182 0 198 156l4 41q2 10 3 30q0 121 -160 121h-64q-96 0 -143 -39t-59 -133l-5 -31h-331l10 82q49 385 514 385h162 q428 0 428 -309q0 -10 -2 -27.5t-2 -27.5l-13 -99q-25 -203 -237 -249l-8 -43q201 -57 200 -238v-27q-4 -18 -4 -26l-14 -113q-25 -188 -174 -285q-129 -82 -332 -81h-225q-176 0 -287 69q-129 84 -129 252z" />
<glyph unicode="4" horiz-adv-x="1398" d="M125 293l45 375l674 821h506l-113 -930h176l-33 -266h-176l-37 -293h-331l36 293h-747zM428 559h477l84 698z" />
<glyph unicode="5" horiz-adv-x="1398" d="M195 295q0 8 2 26.5t2 26.5l8 62h330l-2 -7q-2 -14 -3 -38q0 -76 58 -99q33 -12 125 -12h55q121 0 160 31q47 33 61 147l19 152q4 33 4 67q0 78 -56 99q-31 12 -124 12h-56q-170 0 -198 -80h-316l98 807h1027l-31 -260h-711l-43 -352q129 147 287 147h86q184 0 276 -66 q104 -78 105 -253q0 -47 -6 -95l-29 -219q-31 -242 -172 -334q-119 -76 -379 -75h-139q-184 0 -297 63q-141 80 -141 250z" />
<glyph unicode="6" horiz-adv-x="1398" d="M217 387q0 82 14 199l39 317q37 307 138 438q127 166 411 166h176q406 0 406 -272v-25q-4 -18 -4 -26l-8 -72h-332q2 14 2 39q0 92 -139 92h-99q-106 0 -139 -24q-41 -29 -53 -129l-39 -322q133 129 280 129h146q338 0 338 -303q0 -37 -6 -90l-17 -142 q-45 -381 -522 -380h-176q-221 0 -318.5 92t-97.5 313zM541 344q0 -66 59 -86q31 -10 117 -10h80q109 0 143 18q49 27 61 119l15 115q4 33 4 45q0 68 -59 84q-27 8 -117 8h-80q-106 0 -141 -19q-53 -27 -66 -118l-14 -115q-2 -16 -2 -25v-16z" />
<glyph unicode="7" horiz-adv-x="1398" d="M307 1225l33 264h1087l-32 -277l-652 -1212h-350l647 1225h-733z" />
<glyph unicode="8" horiz-adv-x="1398" d="M203 297v25q4 18 4 26l14 113q31 233 264 291l7 43q-180 39 -181 192q0 20 2 39l11 96q41 385 514 385h135q424 0 424 -315v-25q0 -6 -4 -45l-11 -96q-18 -180 -237 -231l-8 -43q203 -57 202 -240v-25q-4 -18 -4 -26l-14 -113q-25 -188 -174 -282q-131 -84 -332 -84h-192 q-178 0 -287 67q-133 82 -133 248zM549 383q0 -131 182 -131h43q201 0 217 162l6 57q2 10 2 33q0 133 -184 133h-41q-199 0 -217 -166l-6 -57q-2 -10 -2 -31zM647 1022q0 -131 162 -131h39q186 0 203 158l4 41q2 10 2 26q0 129 -166 129h-35q-186 0 -203 -155l-4 -41 q-2 -10 -2 -27z" />
<glyph unicode="9" horiz-adv-x="1398" d="M217 252v24q4 18 4 27l10 74h332q-4 -29 -4 -39q0 -59 43 -78q27 -12 98 -12h99q106 0 142 26.5t48 126.5l39 320q-133 -129 -280 -129h-146q-338 0 -338 303q0 39 6 90l17 139q45 383 522 383h176q221 0 318.5 -92t97.5 -311q0 -84 -15 -201l-38 -317 q-37 -307 -138 -439q-127 -166 -411 -165h-176q-406 0 -406 270zM598 944q0 -68 59 -84q27 -8 117 -8h82q106 0 141 18q51 27 64 119l14 115q2 16 2 24v19q0 68 -57 86q-27 10 -115 10h-82q-106 0 -143 -18q-51 -27 -64 -121l-14 -115q-4 -33 -4 -45z" />
<glyph unicode=":" horiz-adv-x="704" d="M211 0l41 330h287l-41 -330h-287zM299 711l39 327h287l-39 -327h-287z" />
<glyph unicode=";" horiz-adv-x="704" d="M178 -150q125 0 141 109v49h-108l41 326h287l-50 -402q-12 -100 -110 -151q-80 -43 -191 -43h-10l15 112h-15zM299 713l39 325h287l-39 -325h-287z" />
<glyph unicode="&#x3c;" d="M86 492v245l983 430v-245l-676 -308l676 -368v-246z" />
<glyph unicode="=" d="M119 106v246h991v-246h-991zM119 598v246h991v-246h-991z" />
<glyph unicode="&#x3e;" d="M90 0v246l676 368l-676 308v245l983 -430v-245z" />
<glyph unicode="?" horiz-adv-x="1159" d="M231 1124l11 70q23 152 125 232.5t278 80.5h236q139 0 225 -57q102 -66 102 -199q0 -27 -2 -43l-18 -149q-20 -172 -182 -271q-31 -16 -160 -83q-94 -49 -101 -130l-2 -26h-309l12 100q18 158 150 225l186 97q88 45 95 100l12 96q14 109 -107 109h-88q-131 0 -149 -115 l-6 -37h-308zM367 0l41 326h309l-41 -326h-309z" />
<glyph unicode="@" horiz-adv-x="1974" d="M90 516q0 418 294 727t710 309q147 0 319 -69q248 -100 382 -294t134 -460q0 -211 -110 -385q-143 -225 -398 -225q-170 0 -241 139q-180 -147 -303 -147q-111 0 -209 79q-127 102 -127 281q0 207 147 389q162 201 385 201q72 0 135 -35q72 -41 90 -104l33 122h185 l-173 -618q0 -70 13 -100q18 -47 78 -47q145 0 239 194q76 160 76 322q0 246 -219 422q-205 164 -457 163q-354 0 -586 -288q-201 -252 -200 -547q0 -311 260 -498q213 -154 452 -153q141 0 218 14q66 14 208 67l62 -163q-117 -49 -195 -66q-119 -25 -317 -25 q-354 0 -613 218q-272 229 -272 577zM737 520q0 -84 33 -153q43 -88 119 -88q172 0 266 163q74 129 74 287q0 72 -49.5 128t-118.5 56q-141 0 -240 -147q-84 -125 -84 -246z" />
<glyph unicode="A" horiz-adv-x="1515" d="M63 0l599 1489h581l223 -1489h-383l-34 268h-502l-101 -268h-383zM643 537h379l-74 677h-59z" />
<glyph unicode="B" horiz-adv-x="1464" d="M168 0l182 1489h680q203 0 295 -37q147 -59 148 -229v-25q0 -10 -5 -43l-12 -100q-29 -236 -262 -262l-2 -19q223 -45 223 -272q0 -27 -2 -41l-12 -90q-31 -231 -187 -312q-113 -59 -376 -59h-670zM561 299h318q147 0 163 133l9 64q2 16 2 28q0 104 -133 105h-318z M633 879h303q137 0 154 127l8 61q2 8 2 16v13q0 96 -127 96h-303z" />
<glyph unicode="C" horiz-adv-x="1425" d="M180 408q0 78 13 178l38 317q39 324 168 457q141 147 455 147h111q242 0 352 -69q135 -89 135 -316q0 -47 -10 -143l-2 -8h-357l2 6q4 37 5 53q0 94 -62 131q-47 29 -149 29q-160 0 -215 -84q-37 -55 -60 -236l-31 -254q-12 -102 -12 -149q0 -102 55 -139q43 -29 154 -29 q135 0 191.5 55.5t72.5 192.5h365q-37 -291 -168 -424q-141 -141 -428 -141h-135q-250 0 -363 86q-125 98 -125 340z" />
<glyph unicode="D" horiz-adv-x="1560" d="M168 0l182 1489h737q248 0 359 -84q131 -96 131 -332q0 -76 -12 -174l-39 -309q-41 -319 -168 -449q-139 -141 -453 -141h-737zM563 299h318q164 0 221 80q39 55 61 239l31 252q12 101 12 150q0 104 -57 141q-45 29 -160 29h-317z" />
<glyph unicode="E" horiz-adv-x="1386" d="M168 0l182 1489h1077l-36 -299h-719l-37 -307h698l-30 -252h-699l-41 -332h735l-36 -299h-1094z" />
<glyph unicode="F" horiz-adv-x="1236" d="M168 0l182 1489h961l-37 -299h-602l-41 -338h567l-37 -295h-567l-68 -557h-358z" />
<glyph unicode="G" horiz-adv-x="1519" d="M184 461q0 66 11 147l28 232q41 322 172 481q154 186 459 186h217q193 0 324 -86q155 -98 155 -280q0 -29 -2 -43l-6 -45h-360q0 137 -213 137h-101q-166 0 -221 -78q-41 -57 -63 -242l-31 -254q-12 -102 -12 -147q0 -106 59 -143q45 -27 160 -27h110q117 0 170 29 q68 39 82 143l11 80h-228l31 246h575l-30 -240q-37 -293 -170 -428q-143 -147 -430 -147h-271q-426 0 -426 479z" />
<glyph unicode="H" horiz-adv-x="1599" d="M168 0l182 1489h359l-70 -571h561l70 571h358l-182 -1489h-359l74 598h-561l-74 -598h-358z" />
<glyph unicode="I" horiz-adv-x="714" d="M180 0l182 1489h363l-182 -1489h-363z" />
<glyph unicode="J" horiz-adv-x="1255" d="M127 307q0 47 8 113l25 194h348l-19 -153q-4 -35 -4 -60q0 -102 101 -102h71q72 0 105 47q23 35 33 115l125 1028h362l-127 -1040q-57 -467 -459 -467h-184q-190 0 -281 65q-104 78 -104 260z" />
<glyph unicode="K" horiz-adv-x="1443" d="M168 0l182 1489h359l-70 -574h41l428 574h426l-565 -719l432 -770h-445l-315 610h-39l-76 -610h-358z" />
<glyph unicode="L" horiz-adv-x="1234" d="M172 0l182 1489h363l-144 -1176h666l-39 -313h-1028z" />
<glyph unicode="M" horiz-adv-x="2054" d="M168 0l182 1489h547l188 -1092l455 1092h547l-182 -1489h-349l136 1104l-471 -1104h-367l-201 1116l-137 -1116h-348z" />
<glyph unicode="N" horiz-adv-x="1718" d="M168 0l182 1489h561l340 -1116h19l137 1116h340l-182 -1489h-559l-347 1124l-12 2l-139 -1126h-340z" />
<glyph unicode="O" horiz-adv-x="1523" d="M180 408q0 78 13 178l38 317q39 324 168 457q141 147 455 147h197q250 0 360 -86q129 -98 129 -338q0 -80 -12 -180l-39 -317q-39 -324 -168 -457q-141 -147 -457 -147h-196q-250 0 -363 86q-125 98 -125 340zM551 467q0 -104 59 -141q45 -27 158 -27h74q166 0 221 78 q41 55 63 239l31 254q12 103 12 148q0 106 -57 143q-45 29 -162 29h-73q-164 0 -222 -80q-39 -55 -61 -240l-31 -254q-12 -102 -12 -149z" />
<glyph unicode="P" horiz-adv-x="1452" d="M168 0l182 1489h678q231 0 340 -70q137 -86 137 -301v-69q-4 -18 -8 -48l-12 -102q-33 -268 -176 -383q-135 -106 -412 -106h-319l-52 -410h-358zM612 709h299q113 0 155 43t54 157l10 90q5 38 5 48q0 141 -181 141h-282z" />
<glyph unicode="Q" horiz-adv-x="1538" d="M180 401q0 80 13 181l38 319q39 324 168 459q140 149 451 149h4h197q250 0 362 -86q127 -98 127 -340q0 -82 -12 -182l-39 -319q-33 -268 -135 -371l100 -105l-143 -157l-113 106q-119 -80 -352 -80h-178q-250 0 -363 86q-125 98 -125 340zM551 465q0 -104 57 -141 q45 -29 160 -29h186l-131 129l150 154l133 -134l51 424q12 103 12 148q0 109 -57 145q-45 29 -162 29h-73q-164 0 -222 -80q-39 -57 -61 -242l-31 -254q-12 -102 -12 -149z" />
<glyph unicode="R" horiz-adv-x="1449" d="M168 0l182 1489h580q250 0 356 -39q180 -67 180 -270q0 -35 -6 -88l-14 -125q-33 -293 -311 -328l-5 -18q238 -41 238 -269q0 -10 -2 -28.5t-2 -28.5l-37 -295h-366l30 256q0 10 2 29.5t2 29.5q0 82 -47 109q-35 22 -118 22h-7h-241l-56 -446h-358zM618 750h244 q111 0 156 39.5t59 150.5l8 59q0 10 2.5 30t2.5 30q0 80 -50 108q-37 23 -125 23h-243z" />
<glyph unicode="S" horiz-adv-x="1398" d="M141 276v33q0 6 4 39l11 84h342q-2 -10 -2 -20v-17q0 -80 63 -108q41 -18 133 -19h101q92 0 135 23q55 31 65 112l8 66q2 16 3 27q0 61 -56 86q-29 12 -108 22l-320 37q-289 33 -289 299q0 35 7 82l12 94q27 207 160 311q102 80 356 80h240q401 0 401 -286v-25 q-4 -18 -4 -27l-10 -86h-342q2 12 2 37q0 102 -152 103h-92q-92 0 -131 -19q-59 -27 -70 -104l-8 -64q-2 -8 -2 -24q0 -59 57 -82q25 -8 111 -19l291 -32q321 -37 321 -295q0 -12 -2 -29.5t-2 -28.5l-18 -147q-23 -182 -146 -289.5t-307 -107.5h-325q-197 0 -297 51 q-139 70 -140 243z" />
<glyph unicode="T" horiz-adv-x="1271" d="M223 1190l37 299h1126l-36 -299h-381l-146 -1190h-362l145 1190h-383z" />
<glyph unicode="U" horiz-adv-x="1564" d="M201 379q0 74 16 207l111 903h356l-106 -873q-10 -84 -11 -133q0 -113 58 -151q45 -33 166 -33h73q164 0 223 78q43 57 66 239l107 873h356l-111 -903q-23 -180 -45 -256q-74 -246 -303 -316q-106 -32 -261 -32h-9h-197q-152 0 -233 22q-121 33 -188.5 127t-67.5 248z " />
<glyph unicode="V" horiz-adv-x="1492" d="M246 1489h379l153 -1180l21 2l450 1178h377l-594 -1489h-571z" />
<glyph unicode="W" horiz-adv-x="2099" d="M268 1489h361l-2 -1153l409 1153h412l111 -1153l294 1153h359l-424 -1489h-533l-75 1018l-332 -1018h-539z" />
<glyph unicode="X" horiz-adv-x="1484" d="M78 0l477 774l-242 715h402l157 -561l295 561h404l-426 -715l276 -774h-411l-181 616l-346 -616h-405z" />
<glyph unicode="Y" horiz-adv-x="1390" d="M209 1489h403l203 -617l346 617h400l-615 -967l-63 -522h-359l62 522z" />
<glyph unicode="Z" horiz-adv-x="1411" d="M111 0l41 330l839 846h-692l39 313h1132l-40 -336l-822 -840h719l-39 -313h-1177z" />
<glyph unicode="[" horiz-adv-x="677" d="M96 -414l236 1909h495l-26 -205h-226l-182 -1491h225l-26 -213h-496z" />
<glyph unicode="\" horiz-adv-x="567" d="M-8 1495h155l463 -1495h-155z" />
<glyph unicode="]" horiz-adv-x="677" d="M-2 -414l27 213h229l182 1491h-229l26 205h496l-235 -1909h-496z" />
<glyph unicode="^" d="M123 557l340 868h254l348 -868h-229l-242 610l-242 -610h-229z" />
<glyph unicode="_" horiz-adv-x="1013" d="M0 -250h1024v-246h-1024v246z" />
<glyph unicode="`" horiz-adv-x="1007" d="M451 1550h200l129 -370h-96z" />
<glyph unicode="a" horiz-adv-x="1179" d="M139 213q0 10 2 27.5t2 27.5l13 103q16 135 108 204q86 68 225 68h93q139 0 227 -139l35 274q2 16 2 29q0 88 -101 88h-57q-61 0 -86 -12q-37 -16 -49 -68h-293q27 143 127 203q82 49 240 49h159q168 0 248 -47q102 -59 103 -215v-51q-4 -16 -4 -25l-91 -729h-294l18 143 q-134 -157 -275 -157h-2h-120q-229 0 -230 227zM444 274q0 -92 111 -92h92q123 0 135 117l6 57q3 9 3 25q0 92 -109 92h-92q-125 0 -137 -117l-7 -57q-2 -8 -2 -25z" />
<glyph unicode="b" d="M164 0l182 1489h293l-68 -561l19 2q72 125 291 125q286 0 286 -307q0 -45 -8 -115l-26 -223q-51 -424 -381 -424q-225 0 -279 149l-12 -2l-15 -133h-282zM504 338q0 -68 27.5 -96.5t95.5 -28.5h39q96 0 133 68q23 41 37 155l20 166q6 49 6 98q0 68 -27.5 96.5t-95.5 28.5 h-39q-96 0 -133 -67q-23 -41 -37 -156l-20 -166q-6 -49 -6 -98z" />
<glyph unicode="c" horiz-adv-x="1140" d="M154 289v71q6 39 8 54l26 225q27 231 123 326q100 102 328 102h141q160 0 257.5 -85t97.5 -243q0 -18 -5 -51h-294q2 10 2 33q0 127 -129 127h-45q-102 0 -140 -68q-20 -37 -37 -166l-22 -174q-10 -80 -10 -118q0 -68 29.5 -92.5t99.5 -24.5h45q86 0 127 51q31 43 43 135 h295q-29 -229 -123 -317t-324 -88h-141q-180 0 -260 59q-92 70 -92 244z" />
<glyph unicode="d" d="M154 289v49q0 2 8 72l26 223q51 422 381 422q225 0 271 -125l10 -2l68 561h294l-182 -1489h-285l21 133l-18 -2q-90 -145 -310 -145q-285 0 -284 303zM459 338q0 -68 27.5 -96.5t95.5 -28.5h39q94 0 131 68q23 41 36 155l21 166q8 65 8 100q0 68 -27.5 95.5t-95.5 27.5 h-39q-96 0 -133 -67q-23 -41 -37 -156l-20 -166q-6 -49 -6 -98z" />
<glyph unicode="e" horiz-adv-x="1144" d="M154 289v71q6 39 8 54l26 225q27 231 123 326q100 102 328 102h141q180 0 260 -59q92 -70 93 -244v-57q-4 -27 -9 -68l-18 -152h-641l-19 -153q-2 -16 -2 -45q0 -111 138 -111h43q74 0 108.5 23.5t54.5 91.5h289q-41 -170 -149 -242q-99 -65 -276 -65h-5h-141 q-180 0 -260 59q-92 70 -92 244zM483 629h355l6 59q6 59 6 82q0 70 -33 95.5t-104 25.5h-43q-94 0 -135 -49q-31 -41 -43 -144z" />
<glyph unicode="f" horiz-adv-x="729" d="M168 819l27 221h116q0 23 11 103q23 172 92 252q80 94 243 94h226l-25 -211h-57q-162 0 -176 -113l-17 -125h219l-26 -221h-219l-101 -819h-299l101 819h-115z" />
<glyph unicode="g" horiz-adv-x="1177" d="M143 -180q0 23 2 37l7 41h280q0 -96 109 -97h49q94 0 129 60q23 37 37 147l20 158l-18 -4q-72 -123 -318 -123q-276 0 -276 285q0 55 6 104l27 217q25 201 100 301q92 123 278 123q217 0 263 -133l18 4l14 113h293l-121 -992q-16 -135 -41 -211q-53 -166 -229 -225 q-79 -26 -166 -26h-6h-115q-342 0 -342 221zM465 352q0 -70 29.5 -98.5t99.5 -28.5h41q98 0 137 66q25 43 39 158l20 165q7 50 7 97q0 129 -129 129h-41q-98 0 -140 -68q-23 -43 -36 -158l-21 -165q-6 -49 -6 -97z" />
<glyph unicode="h" horiz-adv-x="1210" d="M164 0l182 1489h293l-72 -582l23 2q57 145 301 146q145 0 207 -49q70 -55 69 -195v-61q-4 -27 -8 -68l-84 -682h-293l74 606q6 51 6 94q0 76 -39 99q-29 16 -110 16q-102 0 -144 -65q-27 -43 -41 -164l-71 -586h-293z" />
<glyph unicode="i" horiz-adv-x="610" d="M158 0l127 1040h299l-127 -1040h-299zM313 1262l27 227h299l-27 -227h-299z" />
<glyph unicode="j" horiz-adv-x="620" d="M35 -303l24 209q68 0 93 45q12 25 18 69l127 1024h299l-119 -956q-25 -197 -82 -281q-77 -110 -253 -110h-3h-104zM324 1264l26 227h299l-26 -227h-299z" />
<glyph unicode="k" horiz-adv-x="1138" d="M164 0l182 1489h293l-104 -854h36l254 405h332l-334 -495l264 -545h-344l-196 434h-37l-53 -434h-293z" />
<glyph unicode="l" horiz-adv-x="610" d="M168 0l182 1489h299l-182 -1489h-299z" />
<glyph unicode="m" horiz-adv-x="1720" d="M164 0l129 1053h278l-14 -140l14 2q84 152 299 152q117 0 168 -49q45 -41 72 -162q106 211 328 211q133 0 189 -53.5t56 -186.5q0 -53 -10 -137l-84 -690h-289l76 614q8 66 8 99q0 70 -28.5 91t-100.5 21q-90 0 -129 -75q-20 -43 -34 -158l-72 -592h-287l76 614 q8 66 8 99q0 70 -28.5 91t-100.5 21q-90 0 -129 -75q-20 -43 -35 -158l-71 -592h-289z" />
<glyph unicode="n" horiz-adv-x="1210" d="M164 0l129 1053h282l-16 -138h19q90 152 315 152q145 0 207 -49q69 -56 69 -195q0 -49 -10 -133l-84 -690h-293l76 614q6 49 6 93q0 76 -39 100q-29 18 -112 18q-104 0 -144 -67q-27 -43 -41 -166l-71 -592h-293z" />
<glyph unicode="o" horiz-adv-x="1146" d="M154 289v71q6 39 8 54l26 225q27 231 123 326q100 102 328 102h141q180 0 260 -59q92 -70 93 -244v-57q-2 -12 -9 -68l-26 -225q-27 -231 -123 -326q-100 -102 -328 -102h-141q-180 0 -260 59q-92 70 -92 244zM455 322q0 -68 29.5 -92.5t99.5 -24.5h41q104 0 139 69 q18 33 35 166l22 174q10 80 10 119q0 68 -28.5 91.5t-97.5 23.5h-41q-102 0 -140 -68q-20 -37 -37 -166l-22 -174q-10 -80 -10 -118z" />
<glyph unicode="p" d="M115 -401l178 1454h282l-16 -135h19q93 151 304 151h3q285 0 284 -307v-55q-2 -14 -8 -62l-28 -223q-27 -201 -103 -301q-92 -123 -278 -123q-219 0 -263 127h-18l-63 -526h-293zM506 352q0 -68 27.5 -96.5t95.5 -28.5h39q96 0 133 68q23 41 37 156l20 167q6 52 6 99 q0 68 -27.5 96.5t-95.5 28.5h-39q-100 0 -133 -68q-25 -51 -37 -156l-20 -167q-6 -51 -6 -99z" />
<glyph unicode="q" d="M162 422l28 223q27 201 103 301q92 123 278 123q211 0 269 -151h18l16 135h285l-178 -1454h-295l64 526l-19 -4q-72 -123 -291 -123q-286 0 -286 307q0 53 8 117zM461 352q0 -68 27.5 -96.5t95.5 -28.5h39q96 0 133 70q20 41 35 154l20 167q8 68 8 101q0 68 -27.5 95.5 t-95.5 27.5h-39q-100 0 -133 -68q-25 -51 -37 -156l-20 -167q-6 -51 -6 -99z" />
<glyph unicode="r" horiz-adv-x="1019" d="M164 0l129 1053h282l-16 -133l14 2q82 145 277 145q125 0 175 -53t50 -178q0 -51 -10 -146l-8 -76h-273l7 50q4 33 4 51q0 61 -25 85.5t-86 24.5q-88 0 -123 -77q-18 -41 -33 -156l-71 -592h-293z" />
<glyph unicode="s" horiz-adv-x="1150" d="M131 227v25q4 18 4 27l-2 -9h309q0 -106 144 -106h45q84 0 124 25.5t50 103.5q2 16 2 31q0 59 -47 79q-25 12 -101 21l-210 22q-252 27 -252 230q0 16 2 31l12 88q39 272 405 272h207q307 0 307 -219q0 -29 -2 -45l-292 -2q0 90 -136 90h-43q-145 0 -157 -96 q-6 -37 -6 -45v-13q0 -76 104 -86l236 -22q276 -27 276 -209q0 -20 -2 -37l-12 -92q-20 -152 -131 -232q-101 -73 -259 -73h-4h-223q-348 0 -348 241z" />
<glyph unicode="t" horiz-adv-x="1034" d="M156 836l26 211h121l25 208h293l-25 -208h446l-26 -211h-447l-57 -465q-6 -49 -6 -80q0 -59 29 -78q23 -16 86 -16q78 0 104.5 29.5t36.5 109.5l8 70h238l-13 -103q-39 -317 -342 -317h-178q-270 0 -270 225q0 47 8 106l8 60l55 459h-120z" />
<glyph unicode="u" horiz-adv-x="1218" d="M209 360l84 693h293l-76 -613q-6 -49 -6 -92q0 -78 39 -102q27 -16 112 -17q102 0 144 66q27 45 41 164l71 594h293l-129 -1053h-282l16 135l-18 -2q-92 -147 -316 -147q-143 0 -207 49q-69 52 -69 188q0 53 10 137z" />
<glyph unicode="v" horiz-adv-x="1112" d="M162 1053h315l98 -811l316 811h315l-426 -1053h-465z" />
<glyph unicode="w" horiz-adv-x="1609" d="M199 1053h293l14 -801l258 801h362l62 -797l207 797h291l-297 -1053h-422l-62 741l-239 -741h-430z" />
<glyph unicode="x" horiz-adv-x="1146" d="M78 0l356 553l-188 500h327l93 -408l200 408h318l-312 -504l218 -549h-332l-119 440l-236 -440h-325z" />
<glyph unicode="y" horiz-adv-x="1101" d="M129 -393l25 200h53q51 0 104.5 31t67.5 78l33 107l-256 1021h303l137 -739l264 739h314l-531 -1187q-68 -152 -123 -197q-78 -63 -229 -63q-59 0 -162 10z" />
<glyph unicode="z" horiz-adv-x="1091" d="M115 0l32 264l598 572h-497l26 217h830l-33 -265l-588 -565h533l-27 -223h-874z" />
<glyph unicode="{" horiz-adv-x="790" d="M74 455v192q168 0 168 98v467q0 102 61 189q70 94 168 94h176v-201h-78q-61 0 -82 -34q-12 -20 -12 -76v-434q0 -174 -196 -201q197 -25 196 -217v-438q0 -55 10 -74q18 -33 84 -33h78v-201h-176q-72 0 -141 66q-88 84 -88 213v471q0 119 -168 119z" />
<glyph unicode="|" horiz-adv-x="647" d="M262 -414v1909h164v-1909h-164z" />
<glyph unicode="}" horiz-adv-x="790" d="M152 -213h77q57 0 76 24.5t19 82.5v438q0 193 196 217q-197 27 -196 201v434q0 57 -11 76q-18 35 -84 34h-77v201h176q72 0 141 -68q88 -84 88 -215v-467q0 -98 168 -98v-192q-168 0 -168 -119v-471q0 -100 -63 -187q-68 -92 -166 -92h-176v201z" />
<glyph unicode="~" d="M123 479q45 303 254 303q76 0 235.5 -98t198.5 -98q94 0 94 131h160q0 -113 -61 -201q-68 -98 -177 -98q-61 0 -238 98t-212 98q-53 0 -82 -39.5t-29 -95.5h-143z" />
<glyph horiz-adv-x="1398" d="M78 535l67 151h168l15 115h-201l68 151h151q45 295 172 420q137 135 410 135h82q248 0 360 -86q125 -98 109 -372h-344q0 88 -48.5 123.5t-146.5 35.5q-143 0 -187 -57t-65 -199h432l-67 -151h-383l-15 -115h346l-67 -151h-295q-6 -53 -6 -86q0 -100 45 -136 q39 -33 149 -32q131 0 185 51q33 31 55 139h350q-43 -256 -151 -360q-133 -129 -418 -129h-107q-229 0 -340.5 97t-111.5 329q0 57 6 127h-217z" />
<glyph unicode="&#xa0;" horiz-adv-x="710" d="M115 614q0 109 74.5 183.5t183.5 74.5q106 0 180 -76t74 -182q0 -104 -75 -179t-179 -75q-109 0 -183.5 73t-74.5 181z" />
<glyph unicode="&#xa1;" horiz-adv-x="704" d="M211 0l108 879h287l-108 -879h-287zM354 1165l39 324h287l-39 -324h-287z" />
<glyph unicode="&#xa2;" horiz-adv-x="1140" d="M154 289v71q6 39 8 54l26 225q27 231 123 326q100 102 328 102h12l29 236h123l-29 -236q162 0 258 -82q103 -88 103 -246q0 -18 -5 -51h-294q2 12 2 35q0 100 -90 121l-80 -637q111 23 131 184h295q-29 -229 -123 -317t-324 -88l-35 -244h-123l29 244h-12q-180 0 -260 59 q-92 70 -92 244zM457 324q0 -106 88 -117l80 639q-80 -10 -109 -84q-14 -33 -29 -148l-22 -174q-8 -63 -8 -116z" />
<glyph unicode="&#xa3;" horiz-adv-x="1411" d="M178 0l37 297q133 14 150 149l18 158h-168l29 232h168l30 254q25 201 156 309t336 108h106q170 0 279 -59q137 -75 137 -231q0 -25 -2 -43l-10 -91h-318l4 33q8 59 -26.5 93t-95.5 34h-70q-139 0 -156 -131l-34 -276h382l-28 -232h-383q-14 -119 -59.5 -181.5 t-155.5 -125.5h874l-37 -297h-1163z" />
<glyph unicode="&#xa4;" horiz-adv-x="1398" d="M78 535l67 151h168l15 115h-201l68 151h151q45 295 172 420q137 135 410 135h82q248 0 360 -86q125 -98 109 -372h-344q0 88 -48.5 123.5t-146.5 35.5q-143 0 -187 -57t-65 -199h432l-67 -151h-383l-15 -115h346l-67 -151h-295q-6 -53 -6 -86q0 -100 45 -136 q39 -33 149 -32q131 0 185 51q33 31 55 139h350q-43 -256 -151 -360q-133 -129 -418 -129h-107q-229 0 -340.5 97t-111.5 329q0 57 6 127h-217z" />
<glyph unicode="&#xa5;" horiz-adv-x="1126" d="M188 369l15 123h315l14 106h-315l14 123h304l-345 725h259l241 -524l365 524h254l-508 -725h303l-14 -123h-316l-14 -106h315l-14 -123h-316l-45 -369h-241l45 369h-316z" />
<glyph unicode="&#xa6;" horiz-adv-x="647" d="M262 -414v852l164 -110v-742h-164zM262 827v668h164v-778z" />
<glyph unicode="&#xa7;" horiz-adv-x="1126" d="M86 496q0 193 127 290q-74 66 -74 185q0 195 142 293q121 84 321 84q193 0 324 -91q147 -102 147 -286h-274q0 82 -68 125q-57 35 -145 34q-168 0 -168 -114q0 -66 176 -107q262 -61 330 -94q178 -84 178 -250q0 -188 -127 -295q74 -68 74 -180q0 -227 -187 -321 q-117 -59 -276 -60q-195 0 -324 92q-147 102 -147 289h274q0 -164 213 -164q168 0 168 119q0 66 -176 107q-262 61 -330 94q-178 84 -178 250zM381 545q0 -160 250 -160q176 0 176 131q0 84 -88 127q-68 33 -162 33q-176 0 -176 -131z" />
<glyph unicode="&#xa8;" horiz-adv-x="1007" d="M393 1239l31 246h184l-30 -246h-185zM741 1239l31 246h184l-30 -246h-185z" />
<glyph unicode="&#xa9;" horiz-adv-x="1495" d="M-16 745q0 328 229 555.5t557 227.5q326 0 554 -228.5t228 -554.5t-228 -556t-554 -230q-328 0 -557 229.5t-229 556.5zM131 745q0 -268 185.5 -453.5t453.5 -185.5q266 0 450.5 186.5t184.5 452.5q0 264 -185.5 449.5t-449.5 185.5q-266 0 -452.5 -184t-186.5 -451z M369 750q0 201 115.5 325.5t314.5 124.5q143 0 243.5 -78t124.5 -217h-176q-12 74 -66.5 115t-129.5 41q-123 0 -191 -94q-59 -84 -59 -213q0 -123 67 -213q74 -102 191 -103q74 0 128 46t60 118h176q-14 -137 -118.5 -220t-245.5 -83q-195 0 -314.5 127t-119.5 324z" />
<glyph unicode="&#xaa;" horiz-adv-x="884" d="M88 936v74q0 186 219 186h68q106 0 190 -115v217q0 90 -90 91h-43q-88 0 -96 -56h-211q0 166 246 166h121q145 0 208 -45q76 -53 76 -190v-510h-211v108q-92 -121 -196 -121h-93q-188 0 -188 195zM301 958q0 -90 98 -90h68q96 0 96 90v41q0 88 -96 88h-68q-98 0 -98 -88 v-41z" />
<glyph unicode="&#xab;" horiz-adv-x="1126" d="M256 451l29 237l377 299l-29 -233l-227 -185l182 -180l-29 -242zM694 455l29 237l377 299l-29 -233l-227 -185l184 -180l-31 -241z" />
<glyph unicode="&#xac;" d="M86 610v234h1032v-594h-233v360h-799z" />
<glyph unicode="&#xad;" horiz-adv-x="677" d="M70 426v279h557v-279h-557z" />
<glyph unicode="&#xae;" horiz-adv-x="1495" d="M-16 745q0 328 229 555.5t557 227.5q326 0 554 -228.5t228 -554.5t-228 -556t-554 -230q-328 0 -557 229.5t-229 556.5zM131 745q0 -270 184.5 -454.5t454.5 -184.5q268 0 451.5 185.5t183.5 453.5q0 266 -184.5 450.5t-450.5 184.5q-268 0 -453.5 -183t-185.5 -452z M446 319v844h410q154 0 229 -41q99 -67 99 -217q0 -229 -230 -229l205 -357h-192l-189 357h-168v-357h-164zM610 803h250q80 0 115 22q45 29 45 105q0 72 -72 96q-41 14 -133 14h-205v-237z" />
<glyph unicode="&#xaf;" horiz-adv-x="1007" d="M399 1282l19 156h532l-18 -156h-533z" />
<glyph unicode="&#xb0;" horiz-adv-x="813" d="M111 1180q0 127 90 217t217 90t217 -90t90 -217t-90 -217.5t-217 -90.5q-129 0 -218 89.5t-89 218.5zM233 1180q0 -78 53.5 -131.5t131.5 -53.5t131 53.5t53 131.5q0 76 -54 130t-130 54t-130.5 -54.5t-54.5 -129.5z" />
<glyph unicode="&#xb1;" d="M98 -20h992v-246h-992v246zM98 598v246h373v373h246v-373h373v-246h-373v-373h-246v373h-373z" />
<glyph unicode="&#xb2;" horiz-adv-x="929" d="M162 512l26 227q25 203 181 250l299 90q92 27 98 99l4 41q2 10 2 30q0 82 -115 82h-43q-70 0 -100.5 -23.5t-40.5 -88.5l-6 -43h-215l10 75q35 256 324 256h143q270 0 270 -211q0 -23 -2 -39l-10 -81q-27 -215 -201 -261l-288 -75q-66 -18 -76 -78l-8 -53h510l-23 -197 h-739z" />
<glyph unicode="&#xb3;" horiz-adv-x="929" d="M178 713q0 16 2 35l8 75h222l-4 -32q-2 -16 -3 -23q0 -90 119 -90h47q129 0 142 106l4 35q2 8 2 25q0 84 -117 84h-68l21 174h65q115 0 132 104l4 27q16 100 -107 100h-41q-121 0 -133 -114l-2 -21h-219l6 55q29 254 338 254h106q283 0 283 -207q0 -18 -2 -34l-8 -64 q-18 -135 -158 -166l-4 -28q131 -35 131 -156q0 -23 -2 -37l-10 -74q-33 -242 -332 -241h-149q-272 0 -273 213z" />
<glyph unicode="&#xb4;" horiz-adv-x="1007" d="M526 1180l219 370h201l-323 -370h-97z" />
<glyph unicode="&#xb6;" horiz-adv-x="1126" d="M51 1026q0 168 109 313q119 156 282 156h652v-147h-156v-1799h-147v1799h-173v-1799h-147v996q-379 35 -418 438q-2 20 -2 43z" />
<glyph unicode="&#xb7;" horiz-adv-x="567" d="M229 770l37 299h307l-36 -299h-308z" />
<glyph unicode="&#xb8;" horiz-adv-x="1007" d="M272 -481l13 96h219q104 0 114 78q4 33 5 49q0 72 -86 72h-123l22 186h103l-13 -106h119q113 0 113 -127v-25q-4 -18 -4 -27q-14 -123 -82 -164q-53 -33 -187 -32h-213z" />
<glyph unicode="&#xb9;" horiz-adv-x="929" d="M276 1208l361 287h270l-121 -983h-219l95 770l-273 -223z" />
<glyph unicode="&#xba;" horiz-adv-x="860" d="M88 1040v160q0 164 64.5 231.5t228.5 67.5h104q164 0 228.5 -67.5t64.5 -231.5v-160q0 -164 -64.5 -231.5t-228.5 -67.5h-104q-164 0 -228.5 68t-64.5 231zM303 1059q0 -96 12 -125q23 -49 103 -49h31q80 0 102 49q12 29 12 125v125q0 109 -16 135q-23 37 -98 37h-31 q-80 0 -103 -49q-12 -29 -12 -123v-125z" />
<glyph unicode="&#xbb;" horiz-adv-x="1126" d="M219 147l29 242l227 180l-182 185l29 233l303 -299l-29 -237zM645 147l29 242l227 180l-182 185l29 233l303 -299l-29 -237z" />
<glyph unicode="&#xbc;" horiz-adv-x="2301" d="M276 1208l361 287h270l-121 -983h-219l95 770l-273 -223zM647 0l1041 1495h180l-1057 -1495h-164zM1413 193l29 247l446 543h334l-76 -614h117l-20 -176h-117l-25 -193h-219l25 193h-494zM1612 369h315l58 460z" />
<glyph unicode="&#xbd;" horiz-adv-x="2332" d="M276 1208l361 287h270l-121 -983h-219l95 770l-273 -223zM647 0l1041 1495h180l-1057 -1495h-164zM1491 0l29 227q25 203 180 250l297 90q92 29 98 99l4 41q2 10 2 30q0 82 -114 82h-43q-131 0 -142 -112l-4 -43h-215l8 75q29 256 326 256h143q271 0 271 -215 q0 -18 -2 -35l-11 -81q-27 -213 -202 -261l-287 -75q-72 -18 -78 -78l-6 -53h510l-25 -197h-739z" />
<glyph unicode="&#xbe;" horiz-adv-x="2301" d="M178 713q0 16 2 35l8 75h222l-4 -32q-2 -16 -3 -23q0 -90 119 -90h47q129 0 142 106l4 35q2 8 2 25q0 84 -117 84h-68l21 174h65q115 0 132 104l4 27q16 100 -107 100h-41q-121 0 -133 -114l-2 -21h-219l6 55q29 254 338 254h106q283 0 283 -207q0 -18 -2 -34l-8 -64 q-18 -135 -158 -166l-4 -28q131 -35 131 -156q0 -23 -2 -37l-10 -74q-33 -242 -332 -241h-149q-272 0 -273 213zM647 0l1041 1495h180l-1057 -1495h-164zM1413 193l29 247l446 543h334l-76 -614h117l-20 -176h-117l-25 -193h-219l25 193h-494zM1612 369h315l58 460z" />
<glyph unicode="&#xbf;" horiz-adv-x="1159" d="M127 242q0 27 2 43l18 149q10 92 68 168q45 61 117 103q59 33 160 86q86 45 98 129l4 26h311l-12 -102q-18 -158 -152 -226l-186 -94q-90 -45 -96 -102l-10 -94q-2 -8 -3 -25q0 -86 109 -86h88q135 0 150 117l4 35h307l-8 -70q-18 -156 -135 -238q-106 -76 -269 -75h-237 q-139 0 -226 57q-102 66 -102 199zM621 1169l41 324h311l-41 -324h-311z" />
<glyph unicode="&#xc0;" horiz-adv-x="1515" d="M63 0l599 1479h581l223 -1479h-383l-34 266h-502l-101 -266h-383zM643 535h379l-76 669h-59zM760 1985h201l133 -336h-97z" />
<glyph unicode="&#xc1;" horiz-adv-x="1515" d="M63 0l599 1479h581l223 -1479h-383l-34 266h-502l-101 -266h-383zM643 535h379l-76 669h-59zM840 1649l215 336h200l-319 -336h-96z" />
<glyph unicode="&#xc2;" horiz-adv-x="1515" d="M63 0l599 1479h581l223 -1479h-383l-34 266h-502l-101 -266h-383zM643 535h379l-76 669h-59zM686 1649l215 336h213l133 -336h-96l-154 233l-217 -233h-94z" />
<glyph unicode="&#xc3;" horiz-adv-x="1515" d="M63 0l599 1479h581l223 -1479h-383l-34 266h-502l-101 -266h-383zM643 535h379l-76 671h-59zM682 1698q68 199 203 198q37 0 78 -12l88 -26q27 -8 61 -9q72 0 113 86h67q-72 -207 -207 -206q-27 0 -67 12l-84 24q-49 14 -70 15q-72 0 -114 -82h-68z" />
<glyph unicode="&#xc4;" horiz-adv-x="1515" d="M63 0l599 1481h581l223 -1481h-383l-34 266h-502l-101 -266h-383zM643 535h379l-76 671h-59zM709 1710l24 209h185l-25 -209h-184zM1057 1710l24 209h185l-25 -209h-184z" />
<glyph unicode="&#xc5;" horiz-adv-x="1515" d="M63 0l599 1479h200q-131 104 -131 215q0 12 2 28q12 104 92 177t185 73q94 0 155.5 -62.5t61.5 -156.5q0 -14 -2 -31q-18 -135 -191 -243h209l223 -1479h-383l-34 266h-502l-101 -266h-383zM643 535h379l-76 669h-59zM838 1733q0 -156 125 -156q63 0 107 41t52 104 q8 59 -28.5 102.5t-96.5 43.5q-59 0 -109 -38t-50 -97z" />
<glyph unicode="&#xc6;" horiz-adv-x="1988" d="M-12 0l762 1489h1275l-32 -279h-572l-41 -325h555l-30 -244h-555l-43 -358h585l-34 -283h-928l41 326h-451l-151 -326h-381zM637 573h362l82 666h-129z" />
<glyph unicode="&#xc7;" horiz-adv-x="1425" d="M180 403q0 82 13 183l38 317q39 324 168 457q141 147 455 147h111q242 0 352 -69q135 -89 135 -316q0 -47 -10 -143l-2 -8h-357l2 6q4 37 5 53q0 94 -62 131q-47 29 -149 29q-160 0 -215 -84q-37 -55 -60 -236l-31 -254q-12 -102 -12 -149q0 -102 55 -139q43 -29 154 -29 q135 0 189.5 49t72.5 184l2 15h365l-4 -23q-55 -307 -174 -415q-139 -127 -418 -127h-62l-10 -74h119q125 0 115 -129l-4 -49q-10 -115 -68.5 -156t-200.5 -41h-213l13 96h219q57 0 82.5 22.5t33.5 80.5q2 8 2 24q0 72 -86 72h-122l18 154q-238 0 -344 92q-115 98 -115 329z " />
<glyph unicode="&#xc8;" horiz-adv-x="1386" d="M168 0l182 1479h1077l-36 -297h-719l-37 -305h698l-30 -250h-699l-41 -330h735l-36 -297h-1094zM711 1985h200l133 -336h-96z" />
<glyph unicode="&#xc9;" horiz-adv-x="1386" d="M168 0l182 1479h1077l-36 -297h-719l-37 -305h698l-30 -250h-699l-41 -330h735l-36 -297h-1094zM791 1649l215 336h200l-319 -336h-96z" />
<glyph unicode="&#xca;" horiz-adv-x="1386" d="M168 0l182 1479h1077l-36 -297h-719l-37 -305h698l-30 -250h-699l-41 -330h735l-36 -297h-1094zM637 1649l215 336h213l133 -336h-96l-154 233l-217 -233h-94z" />
<glyph unicode="&#xcb;" horiz-adv-x="1386" d="M168 0l182 1481h1077l-36 -297h-719l-37 -307h698l-30 -250h-699l-41 -330h735l-36 -297h-1094zM659 1710l25 209h184l-24 -209h-185zM1008 1710l24 209h185l-25 -209h-184z" />
<glyph unicode="&#xcc;" horiz-adv-x="714" d="M180 0l182 1479h363l-182 -1479h-363zM356 1985h201l133 -336h-96z" />
<glyph unicode="&#xcd;" horiz-adv-x="714" d="M180 0l182 1479h363l-182 -1479h-363zM436 1649l215 336h201l-320 -336h-96z" />
<glyph unicode="&#xce;" horiz-adv-x="714" d="M180 0l182 1479h363l-182 -1479h-363zM283 1649l215 336h213l133 -336h-96l-154 233l-217 -233h-94z" />
<glyph unicode="&#xcf;" horiz-adv-x="714" d="M180 0l182 1481h363l-182 -1481h-363zM305 1710l25 209h184l-25 -209h-184zM653 1710l25 209h184l-24 -209h-185z" />
<glyph unicode="&#xd0;" horiz-adv-x="1560" d="M78 829l201 70l71 590h737q248 0 359 -84q131 -96 131 -332q0 -76 -12 -174l-39 -309q-41 -319 -168 -449q-139 -141 -453 -141h-737l78 637l-113 -39zM563 299h318q164 0 221 80q39 55 61 239l31 252q12 101 12 150q0 104 -57 141q-45 29 -160 29h-317l-19 -160l138 47 l55 -231l-225 -78z" />
<glyph unicode="&#xd1;" horiz-adv-x="1718" d="M168 0l182 1479h561l320 -1117l39 9l137 1108h340l-182 -1479h-559l-320 1128l-41 -8l-137 -1120h-340zM784 1698q68 199 203 198q37 0 78 -12l88 -26q27 -8 61 -9q72 0 113 86h68q-72 -207 -207 -206q-27 0 -68 12l-84 24q-49 14 -69 15q-72 0 -115 -82h-68z" />
<glyph unicode="&#xd2;" horiz-adv-x="1523" d="M180 406q0 76 13 176l38 315q39 322 168 455q139 145 455 145h197q252 0 362 -86q127 -96 127 -338q0 -76 -12 -176l-39 -315q-39 -322 -170 -455q-141 -145 -455 -145h-196q-250 0 -361 86q-127 98 -127 338zM551 465q0 -104 59 -141q45 -27 158 -27h74q164 0 221 78 q41 55 63 237l31 252q12 101 12 146q0 106 -57 143q-45 29 -162 29h-73q-164 0 -222 -78q-39 -55 -61 -240l-31 -252q-12 -100 -12 -147zM766 1985h201l133 -336h-96z" />
<glyph unicode="&#xd3;" horiz-adv-x="1523" d="M180 406q0 76 13 176l38 315q39 322 168 455q139 145 455 145h197q252 0 362 -86q127 -96 127 -338q0 -76 -12 -176l-39 -315q-39 -322 -170 -455q-141 -145 -455 -145h-196q-250 0 -361 86q-127 98 -127 338zM551 465q0 -104 59 -141q45 -27 158 -27h74q164 0 221 78 q41 55 63 237l31 252q12 101 12 146q0 106 -57 143q-45 29 -162 29h-73q-164 0 -222 -78q-39 -55 -61 -240l-31 -252q-12 -100 -12 -147zM846 1649l215 336h201l-320 -336h-96z" />
<glyph unicode="&#xd4;" horiz-adv-x="1523" d="M180 406q0 76 13 176l38 315q39 322 168 455q139 145 455 145h197q252 0 362 -86q127 -96 127 -338q0 -76 -12 -176l-39 -315q-39 -322 -170 -455q-141 -145 -455 -145h-196q-250 0 -361 86q-127 98 -127 338zM551 465q0 -104 59 -141q45 -27 158 -27h74q164 0 221 78 q41 55 63 237l31 252q12 101 12 146q0 106 -57 143q-45 29 -162 29h-73q-164 0 -222 -78q-39 -55 -61 -240l-31 -252q-12 -100 -12 -147zM692 1649l215 336h213l133 -336h-96l-153 233l-218 -233h-94z" />
<glyph unicode="&#xd5;" horiz-adv-x="1523" d="M180 406q0 76 13 176l38 315q39 322 168 455q141 147 455 147h197q252 0 362 -86q127 -98 127 -340q0 -76 -12 -176l-39 -315q-39 -322 -170 -455q-141 -145 -455 -145h-196q-250 0 -361 86q-127 98 -127 338zM551 465q0 -104 59 -141q45 -27 158 -27h74q164 0 221 78 q41 55 63 237l31 252q12 101 12 148q0 106 -59 143q-45 27 -160 27h-73q-164 0 -222 -78q-39 -55 -61 -240l-31 -252q-12 -100 -12 -147zM688 1698q68 199 203 198q49 0 78 -14l88 -24q20 -8 61 -9q72 0 113 86h67q-72 -207 -206 -206q-27 0 -68 12l-84 24q-41 12 -70 13 q-74 0 -114 -80h-68z" />
<glyph unicode="&#xd6;" horiz-adv-x="1523" d="M180 406q0 76 13 176l38 315q39 322 168 455q141 147 455 147h197q252 0 362 -86q127 -98 127 -340q0 -76 -12 -176l-39 -315q-39 -322 -170 -455q-141 -145 -455 -145h-196q-250 0 -361 86q-127 98 -127 338zM551 465q0 -104 59 -141q45 -27 158 -27h74q166 0 221 78 q41 55 63 239l31 250q12 101 12 148q0 106 -59 143q-45 27 -160 27h-73q-164 0 -222 -78q-39 -55 -61 -240l-31 -250q-12 -100 -12 -149zM715 1710l24 209h185l-25 -209h-184zM1063 1710l24 209h185l-25 -209h-184z" />
<glyph unicode="&#xd7;" d="M133 168l307 307l-307 307l174 174l307 -307l308 307l174 -174l-308 -307l308 -307l-174 -174l-308 307l-307 -307z" />
<glyph unicode="&#xd8;" horiz-adv-x="1523" d="M10 -246l266 340q-96 96 -96 309q0 82 13 183l38 317q39 324 168 457q141 147 455 147h197q182 0 290 -45l172 221h181l-238 -301q84 -98 84 -299q0 -80 -12 -180l-39 -317q-39 -324 -168 -457q-141 -147 -457 -147h-196q-178 0 -283 41l-211 -269h-164zM551 449l557 714 q-47 27 -158 27h-73q-164 0 -222 -80q-39 -55 -61 -240l-31 -254q-12 -102 -12 -167zM621 319q47 -20 147 -20h74q166 0 221 78q41 55 63 239l31 254q12 103 12 148z" />
<glyph unicode="&#xd9;" horiz-adv-x="1564" d="M201 377q0 72 16 205l111 897h356l-115 -944q-2 -14 -2 -54q0 -113 58 -151q45 -33 166 -33h73q164 0 223 78q43 57 66 237l107 867h356l-111 -897q-23 -178 -45 -254q-74 -244 -303 -314q-109 -33 -270 -32h-197q-152 0 -233 22q-121 33 -188.5 127t-67.5 246zM786 1985 h201l133 -336h-96z" />
<glyph unicode="&#xda;" horiz-adv-x="1564" d="M201 377q0 72 16 205l111 897h356l-115 -944q-2 -14 -2 -54q0 -113 58 -151q45 -33 166 -33h73q164 0 223 78q43 57 66 237l107 867h356l-111 -897q-23 -178 -45 -254q-74 -244 -303 -314q-109 -33 -270 -32h-197q-152 0 -233 22q-121 33 -188.5 127t-67.5 246zM866 1649 l215 336h201l-319 -336h-97z" />
<glyph unicode="&#xdb;" horiz-adv-x="1564" d="M201 377q0 72 16 205l111 897h356l-115 -944q-2 -14 -2 -54q0 -113 58 -151q45 -33 166 -33h73q164 0 223 78q43 57 66 237l107 867h356l-111 -897q-23 -178 -45 -254q-74 -244 -303 -314q-109 -33 -270 -32h-197q-152 0 -233 22q-121 33 -188.5 127t-67.5 246zM713 1649 l215 336h213l133 -336h-96l-154 233l-217 -233h-94z" />
<glyph unicode="&#xdc;" horiz-adv-x="1564" d="M201 377q0 72 16 205l111 897h356l-106 -865q-10 -84 -11 -133q0 -113 58 -151q45 -33 166 -33h73q164 0 223 78q43 57 66 239l107 865h356l-111 -897q-23 -178 -45 -254q-74 -244 -303 -314q-109 -33 -270 -32h-197q-152 0 -233 22q-121 33 -188.5 127t-67.5 246z M735 1710l25 209h184l-24 -209h-185zM1083 1710l25 209h184l-24 -209h-185z" />
<glyph unicode="&#xdd;" horiz-adv-x="1419" d="M188 295v33q4 25 5 34l16 142q45 393 430 393h145q147 0 248 -129l39 322q0 10 2 29.5t2 29.5q0 66 -49 84q-25 10 -106 10h-99q-86 0 -122.5 -25.5t-47.5 -107.5l-332 2l9 72q37 324 479 323h176q156 0 248 -43l239 129l97 -215l-189 -102q20 -70 21 -174 q0 -82 -15 -199l-38 -317q-37 -307 -138 -439q-127 -166 -411 -165h-176q-432 0 -433 313zM522 340q0 -63 62 -84q29 -8 114 -8h80q106 0 142 18q53 27 65 119l14 115q2 16 2 26v15q0 66 -59 86q-31 10 -117 10h-80q-109 0 -143 -16q-49 -27 -61 -121l-15 -115 q-4 -33 -4 -45z" />
<glyph unicode="&#xde;" horiz-adv-x="1452" d="M168 0l182 1489h359l-23 -186h320q231 0 340 -68q137 -86 137 -301v-70q-4 -18 -8 -47l-13 -102q-33 -268 -176 -383q-135 -106 -412 -107h-319l-29 -225h-358zM590 524h299q115 0 155 43q35 39 52 158l12 90q4 31 4 47q0 141 -180 142h-283z" />
<glyph unicode="&#xdf;" horiz-adv-x="1165" d="M160 0l137 1118q45 371 403 371h125q309 0 310 -248v-24q-4 -18 -5 -27l-14 -115q-12 -102 -67 -153q-41 -39 -152 -80q121 -20 176 -68q70 -57 70 -170v-26q0 -10 -4 -46l-23 -186q-23 -190 -115 -275t-282 -85h-53q-35 6 -52 8l25 211h18q82 0 119 45q31 39 41 127 l23 196q2 18 2 27v14q0 113 -133 113l20 180q92 14 107 123l14 113q2 16 2 31q0 100 -113 100q-76 0 -108 -47q-25 -37 -35 -119l-135 -1108h-301z" />
<glyph unicode="&#xe0;" horiz-adv-x="1179" d="M139 211q0 10 2 27.5t2 27.5l13 101q33 268 331 268h93q139 0 229 -137l33 270q2 16 2 18v13q0 86 -101 86h-57q-115 0 -135 -78h-293q27 143 127 201q82 47 240 47h159q168 0 248 -45q105 -57 105 -211q0 -31 -7 -80l-88 -719h-294l16 141q-133 -156 -275 -155h-120 q-229 0 -230 225zM444 270q0 -90 111 -90h92q123 0 135 115l6 57q3 9 3 25q0 90 -109 90h-92q-125 0 -137 -115l-7 -57q-2 -8 -2 -25zM555 1548h201l133 -338h-96z" />
<glyph unicode="&#xe1;" horiz-adv-x="1179" d="M139 211q0 10 2 27.5t2 27.5l13 101q33 268 331 268h93q139 0 229 -137l33 270q2 16 2 18v13q0 86 -101 86h-57q-115 0 -135 -78h-293q27 143 127 201q82 47 240 47h159q168 0 248 -45q105 -57 105 -211q0 -31 -7 -80l-88 -719h-294l16 141q-133 -156 -275 -155h-120 q-229 0 -230 225zM444 270q0 -90 111 -90h92q123 0 135 115l6 57q3 9 3 25q0 90 -109 90h-92q-125 0 -137 -115l-7 -57q-2 -8 -2 -25zM635 1210l215 338h201l-320 -338h-96z" />
<glyph unicode="&#xe2;" horiz-adv-x="1179" d="M139 211q0 10 2 27.5t2 27.5l13 101q33 268 331 268h93q139 0 229 -137l33 270q2 16 2 18v13q0 86 -101 86h-57q-115 0 -135 -78h-293q27 143 127 201q82 47 240 47h159q168 0 248 -45q105 -57 105 -211q0 -31 -7 -80l-88 -719h-294l16 141q-133 -156 -275 -155h-120 q-229 0 -230 225zM444 270q0 -90 111 -90h92q123 0 135 115l6 57q3 9 3 25q0 90 -109 90h-92q-125 0 -137 -115l-7 -57q-2 -8 -2 -25zM481 1210l215 338h213l133 -338h-96l-153 236l-218 -236h-94z" />
<glyph unicode="&#xe3;" horiz-adv-x="1179" d="M139 211q0 10 2 27.5t2 27.5l13 101q33 270 331 270h93q137 0 229 -139l33 270q2 16 2 18v13q0 86 -101 86h-57q-59 0 -86 -13q-37 -16 -49 -65h-293q27 143 127 201q82 47 240 47h159q168 0 246 -43q107 -59 107 -211q0 -29 -7 -80l-88 -721h-294l16 141 q-133 -156 -275 -155h-120q-229 0 -230 225zM444 270q0 -90 111 -90h92q123 0 135 115l6 57q3 9 3 25q0 90 -109 90h-92q-125 0 -137 -115l-7 -57q-2 -8 -2 -25zM477 1260q68 201 203 200q27 0 78 -14l88 -25q20 -8 61 -8q72 0 113 86h67q-72 -209 -208 -209q-27 0 -66 13 l-84 26q-57 12 -72 12q-72 0 -112 -81h-68z" />
<glyph unicode="&#xe4;" horiz-adv-x="1179" d="M139 211q0 10 2 27.5t2 27.5l13 101q33 270 331 270h93q137 0 229 -139l33 272q2 16 2 18v13q0 84 -101 84h-57q-59 0 -86 -13q-37 -16 -49 -65h-293q27 143 127 201q82 47 240 47h159q168 0 246 -43q107 -59 107 -211q0 -29 -7 -80l-88 -721h-294l16 141 q-133 -156 -275 -155h-120q-229 0 -230 225zM444 270q0 -90 111 -90h92q123 0 135 115l6 57q3 9 3 25q0 92 -109 92h-92q-125 0 -137 -117l-7 -57q-2 -8 -2 -25zM502 1272l26 211h185l-27 -211h-184zM850 1272l27 211h184l-27 -211h-184z" />
<glyph unicode="&#xe5;" horiz-adv-x="1179" d="M139 209q0 10 2 28.5t2 26.5l13 103q33 268 331 268h93q137 0 229 -139l33 270q2 16 2 18v13q0 86 -101 86h-57q-59 0 -86 -13q-37 -16 -49 -65h-293q27 143 127 201q82 47 240 47h159q168 0 246 -43q107 -59 107 -211q0 -31 -7 -80l-88 -719h-294l16 141 q-131 -156 -275 -155h-120q-229 0 -230 223zM444 270q0 -92 111 -92h92q123 0 135 117l6 55q3 9 3 25q0 92 -109 92h-92q-125 0 -137 -117l-7 -55q-2 -8 -2 -25zM551 1378q0 18 2 35q12 104 91 178t183 74q94 0 155.5 -63.5t61.5 -157.5q0 -16 -2 -31q-14 -106 -92 -179 t-184 -73q-94 0 -154.5 61.5t-60.5 155.5zM655 1423q0 -156 123 -155q63 0 108.5 41t53.5 104q8 61 -27.5 104.5t-97.5 43.5q-59 0 -109.5 -40t-50.5 -98z" />
<glyph unicode="&#xe6;" horiz-adv-x="1761" d="M139 213q0 10 2 27.5t2 27.5l13 103q16 135 108 204q86 68 225 68h93q139 0 227 -139l35 274q2 16 2 29q0 88 -101 88h-57q-61 0 -86 -12q-37 -16 -49 -68h-293q27 143 127 203q82 49 240 49h159q90 0 134 -18q55 -20 102 -86q49 61 100.5 82.5t134.5 21.5h142 q180 0 260 -59q92 -70 92 -244v-57q-4 -27 -8 -68l-19 -152h-641l-18 -153q-2 -16 -2 -45q0 -111 137 -111h41q74 0 109.5 23.5t56.5 91.5h289q-41 -170 -150 -242q-100 -66 -280 -65h-142q-129 0 -198 28q-92 37 -142 138q-139 -166 -295 -166h-120q-229 0 -230 227z M444 274q0 -92 111 -92h92q123 0 135 117l6 57q3 9 3 25q0 92 -109 92h-92q-125 0 -137 -117l-7 -57q-2 -8 -2 -25zM1102 629h354l6 59q6 59 6 82q0 70 -32.5 95.5t-104.5 25.5h-43q-94 0 -135 -49q-31 -41 -43 -144z" />
<glyph unicode="&#xe7;" horiz-adv-x="1140" d="M154 289v49q0 6 8 76l26 225q27 231 123 326q100 102 328 102h141q160 0 257.5 -85t97.5 -243q0 -18 -5 -51h-294q2 10 2 33q0 127 -129 127h-45q-102 0 -140 -68q-20 -37 -37 -166l-22 -174q-10 -80 -10 -118q0 -68 29.5 -92.5t99.5 -24.5h45q86 0 127 51q31 43 43 135 h295q-29 -229 -123 -317t-324 -88h-69l-11 -86h119q113 0 113 -127v-25q-4 -18 -4 -27q-14 -121 -82 -163q-53 -33 -185 -33h-213l11 96h219q104 0 114 78q4 33 5 49q0 72 -86 72h-123l20 166q-166 0 -243.5 69.5t-77.5 233.5z" />
<glyph unicode="&#xe8;" horiz-adv-x="1144" d="M152 289v47q0 8 8 72l28 223q29 231 123 323q98 100 326 101h141q182 0 262 -60q92 -70 93 -243v-58q-2 -18 -9 -63l-18 -150h-641l-19 -153q-2 -16 -2 -25v-18q0 -109 138 -109h43q72 0 107.5 23.5t53.5 89.5h289q-39 -170 -147 -240q-98 -63 -281 -63h-141 q-182 0 -262 59q-92 70 -92 244zM481 621h355l8 59q6 45 6 78q0 72 -32 97.5t-105 25.5h-43q-96 0 -135 -47q-33 -39 -46 -144zM520 1548h201l133 -338h-96z" />
<glyph unicode="&#xe9;" horiz-adv-x="1144" d="M152 289v47q0 8 8 72l28 223q29 231 123 323q98 100 326 101h141q182 0 262 -60q92 -70 93 -243v-58q-2 -18 -9 -63l-18 -150h-641l-19 -153q-2 -16 -2 -25v-18q0 -109 138 -109h43q72 0 107.5 23.5t53.5 89.5h289q-39 -170 -147 -240q-98 -63 -281 -63h-141 q-182 0 -262 59q-92 70 -92 244zM481 621h355l8 59q6 45 6 78q0 72 -32 97.5t-105 25.5h-43q-96 0 -135 -47q-33 -39 -46 -144zM600 1210l215 338h201l-320 -338h-96z" />
<glyph unicode="&#xea;" horiz-adv-x="1144" d="M152 289v47q0 8 8 72l28 223q29 231 123 323q98 100 326 101h141q182 0 262 -60q92 -70 93 -243v-58q-2 -18 -9 -63l-18 -150h-641l-19 -153q-2 -16 -2 -25v-18q0 -109 138 -109h43q72 0 107.5 23.5t53.5 89.5h289q-39 -170 -147 -240q-98 -63 -281 -63h-141 q-182 0 -262 59q-92 70 -92 244zM446 1210l216 338h212l134 -338h-97l-153 236l-217 -236h-95zM481 621h355l8 59q6 45 6 78q0 72 -32 97.5t-105 25.5h-43q-96 0 -135 -47q-33 -39 -46 -144z" />
<glyph unicode="&#xeb;" horiz-adv-x="1144" d="M154 285v73q6 37 8 52l26 223q27 227 125.5 324.5t323.5 97.5h141q180 0 260 -60q94 -70 95 -241v-58q-2 -18 -9 -63l-18 -150h-641l-19 -153q-2 -16 -2 -25v-18q0 -111 138 -111h43q72 0 107.5 23.5t53.5 89.5h289q-39 -170 -147 -240q-98 -63 -281 -63h-141 q-178 0 -258 59q-94 70 -94 240zM467 1272l27 211h184l-27 -211h-184zM481 623h355l8 57q6 43 6 78q0 72 -32 97.5t-105 25.5h-43q-96 0 -135 -47q-33 -39 -46 -142zM815 1272l27 211h184l-27 -211h-184z" />
<glyph unicode="&#xec;" horiz-adv-x="610" d="M158 0l127 1040h299l-127 -1040h-299zM250 1548h201l133 -338h-97z" />
<glyph unicode="&#xed;" horiz-adv-x="610" d="M158 0l127 1040h299l-127 -1040h-299zM330 1210l215 338h200l-319 -338h-96z" />
<glyph unicode="&#xee;" horiz-adv-x="610" d="M158 0l127 1040h299l-127 -1040h-299zM176 1210l215 338h213l133 -338h-96l-154 236l-217 -236h-94z" />
<glyph unicode="&#xef;" horiz-adv-x="610" d="M158 0l127 1040h299l-127 -1040h-299zM197 1272l26 211h185l-27 -211h-184zM545 1272l26 211h185l-27 -211h-184z" />
<glyph unicode="&#xf1;" horiz-adv-x="1210" d="M164 0l129 1053h282l-16 -138h19q90 152 315 152q145 0 207 -49q69 -56 69 -195q0 -49 -10 -133l-84 -690h-293l76 614q6 49 6 93q0 76 -39 100q-29 18 -112 18q-104 0 -144 -67q-27 -43 -41 -166l-71 -592h-293zM492 1260q68 201 202 200q37 0 78 -12l88 -27 q27 -8 62 -8q72 0 112 86h68q-72 -209 -209 -209q-16 0 -66 15l-84 24q-41 12 -71 12q-72 0 -113 -81h-67z" />
<glyph unicode="&#xf2;" horiz-adv-x="1146" d="M152 289v47q0 8 8 72l28 223q29 231 123 323q98 100 326 101h141q182 0 262 -60q92 -70 93 -243v-58q0 -2 -9 -63l-28 -223q-29 -229 -123 -322q-100 -100 -326 -100h-141q-182 0 -262 59q-92 70 -92 244zM455 319q0 -68 29.5 -92t99.5 -24h41q96 0 129 49q29 43 45 182 l20 172q10 86 10 117q0 68 -28.5 91.5t-98.5 23.5h-40q-102 0 -140 -68q-23 -39 -37 -164l-20 -172q-10 -86 -10 -115zM522 1548h201l133 -338h-96z" />
<glyph unicode="&#xf3;" horiz-adv-x="1146" d="M152 289v47q0 8 8 72l28 223q29 231 123 323q98 100 326 101h141q182 0 262 -60q92 -70 93 -243v-58q0 -2 -9 -63l-28 -223q-29 -229 -123 -322q-100 -100 -326 -100h-141q-182 0 -262 59q-92 70 -92 244zM455 319q0 -68 29.5 -92t99.5 -24h41q96 0 129 49q29 43 45 182 l20 172q10 86 10 117q0 68 -28.5 91.5t-98.5 23.5h-40q-102 0 -140 -68q-23 -39 -37 -164l-20 -172q-10 -86 -10 -115zM602 1210l215 338h201l-320 -338h-96z" />
<glyph unicode="&#xf4;" horiz-adv-x="1146" d="M152 289v47q0 8 8 72l28 223q29 231 123 323q98 100 326 101h141q182 0 262 -60q92 -70 93 -243v-58q0 -2 -9 -63l-28 -223q-29 -229 -123 -322q-100 -100 -326 -100h-141q-182 0 -262 59q-92 70 -92 244zM449 1210l215 338h213l133 -338h-97l-153 236l-217 -236h-94z M455 319q0 -68 29.5 -92t99.5 -24h41q96 0 129 49q29 43 45 182l20 172q10 86 10 117q0 68 -28.5 91.5t-98.5 23.5h-40q-102 0 -140 -68q-23 -39 -37 -164l-20 -172q-10 -86 -10 -115z" />
<glyph unicode="&#xf5;" horiz-adv-x="1146" d="M154 285v73q6 37 8 52l26 223q27 227 125.5 324.5t323.5 97.5h141q180 0 260 -60q94 -70 95 -241v-58q-4 -27 -9 -63l-26 -223q-27 -229 -123 -324q-102 -100 -328 -100h-141q-178 0 -258 59q-94 70 -94 240zM444 1260q68 201 203 200q27 0 78 -14l88 -25q20 -8 61 -8 q72 0 113 86h68q-72 -209 -209 -209q-27 0 -66 13l-84 26q-57 12 -71 12q-72 0 -113 -81h-68zM455 319q0 -68 29.5 -92t99.5 -24h41q96 0 129 49q29 43 45 182l28 232q2 26 2 59q0 68 -28.5 90.5t-98.5 22.5h-40q-102 0 -140 -68q-23 -37 -37 -164l-20 -172 q-10 -86 -10 -115z" />
<glyph unicode="&#xf6;" horiz-adv-x="1146" d="M154 285v73q6 37 8 52l26 223q27 227 125.5 324.5t323.5 97.5h141q180 0 260 -60q94 -70 95 -241v-58q-4 -27 -9 -63l-26 -223q-27 -229 -123 -324q-102 -100 -328 -100h-141q-178 0 -258 59q-94 70 -94 240zM455 319q0 -68 29.5 -92t99.5 -24h41q96 0 129 49 q29 43 45 182l28 232q2 26 2 59q0 68 -28.5 90.5t-98.5 22.5h-40q-102 0 -140 -68q-23 -37 -37 -164l-20 -172q-10 -86 -10 -115zM469 1272l27 211h184l-27 -211h-184zM817 1272l27 211h184l-27 -211h-184z" />
<glyph unicode="&#xf7;" d="M111 410v245h991v-245h-991zM459 0v299h307v-299h-307zM459 770v299h307v-299h-307z" />
<glyph unicode="&#xf8;" horiz-adv-x="1146" d="M31 -221l196 282q-74 68 -73 226v73q6 39 8 54l26 225q27 231 123 326q100 102 328 102h141q72 0 138 -10l151 217h180l-194 -279q78 -72 78 -227v-61q-2 -12 -9 -68l-26 -225q-27 -231 -123 -326q-100 -102 -328 -102h-141q-96 0 -156 14l-155 -221h-164zM461 397 l307 445q-25 6 -63 6h-41q-102 0 -140 -68q-20 -37 -37 -166zM504 217q31 -12 80 -12h41q104 0 139 69q18 33 35 166l30 236z" />
<glyph unicode="&#xf9;" horiz-adv-x="1218" d="M199 227q0 49 10 133l84 693h293l-76 -613q-6 -49 -6 -92q0 -78 39 -102q27 -16 112 -17q102 0 144 66q27 45 41 164l71 594h293l-129 -1053h-282l16 135l-18 -2q-92 -147 -316 -147q-143 0 -207 49q-70 53 -69 192zM578 1548h200l133 -338h-96z" />
<glyph unicode="&#xfa;" horiz-adv-x="1218" d="M199 227q0 49 10 133l84 693h293l-76 -613q-6 -49 -6 -92q0 -78 39 -102q27 -16 112 -17q102 0 144 66q27 45 41 164l71 594h293l-129 -1053h-282l16 135l-18 -2q-92 -147 -316 -147q-143 0 -207 49q-70 53 -69 192zM657 1210l215 338h201l-319 -338h-97z" />
<glyph unicode="&#xfb;" horiz-adv-x="1218" d="M199 227q0 49 10 133l84 693h293l-76 -613q-6 -49 -6 -92q0 -78 39 -102q27 -16 112 -17q102 0 144 66q27 45 41 164l71 594h293l-129 -1053h-282l16 135l-18 -2q-92 -147 -316 -147q-143 0 -207 49q-70 53 -69 192zM504 1210l215 338h213l133 -338h-96l-154 236 l-217 -236h-94z" />
<glyph unicode="&#xfc;" horiz-adv-x="1218" d="M199 227q0 49 10 133l84 693h293l-76 -613q-6 -49 -6 -92q0 -78 39 -102q27 -16 112 -17q102 0 144 66q27 45 41 164l71 594h293l-129 -1053h-282l16 135l-18 -2q-92 -147 -316 -147q-143 0 -207 49q-70 53 -69 192zM524 1272l27 211h184l-26 -211h-185zM872 1272l27 211 h184l-26 -211h-185z" />
<glyph unicode="&#xfd;" horiz-adv-x="1101" d="M129 -393l25 200h53q51 0 104.5 31t67.5 78l33 107l-256 1021h303l137 -739l264 739h314l-531 -1187q-68 -152 -123 -197q-78 -63 -229 -63q-59 0 -162 10zM578 1214l215 336h200l-319 -336h-96z" />
<glyph unicode="&#xfe;" d="M115 -401l231 1886h283l-72 -563h16q90 147 312 147q285 0 284 -307v-55q-2 -14 -8 -62l-28 -223q-27 -201 -103 -301q-92 -123 -278 -123q-221 0 -265 127h-16l-63 -526h-293zM506 352q0 -68 27.5 -96.5t95.5 -28.5h39q96 0 133 68q23 41 37 156l20 167q6 52 6 99 q0 68 -27.5 96.5t-95.5 28.5h-39q-100 0 -133 -68q-25 -51 -37 -156l-20 -167q-6 -51 -6 -99z" />
<glyph unicode="&#xff;" horiz-adv-x="1101" d="M129 -393l25 200h53q51 0 104.5 31t67.5 78l33 107l-256 1021h303l137 -739l264 739h314l-531 -1187q-68 -152 -123 -197q-78 -63 -229 -63q-59 0 -162 10zM444 1276l27 209h184l-26 -209h-185zM793 1276l26 209h185l-27 -209h-184z" />
<glyph unicode="&#x152;" horiz-adv-x="2043" d="M182 434q0 68 11 152l38 317q37 303 179 449q154 156 450 155q154 0 291 -45q47 -16 106 -47l9 74h845l-34 -291h-539l-39 -319h514l-31 -244h-514l-43 -346h555l-34 -289h-863l9 74q-61 -29 -109 -45q-145 -47 -297 -47q-252 0 -373 98q-131 111 -131 354zM551 453 q0 -104 57 -142q45 -29 158 -28h74q168 0 225 82q37 57 61 247l33 265q12 98 12 155q0 109 -57 146q-45 29 -162 28h-73q-164 0 -222 -86q-39 -57 -61 -243l-33 -265q-12 -98 -12 -159z" />
<glyph unicode="&#x153;" horiz-adv-x="1806" d="M154 289v71q6 39 8 54l26 225q27 231 123 326q100 102 328 102h127q106 0 163.5 -36t90.5 -134q96 170 295 170h133q180 0 258 -59q92 -70 92 -242v-59q-4 -27 -8 -68l-18 -152h-652l-18 -153q-2 -16 -2 -25v-18q0 -113 139 -113h51q74 0 110 23.5t56 91.5h287 q-35 -170 -148 -242q-98 -66 -280 -65h-168q-109 0 -154 53q-43 47 -53 160q-55 -111 -119 -158q-74 -55 -188 -55h-127q-180 0 -260 59q-92 70 -92 244zM457 326q0 -72 31.5 -96.5t105.5 -24.5h43q109 0 147 65q23 39 39 170l23 174q10 80 10 113q0 72 -31.5 96.5 t-107.5 24.5h-45q-109 0 -146 -66q-23 -35 -39 -168l-22 -174q-8 -63 -8 -114zM1139 629h364l6 59q7 59 7 82q0 70 -33 95.5t-105 25.5h-51q-98 0 -137 -51q-31 -39 -43 -146z" />
<glyph unicode="&#x178;" horiz-adv-x="1390" d="M209 1481h403l203 -615l346 615h400l-615 -961l-63 -520h-359l62 520zM647 1710l25 209h184l-25 -209h-184zM995 1710l25 209h184l-24 -209h-185z" />
<glyph unicode="&#x2c6;" horiz-adv-x="1007" d="M373 1180l219 370h213l129 -370h-96l-152 258l-219 -258h-94z" />
<glyph unicode="&#x2dc;" horiz-adv-x="1007" d="M369 1227q70 227 204 227q49 0 78 -14l90 -29q16 -10 60 -10q72 0 114 100h68q-78 -240 -211 -239q-27 0 -67 14l-84 29q-47 16 -70 16q-72 0 -115 -94h-67z" />
<glyph unicode="&#x2000;" horiz-adv-x="992" />
<glyph unicode="&#x2001;" horiz-adv-x="1985" />
<glyph unicode="&#x2002;" horiz-adv-x="992" />
<glyph unicode="&#x2003;" horiz-adv-x="1985" />
<glyph unicode="&#x2004;" horiz-adv-x="661" />
<glyph unicode="&#x2005;" horiz-adv-x="496" />
<glyph unicode="&#x2006;" horiz-adv-x="330" />
<glyph unicode="&#x2007;" horiz-adv-x="330" />
<glyph unicode="&#x2008;" horiz-adv-x="248" />
<glyph unicode="&#x2009;" horiz-adv-x="397" />
<glyph unicode="&#x200a;" horiz-adv-x="110" />
<glyph unicode="&#x2010;" horiz-adv-x="677" d="M70 426v279h557v-279h-557z" />
<glyph unicode="&#x2011;" horiz-adv-x="677" d="M70 426v279h557v-279h-557z" />
<glyph unicode="&#x2012;" horiz-adv-x="677" d="M70 426v279h557v-279h-557z" />
<glyph unicode="&#x2013;" horiz-adv-x="1013" d="M0 426v217h1024v-217h-1024z" />
<glyph unicode="&#x2014;" horiz-adv-x="2027" d="M0 426v217h2048v-217h-2048z" />
<glyph unicode="&#x2018;" horiz-adv-x="675" d="M303 895l45 371q27 223 291 223l-10 -113h8q-123 0 -131 -114l-4 -54h104l-37 -313h-266z" />
<glyph unicode="&#x2019;" horiz-adv-x="675" d="M305 895l10 111h-8q115 0 129 116q4 16 4 56h-102l37 311h266l-45 -369q-27 -225 -291 -225z" />
<glyph unicode="&#x201a;" horiz-adv-x="675" d="M162 -262l12 110h-8q125 0 129 117l2 55h-102l38 312h267l-45 -371q-27 -223 -293 -223z" />
<glyph unicode="&#x201c;" horiz-adv-x="1138" d="M303 895l45 371q27 223 291 223l-10 -113h8q-123 0 -131 -114l-4 -54h104l-37 -313h-266zM801 895l45 371q27 223 289 223l-11 -113h9q-117 0 -129 -114q-4 -16 -5 -54h103l-37 -313h-264z" />
<glyph unicode="&#x201d;" horiz-adv-x="1138" d="M305 895l10 111h-8q115 0 129 116q4 16 4 56h-102l37 311h266l-45 -369q-27 -225 -291 -225zM801 895l10 111h-8q123 0 131 116l4 56h-104l36 311h267l-45 -369q-27 -225 -291 -225z" />
<glyph unicode="&#x201e;" horiz-adv-x="1138" d="M162 -262l12 110h-8q125 0 129 117l2 55h-102l38 312h267l-45 -371q-27 -223 -293 -223zM657 -262l13 110h-8q115 0 131 117l2 55h-105l39 312h266l-45 -371q-27 -223 -293 -223z" />
<glyph unicode="&#x2022;" horiz-adv-x="710" d="M115 614q0 109 74.5 183.5t183.5 74.5q106 0 180 -76t74 -182q0 -104 -75 -179t-179 -75q-109 0 -183.5 73t-74.5 181z" />
<glyph unicode="&#x2026;" horiz-adv-x="2027" d="M197 0v299h307v-299h-307zM881 0v299h307v-299h-307zM1561 0v299h307v-299h-307z" />
<glyph unicode="&#x202f;" horiz-adv-x="397" />
<glyph unicode="&#x2039;" horiz-adv-x="677" d="M242 438l30 254l375 283l-26 -225l-236 -181l190 -180l-28 -237z" />
<glyph unicode="&#x203a;" horiz-adv-x="677" d="M199 152l28 237l236 180l-191 181l27 225l309 -283l-30 -254z" />
<glyph unicode="&#x205f;" horiz-adv-x="496" />
<glyph unicode="&#x20ac;" horiz-adv-x="1398" d="M78 535l67 151h168l15 115h-201l68 151h151q45 295 172 420q137 135 410 135h82q248 0 360 -86q125 -98 109 -372h-344q0 88 -48.5 123.5t-146.5 35.5q-143 0 -187 -57t-65 -199h432l-67 -151h-383l-15 -115h346l-67 -151h-295q-6 -53 -6 -86q0 -100 45 -136 q39 -33 149 -32q131 0 185 51q33 31 55 139h350q-43 -256 -151 -360q-133 -129 -418 -129h-107q-229 0 -340.5 97t-111.5 329q0 57 6 127h-217z" />
<glyph unicode="&#x2122;" horiz-adv-x="2027" d="M156 1368v160h700v-160h-250v-668h-200v668h-250zM958 700v828h291l185 -492l188 492h291v-828h-180v668l-246 -668h-107l-241 668v-668h-181z" />
<glyph unicode="&#xe000;" horiz-adv-x="1054" d="M0 0v1055h1055v-1055h-1055z" />
</font>
</defs>
</svg>
